Subcategories

Eddie "Lockjaw: Davis Big Band - Trane Whistle (1961) {1990 OJC/ZYX Germany}

Posted By: TestTickles
Eddie "Lockjaw: Davis Big Band - Trane Whistle (1961) {1990 OJC/ZYX Germany}

Eddie "Lockjaw: Davis Big Band - Trane Whistle (1961) {1990 OJC/ZYX Germany}
EAC Rip | FLAC with CUE and log | scans | 205 mb
MP3 CBR 320kbps | RAR | 78 mb
Genre: jazz

Trane Whistle is a 1961 album by The Eddie "Lockjaw: Davis Big Band. This is a German pressing remastered and reissued by Original jazz Classics (OJC) via ZYX.
This CD reissue brings back an Eddie "Lockjaw" Davis session in which the distinctive tenor saxophonist is joined by a 13-piece big band arranged by Oliver Nelson. Most significant is the inclusion of the original version of "Stolen Moments" (here called "The Stolen Moment" and predating the more famous Oliver Nelson recording by several months). Eric Dolphy is in the backup group but is not heard from in a solo capacity. There are some spots for trumpeters Richard Williams, Clark Terry and Bobby Bryant along with Nelson on alto but this is primarily Davis' showcase. On a set comprised of four Oliver Nelson originals, the ballad "You Are Too Beautiful" and the leader's "Jaws," Lockjaw as usual shows plenty of emotion during his driving solos.

1. Trane Whistle 6:19
2. Whole Nelson 3:35
3. You Are Too Beautiful 5:11
4. The Stolen Moments 7:54
5. Walk Away 5:27
6. Jaws 4:36

Eddie "Lockjaw" Davis-tenor saxophone
Melba Liston-trombone
Jimmy Cleveland-trombone
Clark Terry-trumpet
Richard Williams-trumpet
Bob Bryant-trumpet
Jerome Richardson-reeds
Oliver Nelson-reeds
Eric Dolphy-reeds
George Barrow-reeds
Bob Ashton-reeds
Richard Wyands-piano
Wendell Marshall-bass
Roy Haynes-drums

Supervision by Esmond Edwards
Recorded in Englewood Cliffs, New Jersey on 20 September, 1960
Remastered by Phil De Lancie

EAC extraction logfile from 4. June 2006, 9:02 for CD
Eddie Lockjaw Davis Big Band / Trane Whistle

Used drive : PLEXTOR DVDR PX-712A Adapter: 0 ID: 0
Read mode : Secure with NO C2, accurate stream, disable cache
Read offset correction : 30
Overread into Lead-In and Lead-Out : No

Used output format : C:\Program\FLAC\flac.exe (User Defined Encoder)
320 kBit/s
Additional command line options : -5 -V -T "ARTIST=%a" -T "TITLE=%t" -T "ALBUM=%g" -T "DATE=%y" -T "TRACKNUMBER=%n" -T "GENRE=%m" -T "COMMENT=EAC Flac 1.1.2 -5" %s

Other options :
Fill up missing offset samples with silence : Yes
Delete leading and trailing silent blocks : No
Installed external ASPI interface


Track 1
Filename C:\FLAC\Eddie Lockjaw Davis Big Band - Trane Whistle (1961) [FLAC] {1990 OJC, ZYX Germany}\01 - Trane Whistle.wav

Pre-gap length 0:00:02.00

Peak level 74.6 %
Track quality 99.9 %
Test CRC 676F3066
Copy CRC 676F3066
Copy OK

Track 2
Filename C:\FLAC\Eddie Lockjaw Davis Big Band - Trane Whistle (1961) [FLAC] {1990 OJC, ZYX Germany}\02 - Whole Nelson.wav

Pre-gap length 0:00:03.50

Peak level 78.7 %
Track quality 100.0 %
Test CRC BB8C9EF5
Copy CRC BB8C9EF5
Copy OK

Track 3
Filename C:\FLAC\Eddie Lockjaw Davis Big Band - Trane Whistle (1961) [FLAC] {1990 OJC, ZYX Germany}\03 - You Are Too Beautiful.wav

Pre-gap length 0:00:02.86

Peak level 76.4 %
Track quality 100.0 %
Test CRC 0AB88D2F
Copy CRC 0AB88D2F
Copy OK

Track 4
Filename C:\FLAC\Eddie Lockjaw Davis Big Band - Trane Whistle (1961) [FLAC] {1990 OJC, ZYX Germany}\04 - The Stlen Moment.wav

Pre-gap length 0:00:01.40

Peak level 77.1 %
Track quality 100.0 %
Test CRC 5471FC0A
Copy CRC 5471FC0A
Copy OK

Track 5
Filename C:\FLAC\Eddie Lockjaw Davis Big Band - Trane Whistle (1961) [FLAC] {1990 OJC, ZYX Germany}\05 - Walk Away.wav

Pre-gap length 0:00:02.82

Peak level 74.8 %
Track quality 100.0 %
Test CRC 7140F8E0
Copy CRC 7140F8E0
Copy OK

Track 6
Filename C:\FLAC\Eddie Lockjaw Davis Big Band - Trane Whistle (1961) [FLAC] {1990 OJC, ZYX Germany}\06 - Jaws.wav

Pre-gap length 0:00:02.66

Peak level 76.9 %
Track quality 100.0 %
Test CRC EE46D508
Copy CRC EE46D508
Copy OK

No errors occured


End of status report


Eddie "Lockjaw: Davis Big Band - Trane Whistle (1961) {1990 OJC/ZYX Germany}


Thank you to the original uploader.