Subcategories

Ella Fitzgerald - Love, Ella (2007) {Verve}

Posted By: TestTickles
Ella Fitzgerald - Love, Ella (2007) {Verve}

Ella Fitzgerald - Love, Ella (2007) {Verve}
EAC Rip | FLAC with CUE and log | scans | 206 mb
MP3 CBR 320kbps | RAR | 120 mb
Genre: jazz, vocal jazz, pop

Love, Ella is the 2007 compilation CD by the legendary jazz vocalist Ella Fitzgerald. This is meant to be a companion piece to an Ella tribute CD called We All Love Ella where various singers cover songs made famous by her. Love, Ella are the original versions of those songs. This was released by Verve Records.

Ella Fitzgerald - Love, Ella (2007) {Verve}

01. A-Tisket, A-Tasket
02. Lullaby Of Birdland
03. The Lady Is A Tramp
04. Dream A Little Dream Of Me
05. (If You Can't Sing It) You'll Have To Swing It (a.k.a. Mr. Paganini)
06. Oh, Lady Be Good!
07. Reaching For The Moon
08. Blues In The Night
09. Miss Otis Regrets
10. Someone To Watch Over Me
11. Do Nothing' Till You Hear From Me
12. Angel Eyes
13. To Close For Comfort
14. Airmail Special


Compilation produced by Harry Weinger and Andy McKaie
Remastered by Seth Foster at Universal Mastering Studios-East

Ella Fitzgerald - Love, Ella (2007) {Verve}

Exact Audio Copy V1.1 from 23. June 2015

EAC extraction logfile from 9. September 2016, 8:10

Ella Fitzgerald / Love, Ella

Used drive : TEAC DVD-ROM DV-28SW Adapter: 1 ID: 0

Read mode : Secure
Utilize accurate stream : Yes
Defeat audio cache : Yes
Make use of C2 pointers : No

Read offset correction : 6
Overread into Lead-In and Lead-Out : No
Fill up missing offset samples with silence : Yes
Delete leading and trailing silent blocks : No
Null samples used in CRC calculations : Yes
Used interface : Native Win32 interface for Win NT & 2000
Gap handling : Appended to previous track

Used output format : Internal WAV Routines
Sample format : 44.100 Hz; 16 Bit; Stereo


TOC of the extracted CD

Track | Start | Length | Start sector | End sector
––––––––––––––––––––––––––––-
1 | 0:00.00 | 2:38.55 | 0 | 11904
2 | 2:38.55 | 2:51.31 | 11905 | 24760
3 | 5:30.11 | 3:23.61 | 24761 | 40046
4 | 8:53.72 | 3:07.28 | 40047 | 54099
5 | 12:01.25 | 5:10.32 | 54100 | 77381
6 | 17:11.57 | 4:02.07 | 77382 | 95538
7 | 21:13.64 | 2:17.53 | 95539 | 105866
8 | 23:31.42 | 7:13.00 | 105867 | 138341
9 | 30:44.42 | 3:02.44 | 138342 | 152035
10 | 33:47.11 | 3:16.21 | 152036 | 166756
11 | 37:03.32 | 7:43.06 | 166757 | 201487
12 | 44:46.38 | 2:56.28 | 201488 | 214715
13 | 47:42.66 | 3:04.49 | 214716 | 228564
14 | 50:47.40 | 3:01.19 | 228565 | 242158


Track 1

Filename C:\My Documents\My FLAC\Ella Fitzgerald - Love, Ella (2007) [FLAC] {Verve}\01 - A-Tisket, A-Tasket.wav

Pre-gap length 0:00:02.00

Peak level 77.6 %
Extraction speed 2.6 X
Track quality 100.0 %
Test CRC 984995D2
Copy CRC 984995D2
Accurately ripped (confidence 2) [F6EA2E8A] (AR v2)
Copy OK

Track 2

Filename C:\My Documents\My FLAC\Ella Fitzgerald - Love, Ella (2007) [FLAC] {Verve}\02 - Lullaby Of Birdland.wav

Pre-gap length 0:00:01.37

Peak level 54.8 %
Extraction speed 2.1 X
Track quality 100.0 %
Test CRC B2E2F72F
Copy CRC B2E2F72F
Accurately ripped (confidence 2) [EB33F85F] (AR v2)
Copy OK

Track 3

Filename C:\My Documents\My FLAC\Ella Fitzgerald - Love, Ella (2007) [FLAC] {Verve}\03 - The Lady Is A Tramp.wav

Pre-gap length 0:00:02.48

Peak level 58.5 %
Extraction speed 2.3 X
Track quality 99.9 %
Test CRC 75CDEBBE
Copy CRC 75CDEBBE
Accurately ripped (confidence 2) [D7A58331] (AR v2)
Copy OK

Track 4

Filename C:\My Documents\My FLAC\Ella Fitzgerald - Love, Ella (2007) [FLAC] {Verve}\04 - Dream A Little Dream Of Me.wav

Pre-gap length 0:00:02.04

Peak level 55.4 %
Extraction speed 3.2 X
Track quality 100.0 %
Test CRC 97906922
Copy CRC 97906922
Accurately ripped (confidence 3) [40DF5C7D] (AR v2)
Copy OK

Track 5

Filename C:\My Documents\My FLAC\Ella Fitzgerald - Love, Ella (2007) [FLAC] {Verve}\05 - (If You Can't Sing It) You'll Have To Swing It (a.k.a. Mr. Paganini).wav

Pre-gap length 0:00:02.16

Peak level 64.4 %
Extraction speed 3.2 X
Track quality 99.9 %
Test CRC 9754323E
Copy CRC 9754323E
Accurately ripped (confidence 3) [6A2149E2] (AR v2)
Copy OK

Track 6

Filename C:\My Documents\My FLAC\Ella Fitzgerald - Love, Ella (2007) [FLAC] {Verve}\06 - Oh, Lady Be Good!.wav

Pre-gap length 0:00:02.19

Peak level 70.5 %
Extraction speed 3.8 X
Track quality 100.0 %
Test CRC FD5F2424
Copy CRC FD5F2424
Accurately ripped (confidence 2) [C20D05F4] (AR v2)
Copy OK

Track 7

Filename C:\My Documents\My FLAC\Ella Fitzgerald - Love, Ella (2007) [FLAC] {Verve}\07 - Reaching For The Moon.wav

Pre-gap length 0:00:02.04

Peak level 58.7 %
Extraction speed 3.5 X
Track quality 100.0 %
Test CRC CE8302AD
Copy CRC CE8302AD
Accurately ripped (confidence 2) [AC7FFB69] (AR v2)
Copy OK

Track 8

Filename C:\My Documents\My FLAC\Ella Fitzgerald - Love, Ella (2007) [FLAC] {Verve}\08 - Blues In The Night.wav

Pre-gap length 0:00:02.26

Peak level 52.3 %
Extraction speed 4.4 X
Track quality 100.0 %
Test CRC 50FEB129
Copy CRC 50FEB129
Accurately ripped (confidence 2) [5F71B6AB] (AR v2)
Copy OK

Track 9

Filename C:\My Documents\My FLAC\Ella Fitzgerald - Love, Ella (2007) [FLAC] {Verve}\09 - Miss Otis Regrets.wav

Pre-gap length 0:00:01.67

Peak level 56.3 %
Extraction speed 3.4 X
Track quality 99.9 %
Test CRC DA2B6C44
Copy CRC DA2B6C44
Accurately ripped (confidence 2) [C5D5B741] (AR v2)
Copy OK

Track 10

Filename C:\My Documents\My FLAC\Ella Fitzgerald - Love, Ella (2007) [FLAC] {Verve}\10 - Someone To Watch Over Me.wav

Pre-gap length 0:00:02.11

Peak level 56.1 %
Extraction speed 4.3 X
Track quality 100.0 %
Test CRC F139B8DF
Copy CRC F139B8DF
Accurately ripped (confidence 3) [10FFA5C0] (AR v2)
Copy OK

Track 11

Filename C:\My Documents\My FLAC\Ella Fitzgerald - Love, Ella (2007) [FLAC] {Verve}\11 - Do Nothing' Till You Hear From Me.wav

Pre-gap length 0:00:02.08

Peak level 63.9 %
Extraction speed 5.0 X
Track quality 100.0 %
Test CRC 6C01E301
Copy CRC 6C01E301
Accurately ripped (confidence 3) [AA2EA6A2] (AR v2)
Copy OK

Track 12

Filename C:\My Documents\My FLAC\Ella Fitzgerald - Love, Ella (2007) [FLAC] {Verve}\12 - Angel Eyes.wav

Pre-gap length 0:00:02.32

Peak level 59.4 %
Extraction speed 4.6 X
Track quality 100.0 %
Test CRC C51F4BCC
Copy CRC C51F4BCC
Accurately ripped (confidence 2) [B724A587] (AR v2)
Copy OK

Track 13

Filename C:\My Documents\My FLAC\Ella Fitzgerald - Love, Ella (2007) [FLAC] {Verve}\13 - To Close For Comfort.wav

Pre-gap length 0:00:02.06

Peak level 81.8 %
Extraction speed 4.8 X
Track quality 100.0 %
Test CRC 9CA7F6B8
Copy CRC 9CA7F6B8
Accurately ripped (confidence 2) [9FE1FA76] (AR v2)
Copy OK

Track 14

Filename C:\My Documents\My FLAC\Ella Fitzgerald - Love, Ella (2007) [FLAC] {Verve}\14 - Airmail Special.wav

Pre-gap length 0:00:01.69

Peak level 63.8 %
Extraction speed 3.9 X
Track quality 99.9 %
Test CRC 7A11FC6B
Copy CRC 7A11FC6B
Accurately ripped (confidence 2) [063DD596] (AR v2)
Copy OK


All tracks accurately ripped

No errors occurred

End of status report

–– CUETools DB Plugin V2.1.6

[CTDB TOCID: 2EgfwQvCX74lIjTUAVlcapPg1Pw-] found
Submit result: 2EgfwQvCX74lIjTUAVlcapPg1Pw- has been confirmed
Track | CTDB Status
1 | (1/1) Accurately ripped
2 | (1/1) Accurately ripped
3 | (1/1) Accurately ripped
4 | (1/1) Accurately ripped
5 | (1/1) Accurately ripped
6 | (1/1) Accurately ripped
7 | (1/1) Accurately ripped
8 | (1/1) Accurately ripped
9 | (1/1) Accurately ripped
10 | (1/1) Accurately ripped
11 | (1/1) Accurately ripped
12 | (1/1) Accurately ripped
13 | (1/1) Accurately ripped
14 | (1/1) Accurately ripped


==== Log checksum 1C3267B8FD55D1B1C84F976B5FC46C8132187B270297213E2268225EA4F0170F ====
NITROFLARE (FLAC)
NITROFLARE (MP3)