Subcategories
Tags
Language
Tags

4 Non Blondes - Bigger, Better, Faster, More! (1992) {Reissue}

Posted By: popsakov
4 Non Blondes - Bigger, Better, Faster, More! (1992) {Reissue}

4 Non Blondes - Bigger, Better, Faster, More! (1992) {Reissue}
EAC Rip | FLAC (Img) + Cue + Log ~ 331 Mb | MP3 CBR320 ~ 141 Mb
Full Scans | 00:41:06 | RAR 5% Recovery
Alternative Rock | Interscope Records #INTD-92112 | US

Bigger, Better, Faster, More! is the only studio album released by alternative rock band 4 Non Blondes, released in 1992. The first single was "Dear Mr. President", which bass player Christa Hillhouse told Songfacts "was about the hierarchy of power and government." The second single, "What's Up?", reached No. 1 in several countries and went gold in the United States, while the album itself went platinum, accumulating sales of 1.5 million copies in the United States alone and 6 million copies worldwide.

San Francisco's 4 Non Blondes burst onto the national scene with their massive, neo-hippie anthem "What's Up" from their debut Bigger, Better, Faster, More? Although they failed to recreate the single's success, the album, as a whole, is a fairly engaging mix of alternative rock, quasi-funk, and blues.

The focal point is on lead singer Linda Perry who also plays guitar and was the primary writer of the material. Perry has a powerful set of pipes akin to Johnette Napolitano, but, unfortunately, she tends to cut loose when a little more restraint would benefit the proceedings. However, "Superfly" is a feel good, funky number and "Spaceman"'s yearning lyrics are delivered over a quiet, martial drum rhythm. A solid debut that got lost in the wake of its mammoth hit.

~ Tom Demalon, All Music

***************

Track List:

01. Train [3:43]
02. Superfly [4:38]
03. What's Up? [4:56]
04. Pleasantly Blue [2:29]
05. Morphine & Chocolate [4:44]
06. Spaceman [3:41]
07. Old Mr. Heffer [2:17]
08. Calling All the People [3:18]
09. Dear Mr. President [4:44]
10. Drifting [3:31]
11. No Place Like Home [3:09]

Exact Audio Copy V1.6 from 23. October 2020

EAC extraction logfile from 8. March 2021, 17:33

4 Non Blondes / Bigger, Better, Faster, More!

Used drive : HL-DT-STDVDRAM GP65NB60 Adapter: 1 ID: 0

Read mode : Secure
Utilize accurate stream : Yes
Defeat audio cache : Yes
Make use of C2 pointers : No

Read offset correction : 6
Overread into Lead-In and Lead-Out : No
Fill up missing offset samples with silence : Yes
Delete leading and trailing silent blocks : No
Null samples used in CRC calculations : Yes
Used interface : Native Win32 interface for Win NT & 2000

Used output format : User Defined Encoder
Selected bitrate : 1024 kBit/s
Quality : High
Add ID3 tag : No
Command line compressor : C:\Program Files (x86)\Exact Audio Copy\Flac\flac.exe
Additional command line options : -V -8 -T "Date=%year%" -T "Genre=%genre%" %source%


TOC of the extracted CD

Track | Start | Length | Start sector | End sector
––––––––––––––––––––––––––––-
1 | 0:00.00 | 3:42.38 | 0 | 16687
2 | 3:42.38 | 4:37.42 | 16688 | 37504
3 | 8:20.05 | 4:55.37 | 37505 | 59666
4 | 13:15.42 | 2:28.28 | 59667 | 70794
5 | 15:43.70 | 4:44.00 | 70795 | 92094
6 | 20:27.70 | 3:40.08 | 92095 | 108602
7 | 24:08.03 | 2:16.62 | 108603 | 118864
8 | 26:24.65 | 3:17.48 | 118865 | 133687
9 | 29:42.38 | 4:43.22 | 133688 | 154934
10 | 34:25.60 | 3:31.00 | 154935 | 170759
11 | 37:56.60 | 3:09.00 | 170760 | 184934


Range status and errors

Selected range

Filename D:\4 Non Blondes - Bigger, Better, Faster, More!.wav

Peak level 100.0 %
Extraction speed 4.4 X
Range quality 100.0 %
Test CRC 9EEC7261
Copy CRC 9EEC7261
Copy OK

No errors occurred


AccurateRip summary

Track 1 accurately ripped (confidence 22) [BAF5451C] (AR v2)
Track 2 accurately ripped (confidence 22) [3DDD62C6] (AR v2)
Track 3 accurately ripped (confidence 23) [7079FA35] (AR v2)
Track 4 accurately ripped (confidence 22) [DFF87827] (AR v2)
Track 5 accurately ripped (confidence 22) [3426CDB1] (AR v2)
Track 6 accurately ripped (confidence 22) [B85A84BD] (AR v2)
Track 7 accurately ripped (confidence 22) [9B86575B] (AR v2)
Track 8 accurately ripped (confidence 22) [D2478F9F] (AR v2)
Track 9 accurately ripped (confidence 22) [29B5958B] (AR v2)
Track 10 accurately ripped (confidence 22) [E40E77FB] (AR v2)
Track 11 accurately ripped (confidence 22) [D1B6D2AC] (AR v2)

All tracks accurately ripped

End of status report

–– CUETools DB Plugin V2.1.6

[CTDB TOCID: s9bDd5nJYp8CWHc6MvAoBPTm9i0-] found
Submit result: s9bDd5nJYp8CWHc6MvAoBPTm9i0- has been confirmed
Track | CTDB Status
1 | (48/48) Accurately ripped
2 | (48/48) Accurately ripped
3 | (48/48) Accurately ripped
4 | (48/48) Accurately ripped
5 | (48/48) Accurately ripped
6 | (48/48) Accurately ripped
7 | (48/48) Accurately ripped
8 | (47/48) Accurately ripped
9 | (48/48) Accurately ripped
10 | (48/48) Accurately ripped
11 | (48/48) Accurately ripped


==== Log checksum 2765C08648D8FB925E042AE6BB149677DC8A869284DA3A31F5430B94CC0B9DC3 ====

[CUETools log; Date: 05.05.2021 13:53:05; Version: 2.1.6]
[CTDB TOCID: s9bDd5nJYp8CWHc6MvAoBPTm9i0-] found.
Track | CTDB Status
1 | (49/49) Accurately ripped
2 | (49/49) Accurately ripped
3 | (49/49) Accurately ripped
4 | (49/49) Accurately ripped
5 | (49/49) Accurately ripped
6 | (49/49) Accurately ripped
7 | (49/49) Accurately ripped
8 | (48/49) Accurately ripped
9 | (49/49) Accurately ripped
10 | (49/49) Accurately ripped
11 | (49/49) Accurately ripped
[AccurateRip ID: 00118678-009655d0-9c09a10b] found.
Track [ CRC | V2 ] Status
01 [e85dd765|baf5451c] (10+22/32) Accurately ripped
02 [c1b1738c|3ddd62c6] (10+22/32) Accurately ripped
03 [e7630536|7079fa35] (10+23/33) Accurately ripped
04 [ad7478e7|dff87827] (10+22/32) Accurately ripped
05 [a53d7707|3426cdb1] (10+22/32) Accurately ripped
06 [5cbdbc66|b85a84bd] (10+22/32) Accurately ripped
07 [5a7db66f|9b86575b] (10+22/32) Accurately ripped
08 [7b6d6e4d|d2478f9f] (10+22/32) Accurately ripped
09 [3152b4a2|29b5958b] (10+22/32) Accurately ripped
10 [4f14615b|e40e77fb] (10+22/32) Accurately ripped
11 [4f19fdcc|d1b6d2ac] (10+22/32) Accurately ripped
Offsetted by 689:
01 [0c76686c] (00/32) No match (V2 was not tested)
02 [b87d5a55] (00/32) No match (V2 was not tested)
03 [973048b7] (00/33) No match (V2 was not tested)
04 [f7c0464b] (00/32) No match (V2 was not tested)
05 [36f1e11a] (00/32) No match (V2 was not tested)
06 [df2c57b5] (00/32) No match (V2 was not tested)
07 [e25a4812] (00/32) No match (V2 was not tested)
08 [7e2c82e6] (00/32) No match (V2 was not tested)
09 [464f2e5e] (00/32) No match (V2 was not tested)
10 [9ce5615b] (00/32) No match (V2 was not tested)
11 [7632132e] (00/32) No match (V2 was not tested)

Track Peak [ CRC32 ] [W/O NULL] [ LOG ]
– 100,0 [9EEC7261] [A3D6C88A] CRC32
01 100,0 [5C221E41] [09922C4E]
02 100,0 [A886D145] [DD04A2EF]
03 100,0 [3645F090] [989845FC]
04 85,6 [374FB097] [198AE786]
05 99,8 [AF6031D7] [4A86976F]
06 100,0 [07F83BCA] [84F7E9E8]
07 100,0 [9FDFF5A6] [127B10F1]
08 100,0 [0510B3F4] [9D353349]
09 99,9 [116415AA] [34A97745]
10 91,8 [74EC0FC3] [4E56CB3E]
11 94,8 [E747C570] [A64ADD63]

4 Non Blondes - Bigger, Better, Faster, More! (1992) {Reissue}


All thanks go to moz-@rt

>>> My Blog <<<

DOWNLOAD: