Subcategories

VA - Across The Bridge Of Hope: In Aid Of The Omagh Fund (1998) {White}

Posted By: TestTickles
VA - Across The Bridge Of Hope: In Aid Of The Omagh Fund (1998) {White}

VA - Across The Bridge Of Hope: In Aid Of The Omagh Fund (1998) {White}
EAC Rip | FLAC with CUE and log | scans | 303 mb
MP3 CBR 320 kbps | RAR | 118 mb
Genre: British pop, soft rock, pop rock, folk, religious, ethereal, spoken word

Across The Bridge Of Hope: In Aid Of The Omagh Fund is a 1998 compilation CD honoring something that happened to people. It features tracks by Van Morrison, Sinéad O'Connor, Enya, U2 and others. This was released by White Records.

VA - Across The Bridge Of Hope: In Aid Of The Omagh Fund (1998) {White}

01. Liam Neeson - The Cure At Troy
02. Sinéad O'Connor - Chiquitita
03. The Divine Comedy - Sunrise
04. Boyzone - Words
05. The Corrs - What Can I Do
06. Daniel O'Donnell - Beyond The Great Divide
07. Van Morrison - The Healing Game (The Alternative Acoustic Version)
08. Ash - I'm Gonna Fall
09. U2 - Please
10. Juliet Turner - Broken Things
11. Paul Brady - The Island
12. Liam Neeson - The Bridge
13. Omagh Community Youth Choir - Across The Bridge Of Hope
14. Enya - Silent Night

Exact Audio Copy V1.0 beta 3 from 29. August 2011

EAC extraction logfile from 26. May 2015, 16:22

Various Artists / Across The Bridge Of Hope: In Aid Of The Omagh Fund

Used drive : PLDS DVD+-RW DH-16A6S Adapter: 1 ID: 0

Read mode : Secure
Utilize accurate stream : Yes
Defeat audio cache : No
Make use of C2 pointers : No

Read offset correction : 6
Overread into Lead-In and Lead-Out : No
Fill up missing offset samples with silence : Yes
Delete leading and trailing silent blocks : No
Null samples used in CRC calculations : Yes
Used interface : Native Win32 interface for Win NT & 2000
Gap handling : Appended to previous track

Used output format : User Defined Encoder
Selected bitrate : 1024 kBit/s
Quality : High
Add ID3 tag : No
Command line compressor : C:\Program Files (x86)\Exact Audio Copy\FLAC\FLAC.EXE
Additional command line options : -8 -V -T "ARTIST=%artist%" -T "TITLE=%title%" -T "ALBUM=%albumtitle%" -T "DATE=%year%" -T "TRACKNUMBER=%tracknr%" -T "GENRE=%genre%" -T "PERFORMER=%albuminterpret%" -T "COMPOSER=%composer%" %haslyrics%–tag-from-file=LYRICS="%lyricsfile%"%haslyrics% -T "ALBUMARTIST=%albumartist%" -T "DISCNUMBER=%cdnumber%" -T "TOTALDISCS=%totalcds%" -T "TOTALTRACKS=%numtracks%" -T "COMMENT=%comment%" %source% -o %dest%


TOC of the extracted CD

Track | Start | Length | Start sector | End sector
––––––––––––––––––––––––––––-
1 | 0:00.15 | 0:54.29 | 15 | 4093
2 | 0:54.44 | 4:20.63 | 4094 | 23656
3 | 5:15.32 | 3:17.39 | 23657 | 38470
4 | 8:32.71 | 4:03.25 | 38471 | 56720
5 | 12:36.21 | 4:16.54 | 56721 | 75974
6 | 16:53.00 | 3:21.65 | 75975 | 91114
7 | 20:14.65 | 4:28.36 | 91115 | 111250
8 | 24:43.26 | 5:13.11 | 111251 | 134736
9 | 29:56.37 | 5:46.18 | 134737 | 160704
10 | 35:42.55 | 3:10.58 | 160705 | 175012
11 | 38:53.38 | 5:28.07 | 175013 | 199619
12 | 44:21.45 | 0:13.16 | 199620 | 200610
13 | 44:34.61 | 4:47.43 | 200611 | 222178
14 | 49:22.29 | 3:45.30 | 222179 | 239083


Track 1

Filename C:\cuntfist\FLAC\VA - Across The Bridge Of Hope, In Aid Of The Omagh Fund (1998) [FLAC] {White}\01 - Liam Neeson - The Cure At Troy.wav

Pre-gap length 0:00:02.20

Peak level 58.1 %
Extraction speed 7.4 X
Track quality 100.0 %
Test CRC DB008EE8
Copy CRC DB008EE8
Accurately ripped (confidence 4) [BA17730C] (AR v2)
Copy OK

Track 2

Filename C:\cuntfist\FLAC\VA - Across The Bridge Of Hope, In Aid Of The Omagh Fund (1998) [FLAC] {White}\02 - Sinéad O'Connor - Chiquitita.wav

Peak level 96.6 %
Extraction speed 8.6 X
Track quality 100.0 %
Test CRC 1CE3A148
Copy CRC 1CE3A148
Accurately ripped (confidence 4) [72A2AC89] (AR v2)
Copy OK

Track 3

Filename C:\cuntfist\FLAC\VA - Across The Bridge Of Hope, In Aid Of The Omagh Fund (1998) [FLAC] {White}\03 - The Divine Comedy - Sunrise.wav

Pre-gap length 0:00:00.60

Peak level 96.6 %
Extraction speed 8.9 X
Track quality 99.9 %
Test CRC 9E1BAB23
Copy CRC 9E1BAB23
Accurately ripped (confidence 4) [044FC42E] (AR v2)
Copy OK

Track 4

Filename C:\cuntfist\FLAC\VA - Across The Bridge Of Hope, In Aid Of The Omagh Fund (1998) [FLAC] {White}\04 - Boyzone - Words.wav

Pre-gap length 0:00:00.60

Peak level 96.7 %
Extraction speed 9.6 X
Track quality 99.9 %
Test CRC 18F83671
Copy CRC 18F83671
Accurately ripped (confidence 4) [C4FD0445] (AR v2)
Copy OK

Track 5

Filename C:\cuntfist\FLAC\VA - Across The Bridge Of Hope, In Aid Of The Omagh Fund (1998) [FLAC] {White}\05 - The Corrs - What Can I Do.wav

Pre-gap length 0:00:00.60

Peak level 78.6 %
Extraction speed 11.0 X
Track quality 100.0 %
Test CRC C5F4D22B
Copy CRC C5F4D22B
Accurately ripped (confidence 4) [A96C5EF6] (AR v2)
Copy OK

Track 6

Filename C:\cuntfist\FLAC\VA - Across The Bridge Of Hope, In Aid Of The Omagh Fund (1998) [FLAC] {White}\06 - Daniel O'Donnell - Beyond The Great Divide.wav

Pre-gap length 0:00:00.60

Peak level 81.1 %
Extraction speed 10.7 X
Track quality 99.9 %
Test CRC C95375EF
Copy CRC C95375EF
Accurately ripped (confidence 4) [856DA688] (AR v2)
Copy OK

Track 7

Filename C:\cuntfist\FLAC\VA - Across The Bridge Of Hope, In Aid Of The Omagh Fund (1998) [FLAC] {White}\07 - Van Morrison - The Healing Game (The Alternative Acoustic Version).wav

Pre-gap length 0:00:00.60

Peak level 96.6 %
Extraction speed 12.1 X
Track quality 100.0 %
Test CRC B846030A
Copy CRC B846030A
Accurately ripped (confidence 4) [8A9FF0D5] (AR v2)
Copy OK

Track 8

Filename C:\cuntfist\FLAC\VA - Across The Bridge Of Hope, In Aid Of The Omagh Fund (1998) [FLAC] {White}\08 - Ash - I'm Gonna Fall.wav

Pre-gap length 0:00:00.60

Peak level 96.9 %
Extraction speed 13.0 X
Track quality 100.0 %
Test CRC 192A0D0F
Copy CRC 192A0D0F
Accurately ripped (confidence 4) [263BCF3E] (AR v2)
Copy OK

Track 9

Filename C:\cuntfist\FLAC\VA - Across The Bridge Of Hope, In Aid Of The Omagh Fund (1998) [FLAC] {White}\09 - U2 - Please.wav

Peak level 96.9 %
Extraction speed 12.4 X
Track quality 99.9 %
Test CRC D1289620
Copy CRC D1289620
Accurately ripped (confidence 4) [81B6A9FE] (AR v2)
Copy OK

Track 10

Filename C:\cuntfist\FLAC\VA - Across The Bridge Of Hope, In Aid Of The Omagh Fund (1998) [FLAC] {White}\10 - Juliet Turner - Broken Things.wav

Pre-gap length 0:00:00.60

Peak level 78.5 %
Extraction speed 14.1 X
Track quality 100.0 %
Test CRC 43DCE00A
Copy CRC 43DCE00A
Accurately ripped (confidence 4) [B9801FF4] (AR v2)
Copy OK

Track 11

Filename C:\cuntfist\FLAC\VA - Across The Bridge Of Hope, In Aid Of The Omagh Fund (1998) [FLAC] {White}\11 - Paul Brady - The Island.wav

Pre-gap length 0:00:00.60

Peak level 91.7 %
Extraction speed 14.8 X
Track quality 100.0 %
Test CRC C8D7A9CF
Copy CRC C8D7A9CF
Accurately ripped (confidence 4) [3498AB60] (AR v2)
Copy OK

Track 12

Filename C:\cuntfist\FLAC\VA - Across The Bridge Of Hope, In Aid Of The Omagh Fund (1998) [FLAC] {White}\12 - Liam Neeson - The Bridge.wav

Pre-gap length 0:00:00.60

Peak level 52.3 %
Extraction speed 11.1 X
Track quality 100.0 %
Test CRC 13EF5E0B
Copy CRC 13EF5E0B
Accurately ripped (confidence 4) [B68B66FF] (AR v2)
Copy OK

Track 13

Filename C:\cuntfist\FLAC\VA - Across The Bridge Of Hope, In Aid Of The Omagh Fund (1998) [FLAC] {White}\13 - Omagh Community Youth Choir - Across The Bridge Of Hope.wav

Peak level 99.6 %
Extraction speed 15.3 X
Track quality 100.0 %
Test CRC 8858CDD3
Copy CRC 8858CDD3
Accurately ripped (confidence 4) [E74D2BBB] (AR v2)
Copy OK

Track 14

Filename C:\cuntfist\FLAC\VA - Across The Bridge Of Hope, In Aid Of The Omagh Fund (1998) [FLAC] {White}\14 - Enya - Silent Night.wav

Peak level 80.4 %
Extraction speed 15.6 X
Track quality 100.0 %
Test CRC 163B2665
Copy CRC 163B2665
Accurately ripped (confidence 4) [6213A06C] (AR v2)
Copy OK


All tracks accurately ripped

No errors occurred

End of status report

==== Log checksum 2A5C2868B2BCE4BFF19AB771B8EF9CB3D7A95F35D71B8134DEE4764827E12580 ====


VA - Across The Bridge Of Hope: In Aid Of The Omagh Fund (1998) {White}


Thank you to the original uploader.