Subcategories

Ahmad Jamal Trio - Complete Live At The Spotlite Club 1958 (2CD) (2007) {Gambit}

Posted By: TestTickles
Ahmad Jamal Trio - Complete Live At The Spotlite Club 1958 (2CD) (2007) {Gambit}

Ahmad Jamal Trio - Complete Live At The Spotlite Club 1958 (2CD) (2007) {Gambit}
EAC Rip | FLAC with CUE and log | scans | 631 mb
MP3 CBR 320kbps | RAR | 249 mb
Genre: jazz

Complete Live At The Spotlite Club 1958 is a 2007 album by the Ahmad Jamal Trio. It consists of performances at a nightclub. This was released by the Gambit label.
Gambit presents the Ahmad Jamal Trio recorded Live at the Spotlite Club in Washington, D.C. on September 5 and 6, 1958. Beautifully remastered and carefully sequenced so as to closely approximate the original order of presentation, these performances illustrate the dramatic interplay between pianist Jamal, bassist Israel Crosby and drummer Vernell Fournier. Best heard at sunset, late at night by candlelight, or in a cozy room softly illumined by indirect incandescence, this music offers the listener an opportunity to savor both what Jamal plays and what he doesn't play. His sense of timing, the way he employs contrasting dynamics and his quirky flair for the dramatic have always made Ahmad Jamal an exciting performer. His Spotlite recordings are filled with surprises and exhilarating passages, such as the spirited rendition of "Squatty Roo" by the great Johnny Hodges. Note that much of the nearly three hours of material recorded nine months earlier at the Pershing Club in Chicago appears to have vanished; one can only hope that some sort of time capsule will one day surface, packed with reels of all-but-forgotten Jamal, and be shared with the public. Happily, a much larger percentage of the music recorded at the Spotlite did survive, found its way onto numerous albums over the years, and appears here in Gaslight's gloriously dilated complete edition. Three studio-recorded bonus tracks have been added to this excellent compilation; these elusive rarities were originally issued as 45 rpm singles.

Ahmad Jamal Trio - Complete Live At The Spotlite Club 1958 (2CD) (2007) {Gambit}

DISC 1
01. Ahmad's Blues
02. It Could Happen To You
03. I Wish I Knew
04. Autumn Leaves
05. Stompin' At the Savoy
06. Cheek To Cheek
07. The Girl Next Door
08. Secret Love
09. Squatty Roo
10. Taboo
11. Autumn in New York
12. A Gal in Calico
13. That's All
14. Should I

DISC 2
01. Seleritus
02. Let's Fal In Love
03. This Can't be Love
04. Ole Devil Moon
05. Ivy
06. Tater Pie
07. Aki & Ukthay (Brother & Sister)
08. You Don't Know What Love Is
09. I Didn't Know What Time It Was
10. So Beats My Heart For You
11. Our Delight
12. Soft Winds (Bonus Track)
13. Secret Love (Bonus Track)
14. Taking a Chance on Love (Bonus Track)

Ahmad Jamal-piano
Israel Crosby-bass
Vernell Fourrnier-drums

Disc 1 & Disc 2, tracks 1-11:
Live at the Spotlite Cluyb, Washington, 5 & 6 September, 1958
Disc 2, tracks 12-14
Studio session, Chicago, 1958
These tracks were issued on long out of print 45rpm singles

Ahmad Jamal Trio - Complete Live At The Spotlite Club 1958 (2CD) (2007) {Gambit}

EAC extraction logfile from 25. October 2007, 0:00 for CD
Ahmad Jamal Trio / Live At The Spotlite Club 1958 (Disc 1)

Used drive : PLEXTOR DVDR PX-755A Adapter: 1 ID: 0
Read mode : Secure with NO C2, accurate stream, disable cache
Read offset correction : 30
Overread into Lead-In and Lead-Out : Yes

Used output format : Internal WAV Routines
44.100 Hz; 16 Bit; Stereo

Other options :
Fill up missing offset samples with silence : Yes
Delete leading and trailing silent blocks : No
Installed external ASPI interface


Track 1
Filename C:\FLAC\Ahmad Jamal Trio - Complete Live At The Spotlite Club 1958 (2CD) (2007) [FLAC] {Gambit}\Disc 1\01 - Ahmad's Blues.wav

Pre-gap length 0:00:02.00

Peak level 98.8 %
Track quality 100.0 %
Test CRC 6D1DEFE1
Copy CRC 6D1DEFE1
Copy OK

Track 2
Filename C:\FLAC\Ahmad Jamal Trio - Complete Live At The Spotlite Club 1958 (2CD) (2007) [FLAC] {Gambit}\Disc 1\02 - It Could Happen To You.wav

Peak level 98.8 %
Track quality 100.0 %
Test CRC 5DD90EC4
Copy CRC 5DD90EC4
Copy OK

Track 3
Filename C:\FLAC\Ahmad Jamal Trio - Complete Live At The Spotlite Club 1958 (2CD) (2007) [FLAC] {Gambit}\Disc 1\03 - I Wish I Knew.wav

Peak level 98.8 %
Track quality 100.0 %
Test CRC FBA4C6F8
Copy CRC FBA4C6F8
Copy OK

Track 4
Filename C:\FLAC\Ahmad Jamal Trio - Complete Live At The Spotlite Club 1958 (2CD) (2007) [FLAC] {Gambit}\Disc 1\04 - Autumn Leaves.wav

Peak level 100.0 %
Track quality 100.0 %
Test CRC 4F8761C3
Copy CRC 4F8761C3
Copy OK

Track 5
Filename C:\FLAC\Ahmad Jamal Trio - Complete Live At The Spotlite Club 1958 (2CD) (2007) [FLAC] {Gambit}\Disc 1\05 - Stompin' At the Savoy.wav

Peak level 90.0 %
Track quality 99.9 %
Test CRC F8A17300
Copy CRC F8A17300
Copy OK

Track 6
Filename C:\FLAC\Ahmad Jamal Trio - Complete Live At The Spotlite Club 1958 (2CD) (2007) [FLAC] {Gambit}\Disc 1\06 - Cheek To Cheek.wav

Peak level 98.8 %
Track quality 100.0 %
Test CRC 5C36ED39
Copy CRC 5C36ED39
Copy OK

Track 7
Filename C:\FLAC\Ahmad Jamal Trio - Complete Live At The Spotlite Club 1958 (2CD) (2007) [FLAC] {Gambit}\Disc 1\07 - The Girl Next Door.wav

Peak level 98.8 %
Track quality 100.0 %
Test CRC DE6C2B39
Copy CRC DE6C2B39
Copy OK

Track 8
Filename C:\FLAC\Ahmad Jamal Trio - Complete Live At The Spotlite Club 1958 (2CD) (2007) [FLAC] {Gambit}\Disc 1\08 - Secret Love.wav

Peak level 98.8 %
Track quality 100.0 %
Test CRC F07F1AC5
Copy CRC F07F1AC5
Copy OK

Track 9
Filename C:\FLAC\Ahmad Jamal Trio - Complete Live At The Spotlite Club 1958 (2CD) (2007) [FLAC] {Gambit}\Disc 1\09 - Squatty Roo.wav

Peak level 98.8 %
Track quality 100.0 %
Test CRC F5515498
Copy CRC F5515498
Copy OK

Track 10
Filename C:\FLAC\Ahmad Jamal Trio - Complete Live At The Spotlite Club 1958 (2CD) (2007) [FLAC] {Gambit}\Disc 1\10 - Taboo.wav

Peak level 94.4 %
Track quality 100.0 %
Test CRC ADBCD227
Copy CRC ADBCD227
Copy OK

Track 11
Filename C:\FLAC\Ahmad Jamal Trio - Complete Live At The Spotlite Club 1958 (2CD) (2007) [FLAC] {Gambit}\Disc 1\11 - Autumn in New York.wav

Peak level 98.8 %
Track quality 100.0 %
Test CRC 04F8EC17
Copy CRC 04F8EC17
Copy OK

Track 12
Filename C:\FLAC\Ahmad Jamal Trio - Complete Live At The Spotlite Club 1958 (2CD) (2007) [FLAC] {Gambit}\Disc 1\12 - A Gal in Calico.wav

Peak level 98.8 %
Track quality 100.0 %
Test CRC 2C0570BC
Copy CRC 2C0570BC
Copy OK

Track 13
Filename C:\FLAC\Ahmad Jamal Trio - Complete Live At The Spotlite Club 1958 (2CD) (2007) [FLAC] {Gambit}\Disc 1\13 - That's All.wav

Peak level 70.2 %
Track quality 99.9 %
Test CRC 1AB0DB46
Copy CRC 1AB0DB46
Copy OK

Track 14
Filename C:\FLAC\Ahmad Jamal Trio - Complete Live At The Spotlite Club 1958 (2CD) (2007) [FLAC] {Gambit}\Disc 1\14 - Should I.wav

Peak level 98.8 %
Track quality 100.0 %
Test CRC 09654257
Copy CRC 09654257
Copy OK

No errors occured


End of status report


EAC extraction logfile from 25. October 2007, 1:48 for CD
Ahmad Jamal Trio / Live At The Spotlite Club 1958 (Disc 2)

Used drive : PLEXTOR DVDR PX-755A Adapter: 1 ID: 0
Read mode : Secure with NO C2, accurate stream, disable cache
Read offset correction : 30
Overread into Lead-In and Lead-Out : Yes

Used output format : Internal WAV Routines
44.100 Hz; 16 Bit; Stereo

Other options :
Fill up missing offset samples with silence : Yes
Delete leading and trailing silent blocks : No
Installed external ASPI interface


Track 1
Filename C:\FLAC\Ahmad Jamal Trio - Complete Live At The Spotlite Club 1958 (2CD) (2007) [FLAC] {Gambit}\Disc 2\01 - Seleritus.wav

Pre-gap length 0:00:02.00

Peak level 100.0 %
Track quality 100.0 %
Test CRC 2214FC41
Copy CRC 2214FC41
Copy OK

Track 2
Filename C:\FLAC\Ahmad Jamal Trio - Complete Live At The Spotlite Club 1958 (2CD) (2007) [FLAC] {Gambit}\Disc 2\02 - Let's Fall In Love.wav

Peak level 96.2 %
Track quality 100.0 %
Test CRC 8AEC1DB2
Copy CRC 8AEC1DB2
Copy OK

Track 3
Filename C:\FLAC\Ahmad Jamal Trio - Complete Live At The Spotlite Club 1958 (2CD) (2007) [FLAC] {Gambit}\Disc 2\03 - This Can't be Love.wav

Peak level 100.0 %
Track quality 100.0 %
Test CRC 9BDD52A7
Copy CRC 9BDD52A7
Copy OK

Track 4
Filename C:\FLAC\Ahmad Jamal Trio - Complete Live At The Spotlite Club 1958 (2CD) (2007) [FLAC] {Gambit}\Disc 2\04 - Ole Devil Moon.wav

Peak level 100.0 %
Track quality 99.9 %
Test CRC 8D214F45
Copy CRC 8D214F45
Copy OK

Track 5
Filename C:\FLAC\Ahmad Jamal Trio - Complete Live At The Spotlite Club 1958 (2CD) (2007) [FLAC] {Gambit}\Disc 2\05 - Ivy.wav

Peak level 100.0 %
Track quality 100.0 %
Test CRC 61881C69
Copy CRC 61881C69
Copy OK

Track 6
Filename C:\FLAC\Ahmad Jamal Trio - Complete Live At The Spotlite Club 1958 (2CD) (2007) [FLAC] {Gambit}\Disc 2\06 - Tater Pie.wav

Peak level 100.0 %
Track quality 100.0 %
Test CRC 133CDAE5
Copy CRC 133CDAE5
Copy OK

Track 7
Filename C:\FLAC\Ahmad Jamal Trio - Complete Live At The Spotlite Club 1958 (2CD) (2007) [FLAC] {Gambit}\Disc 2\07 - Aki & Ukthay (Brother & Sister).wav

Peak level 100.0 %
Track quality 100.0 %
Test CRC 358C74DC
Copy CRC 358C74DC
Copy OK

Track 8
Filename C:\FLAC\Ahmad Jamal Trio - Complete Live At The Spotlite Club 1958 (2CD) (2007) [FLAC] {Gambit}\Disc 2\08 - You Don't Know What Love Is.wav

Peak level 100.0 %
Track quality 100.0 %
Test CRC 5647FC49
Copy CRC 5647FC49
Copy OK

Track 9
Filename C:\FLAC\Ahmad Jamal Trio - Complete Live At The Spotlite Club 1958 (2CD) (2007) [FLAC] {Gambit}\Disc 2\09 - I Didn't Know What Time It Was.wav

Peak level 100.0 %
Track quality 100.0 %
Test CRC 319BDAEB
Copy CRC 319BDAEB
Copy OK

Track 10
Filename C:\FLAC\Ahmad Jamal Trio - Complete Live At The Spotlite Club 1958 (2CD) (2007) [FLAC] {Gambit}\Disc 2\10 - So Beats My Heart For You.wav

Peak level 100.0 %
Track quality 100.0 %
Test CRC CCC45CD9
Copy CRC CCC45CD9
Copy OK

Track 11
Filename C:\FLAC\Ahmad Jamal Trio - Complete Live At The Spotlite Club 1958 (2CD) (2007) [FLAC] {Gambit}\Disc 2\11 - Our Delight.wav

Pre-gap length 0:00:02.00

Peak level 100.0 %
Track quality 100.0 %
Test CRC 9F28CFA3
Copy CRC 9F28CFA3
Copy OK

Track 12
Filename C:\FLAC\Ahmad Jamal Trio - Complete Live At The Spotlite Club 1958 (2CD) (2007) [FLAC] {Gambit}\Disc 2\12 - Soft Winds.wav

Peak level 91.2 %
Track quality 100.0 %
Test CRC 79673F38
Copy CRC 79673F38
Copy OK

Track 13
Filename C:\FLAC\Ahmad Jamal Trio - Complete Live At The Spotlite Club 1958 (2CD) (2007) [FLAC] {Gambit}\Disc 2\13 - Secret Love.wav

Peak level 90.6 %
Track quality 99.9 %
Test CRC F15B4A90
Copy CRC F15B4A90
Copy OK

Track 14
Filename C:\FLAC\Ahmad Jamal Trio - Complete Live At The Spotlite Club 1958 (2CD) (2007) [FLAC] {Gambit}\Disc 2\14 - Taking a Chance on Love.wav

Pre-gap length 0:00:02.00

Peak level 64.4 %
Track quality 100.0 %
Test CRC B4265AA6
Copy CRC B4265AA6
Copy OK

No errors occured


End of status report


Ahmad Jamal Trio - Complete Live At The Spotlite Club 1958 (2CD) (2007) {Gambit}


Thank you to the original uploader