Subcategories

Alejandra Guzmán - Indeleble (2006) **[RE-UP]**

Posted By: TestTickles
Alejandra Guzmán - Indeleble (2006) **[RE-UP]**

Alejandra Guzmán - Indeleble (2006)
EAC Rip | FLAC with CUE and log | scans | 308mb
MP3 CBR 320kbps | RAR | 116mb
Genre: Latin pop, Latin rock

Indeleble is the 12th album by Mexican pop/rock singer Alejandra Guzmán. The album spawned two singles: "Volverte a Amar" and "Quiero Estar Contigo". Indeleble went Platinum in Mexico, with sales of 100,000 copies.

Alejandra Guzmán - Indeleble (2006) **[RE-UP]**

01. Quiero Estar Contigo
02. Dejalo
03. No Estoy Llorando
04. Al Final de Cuentas
05. Volverte a Amar
06. Mujer
07. Necesito Amarme
08. Tirando Piedras
09. Marta
10. Bye Bye
11. Sienteme a tu Lado

Alejandra Guzmán - Indeleble (2006) **[RE-UP]**



EAC extraction logfile from 24. January 2007, 14:16 for CD
Alejandra Guzman / Indeleble

Used drive : LITE-ON DVDRW SOHW-1633S Adapter: 0 ID: 0
Read mode : Secure with NO C2, accurate stream, disable cache
Read offset correction : 12
Overread into Lead-In and Lead-Out : No

Used output format : Internal WAV Routines
44.100 Hz; 16 Bit; Stereo

Other options :
Fill up missing offset samples with silence : Yes
Delete leading and trailing silent blocks : No
Installed external ASPI interface


Track 1
Filename D:\FLAC\Alejandra Guzman - Indeleble (2006) [FLAC]\01 - Quiero Estar Contigo.wav

Pre-gap length 0:00:02.00

Peak level 100.0 %
Track quality 100.0 %
Test CRC FEB25237
Copy CRC FEB25237
Copy OK

Track 2
Filename D:\FLAC\Alejandra Guzman - Indeleble (2006) [FLAC]\02 - Dejalo.wav

Peak level 100.0 %
Track quality 99.9 %
Test CRC 500B2AEC
Copy CRC 500B2AEC
Copy OK

Track 3
Filename D:\FLAC\Alejandra Guzman - Indeleble (2006) [FLAC]\03 - No Estoy Llorando.wav

Peak level 100.0 %
Track quality 99.9 %
Test CRC 7373F09F
Copy CRC 7373F09F
Copy OK

Track 4
Filename D:\FLAC\Alejandra Guzman - Indeleble (2006) [FLAC]\04 - Al Final de Cuentas.wav

Peak level 100.0 %
Track quality 100.0 %
Test CRC 1E6486CF
Copy CRC 1E6486CF
Copy OK

Track 5
Filename D:\FLAC\Alejandra Guzman - Indeleble (2006) [FLAC]\05 - Volverte a Amar.wav

Peak level 100.0 %
Track quality 100.0 %
Test CRC 07E53DF4
Copy CRC 07E53DF4
Copy OK

Track 6
Filename D:\FLAC\Alejandra Guzman - Indeleble (2006) [FLAC]\06 - Mujer.wav

Peak level 100.0 %
Track quality 100.0 %
Test CRC ED6CCF9F
Copy CRC ED6CCF9F
Copy OK

Track 7
Filename D:\FLAC\Alejandra Guzman - Indeleble (2006) [FLAC]\07 - Necesito Amarme.wav

Peak level 100.0 %
Track quality 100.0 %
Test CRC B0EE9596
Copy CRC B0EE9596
Copy OK

Track 8
Filename D:\FLAC\Alejandra Guzman - Indeleble (2006) [FLAC]\08 - Tirando Piedras.wav

Peak level 100.0 %
Track quality 100.0 %
Test CRC 9A571CCE
Copy CRC 9A571CCE
Copy OK

Track 9
Filename D:\FLAC\Alejandra Guzman - Indeleble (2006) [FLAC]\09 - Marta.wav

Peak level 100.0 %
Track quality 100.0 %
Test CRC 9FE02BA4
Copy CRC 9FE02BA4
Copy OK

Track 10
Filename D:\FLAC\Alejandra Guzman - Indeleble (2006) [FLAC]\10 - Bye Bye.wav

Peak level 100.0 %
Track quality 99.9 %
Test CRC DE1F139E
Copy CRC DE1F139E
Copy OK

Track 11
Filename D:\FLAC\Alejandra Guzman - Indeleble (2006) [FLAC]\11 - Sienteme a tu Lado.wav

Peak level 100.0 %
Track quality 100.0 %
Test CRC ABD51903
Copy CRC ABD51903
Copy OK

No errors occured


End of status report


Alejandra Guzmán - Indeleble (2006) **[RE-UP]**