Subcategories

Amy Hanaiali'i - A Hawaiian Christmas (2007) **[RE-UP]**

Posted By: TestTickles
Amy Hanaiali'i - A Hawaiian Christmas (2007) **[RE-UP]**

Amy Hanaiali'i - A Hawaiian Christmas (2007)
EAC Rip | FLAC with CUE and log | scans | 287 mb
MP3 CBR 320kbps | RAR | 117 mb
Genre: Christmas, Hawaiian

A Hawaiian Christmas is the 2007 album by Hawaiian singer Amy Hanaiali'i Gilliom, known in the last few years simply as Amy Hanaiali'i. This was released on Tiki Man Records, distributed by the Mountain Apple Company.

Amy Hanaiali'i - A Hawaiian Christmas (2007) **[RE-UP]**

01. Hamau E Na Kanaka
02. Betelehema Iki E
03. Po La'i E (Silent Night)
04. Have Yourself A Merry Little Christmas
05. Pomaika'i Wale Ko Ke Ao
06. Ho'onani Kakou Ia Ia
07. Ka Po La'ela'e Ka Hikina Mai
08. Little Drummer Boy/Do You Hear What I Hear?
09. Po Hemolele (O Holy Night)
10. White Christmas
11. Mele Kalikimaka
12. Mary Did You Know?
13. Ke Akua Mana E
14. Ave Maria

EAC extraction logfile from 27. October 2007, 11:02 for CD
Amy Hanaiali'i / A Hawaiian Christmas

Used drive : LITE-ON DVDRW SOHW-1633S Adapter: 0 ID: 0
Read mode : Secure with NO C2, accurate stream, disable cache
Read offset correction : 12
Overread into Lead-In and Lead-Out : No

Used output format : Internal WAV Routines
44.100 Hz; 16 Bit; Stereo

Other options :
Fill up missing offset samples with silence : Yes
Delete leading and trailing silent blocks : No
Installed external ASPI interface


Track 1
Filename D:\FLAC\Amy Hanaiali'i - A Hawaiian Christmas (2007) [FLAC]\01 - Hamau E Na Kanaka.wav

Pre-gap length 0:00:02.00

Peak level 98.8 %
Track quality 100.0 %
Test CRC E232F837
Copy CRC E232F837
Copy OK

Track 2
Filename D:\FLAC\Amy Hanaiali'i - A Hawaiian Christmas (2007) [FLAC]\02 - Betelehema Iki E.wav

Peak level 98.8 %
Track quality 100.0 %
Test CRC AE1171AC
Copy CRC AE1171AC
Copy OK

Track 3
Filename D:\FLAC\Amy Hanaiali'i - A Hawaiian Christmas (2007) [FLAC]\03 - Po La'i E (Silent Night).wav

Peak level 98.8 %
Track quality 100.0 %
Test CRC 2770B679
Copy CRC 2770B679
Copy OK

Track 4
Filename D:\FLAC\Amy Hanaiali'i - A Hawaiian Christmas (2007) [FLAC]\04 - Have Yourself A Merry Little Christmas.wav

Peak level 98.8 %
Track quality 100.0 %
Test CRC AAF3F3F4
Copy CRC AAF3F3F4
Copy OK

Track 5
Filename D:\FLAC\Amy Hanaiali'i - A Hawaiian Christmas (2007) [FLAC]\05 - Pomaika'i Wale Ko Ke Ao.wav

Peak level 98.8 %
Track quality 99.9 %
Test CRC 59EF71EE
Copy CRC 59EF71EE
Copy OK

Track 6
Filename D:\FLAC\Amy Hanaiali'i - A Hawaiian Christmas (2007) [FLAC]\06 - Ho'onani Kakou Ia Ia.wav

Pre-gap length 0:00:00.29

Peak level 98.8 %
Track quality 100.0 %
Test CRC 80B39CCF
Copy CRC 80B39CCF
Copy OK

Track 7
Filename D:\FLAC\Amy Hanaiali'i - A Hawaiian Christmas (2007) [FLAC]\07 - Ka Po La'ela'e Ka Hikina Mai.wav

Pre-gap length 0:00:01.69

Peak level 98.8 %
Track quality 100.0 %
Test CRC 5A476993
Copy CRC 5A476993
Copy OK

Track 8
Filename D:\FLAC\Amy Hanaiali'i - A Hawaiian Christmas (2007) [FLAC]\08 - Little Drummer Boy, Do You Hear What I Hear .wav

Peak level 98.8 %
Track quality 99.9 %
Test CRC 4B82144C
Copy CRC 4B82144C
Copy OK

Track 9
Filename D:\FLAC\Amy Hanaiali'i - A Hawaiian Christmas (2007) [FLAC]\09 - Po Hemolele (O Holy Night).wav

Pre-gap length 0:00:00.65

Peak level 98.8 %
Track quality 100.0 %
Test CRC 691C9E7C
Copy CRC 691C9E7C
Copy OK

Track 10
Filename D:\FLAC\Amy Hanaiali'i - A Hawaiian Christmas (2007) [FLAC]\10 - White Christmas.wav

Peak level 98.8 %
Track quality 99.9 %
Test CRC E2DE6124
Copy CRC E2DE6124
Copy OK

Track 11
Filename D:\FLAC\Amy Hanaiali'i - A Hawaiian Christmas (2007) [FLAC]\11 - Mele Kalikimaka.wav

Peak level 98.8 %
Track quality 100.0 %
Test CRC 763B9549
Copy CRC 763B9549
Copy OK

Track 12
Filename D:\FLAC\Amy Hanaiali'i - A Hawaiian Christmas (2007) [FLAC]\12 - Mary Did You Know .wav

Pre-gap length 0:00:01.18

Peak level 98.8 %
Track quality 100.0 %
Test CRC 2BB3A522
Copy CRC 2BB3A522
Copy OK

Track 13
Filename D:\FLAC\Amy Hanaiali'i - A Hawaiian Christmas (2007) [FLAC]\13 - Ke Akua Mana E.wav

Pre-gap length 0:00:00.01

Peak level 93.3 %
Track quality 100.0 %
Test CRC 042B915A
Copy CRC 042B915A
Copy OK

Track 14
Filename D:\FLAC\Amy Hanaiali'i - A Hawaiian Christmas (2007) [FLAC]\14 - Ave Maria.wav

Pre-gap length 0:00:01.58

Peak level 76.7 %
Track quality 100.0 %
Test CRC 70145AE3
Copy CRC 70145AE3
Copy OK

No errors occured


End of status report


Amy Hanaiali'i - A Hawaiian Christmas (2007) **[RE-UP]**