Subcategories

András Schiff - Beethoven: The Piano Sonatas Vol. V (2CD) (2007) {ECM}

Posted By: TestTickles
András Schiff - Beethoven: The Piano Sonatas Vol. V (2CD) (2007) {ECM}

András Schiff - Beethoven: The Piano Sonatas Vol. V (2CD) (2007) {ECM}
EAC Rip | FLAC with CUE and log | scans | 337 mb
MP3 CBR 320kbps | RAR | 283 mb
Genre: classical

Beethoven: The Piano Sonatas Vol. V is a 2007 album by pianist András Schiff. It was recorded in Zurich in 2005. This was released by ECM.

András Schiff - Beethoven: The Piano Sonatas Vol. V (2CD) (2007) {ECM}

DISC 1
THREE SONATAS op. 31
Sonata No. 16 G major op. 31/1 (1802)
01. No.16 G major op.31-1. Allegro vivace
02. No.16 G major op.31-1. Adagio grazioso
03. No.16 G major op.31-1. Rondo. Allegretto

Sonata No. 17 d minor op. 31/2 (1802)
04. No.17 D minor op.31-2 'Tempest'. Largo. Allegro
05. No.17 D minor op.31-2 'Tempest'. Adagio
06. No.17 D minor op.31-2 'Tempest'. Allegretto

Sonata No. 18 E-flat major op. 31/3 (1802)
07. No.18 E flat major op.31-3 'Hunt'. Allegro
08. No.18 E flat major op.31-3 'Hunt'. Scherzo. Allegretto vivace
09. No.18 E flat major op.31-3 'Hunt'. Menuetto. Moderato e grazioso
10. No.18 E flat major op.31-3 'Hunt'. Presto con fuoco

DISC 2
Sonata No. 21 C major op 53 (1803/4)
1. No.21 C major op.53 'Waldstein'. Allegro con brio
2. No.21 C major op.53 'Waldstein'. Introduzione. Adagio molto
3. No.21 C major op.53 'Waldstein'. Rondo. Allegretto moderato

Andante favori F major WoO 57 (1807)
4. Andante grazioso con moto
Presto con fuoco

András Schiff-piano

Produced by Manfred Eicher
Recorded oon 4 December, 2005, Tonhalle, Zurich

András Schiff - Beethoven: The Piano Sonatas Vol. V (2CD) (2007) {ECM}


EAC extraction logfile from 15. October 2007, 17:41 for CD
András Schiff / The Piano Sonatas Vol. V (Disc 1)

Used drive : HL-DT-STDVDRAM GSA-H42L Adapter: 0 ID: 1
Read mode : Secure with NO C2, accurate stream, disable cache
Read offset correction : 667
Overread into Lead-In and Lead-Out : No

Used output format : C:\Program Files\Eac\Encoders\Flac\flac-1.1.4\flac.exe (User Defined Encoder)
320 kBit/s
Additional command line options : -V –best -T "artist=%a" -T "title=%t" -T "album=%g" -T "date=%y" -T "tracknumber=%n" -T "genre=%m" %s

Other options :
Fill up missing offset samples with silence : Yes
Delete leading and trailing silent blocks : No
Installed external ASPI interface


Track 1
Filename C:\FLAC\András Schiff - Beethoven, The Piano Sonatas Vol. V (2CD) (2007) [FLAC] {ECM}\Disc 1\01 - No.16 G major op.31-1 - Allegro vivace.wav

Pre-gap length 0:00:02.00

Peak level 57.3 %
Track quality 100.0 %
Test CRC FE2FDFA6
Copy CRC FE2FDFA6
Copy OK

Track 2
Filename C:\FLAC\András Schiff - Beethoven, The Piano Sonatas Vol. V (2CD) (2007) [FLAC] {ECM}\Disc 1\02 - No.16 G major op.31-1 - Adagio grazioso.wav

Peak level 47.7 %
Track quality 99.9 %
Test CRC ECBD0E8F
Copy CRC ECBD0E8F
Copy OK

Track 3
Filename C:\FLAC\András Schiff - Beethoven, The Piano Sonatas Vol. V (2CD) (2007) [FLAC] {ECM}\Disc 1\03 - No.16 G major op.31-1 - Rondo. Allegretto.wav

Peak level 65.8 %
Track quality 100.0 %
Test CRC 3B6B716B
Copy CRC 3B6B716B
Copy OK

Track 4
Filename C:\FLAC\András Schiff - Beethoven, The Piano Sonatas Vol. V (2CD) (2007) [FLAC] {ECM}\Disc 1\04 - No.17 D minor op.31-2 'Tempest' - Largo - Allegro.wav

Pre-gap length 0:00:06.03

Peak level 75.7 %
Track quality 100.0 %
Test CRC C3625E6C
Copy CRC C3625E6C
Copy OK

Track 5
Filename C:\FLAC\András Schiff - Beethoven, The Piano Sonatas Vol. V (2CD) (2007) [FLAC] {ECM}\Disc 1\05 - No.17 D minor op.31-2 'Tempest' - Adagio.wav

Peak level 51.2 %
Track quality 99.9 %
Test CRC 32BAFE8E
Copy CRC 32BAFE8E
Copy OK

Track 6
Filename C:\FLAC\András Schiff - Beethoven, The Piano Sonatas Vol. V (2CD) (2007) [FLAC] {ECM}\Disc 1\06 - No.17 D minor op.31-2 'Tempest' - Allegretto.wav

Peak level 60.3 %
Track quality 100.0 %
Test CRC B23372CB
Copy CRC B23372CB
Copy OK

Track 7
Filename C:\FLAC\András Schiff - Beethoven, The Piano Sonatas Vol. V (2CD) (2007) [FLAC] {ECM}\Disc 1\07 - No.18 E flat major op.31-3 'Hunt' - Allegro.wav

Pre-gap length 0:00:06.63

Peak level 80.0 %
Track quality 100.0 %
Test CRC A8DAD277
Copy CRC A8DAD277
Copy OK

Track 8
Filename C:\FLAC\András Schiff - Beethoven, The Piano Sonatas Vol. V (2CD) (2007) [FLAC] {ECM}\Disc 1\08 - No.18 E flat major op.31-3 'Hunt' - Scherzo. Allegretto vivace.wav

Peak level 78.3 %
Track quality 100.0 %
Test CRC 6CAC710A
Copy CRC 6CAC710A
Copy OK

Track 9
Filename C:\FLAC\András Schiff - Beethoven, The Piano Sonatas Vol. V (2CD) (2007) [FLAC] {ECM}\Disc 1\09 - No.18 E flat major op.31-3 'Hunt' - Menuetto. Moderato e grazioso.wav

Peak level 48.2 %
Track quality 100.0 %
Test CRC 04BE026E
Copy CRC 04BE026E
Copy OK

Track 10
Filename C:\FLAC\András Schiff - Beethoven, The Piano Sonatas Vol. V (2CD) (2007) [FLAC] {ECM}\Disc 1\10 - No.18 E flat major op.31-3 'Hunt' - Presto con fuoco.wav

Peak level 79.2 %
Track quality 100.0 %
Test CRC 4896BC2F
Copy CRC 4896BC2F
Copy OK

No errors occured


End of status report



EAC extraction logfile from 15. October 2007, 18:22 for CD
András Schiff / The Piano Sonatas (Schiff) Vol. V (Disc 2)

Used drive : HL-DT-STDVDRAM GSA-H42L Adapter: 0 ID: 1
Read mode : Secure with NO C2, accurate stream, disable cache
Read offset correction : 667
Overread into Lead-In and Lead-Out : No

Used output format : C:\Program Files\Eac\Encoders\Flac\flac-1.1.4\flac.exe (User Defined Encoder)
320 kBit/s
Additional command line options : -V –best -T "artist=%a" -T "title=%t" -T "album=%g" -T "date=%y" -T "tracknumber=%n" -T "genre=%m" %s

Other options :
Fill up missing offset samples with silence : Yes
Delete leading and trailing silent blocks : No
Installed external ASPI interface


Track 1
Filename C:\FLAC\András Schiff - Beethoven, The Piano Sonatas Vol. V (2CD) (2007) [FLAC] {ECM}\Disc 2\01 - No.21 C major op.53 'Waldstein' - Allegro con brio.wav

Pre-gap length 0:00:02.00

Peak level 90.6 %
Track quality 100.0 %
Test CRC 4F2F2137
Copy CRC 4F2F2137
Copy OK

Track 2
Filename C:\FLAC\András Schiff - Beethoven, The Piano Sonatas Vol. V (2CD) (2007) [FLAC] {ECM}\Disc 2\02 - No.21 C major op.53 'Waldstein' - Introduzione. Adagio molto.wav

Peak level 34.9 %
Track quality 99.9 %
Test CRC 3DFB5D7E
Copy CRC 3DFB5D7E
Copy OK

Track 3
Filename C:\FLAC\András Schiff - Beethoven, The Piano Sonatas Vol. V (2CD) (2007) [FLAC] {ECM}\Disc 2\03 - No.21 C major op.53 'Waldstein' - Rondo. Allegretto moderato.wav

Peak level 88.3 %
Track quality 100.0 %
Test CRC 409CECC7
Copy CRC 409CECC7
Copy OK

Track 4
Filename C:\FLAC\András Schiff - Beethoven, The Piano Sonatas Vol. V (2CD) (2007) [FLAC] {ECM}\Disc 2\04 - Andante favori F major WoO 57.wav

Pre-gap length 0:00:08.38

Peak level 56.7 %
Track quality 100.0 %
Test CRC AF958DB2
Copy CRC AF958DB2
Copy OK

No errors occured


End of status report


András Schiff - Beethoven: The Piano Sonatas Vol. V (2CD) (2007) {ECM}


Thank you to the original uploader