Subcategories

Anne-Marie McDermott - Haydn: Sonatas & Concertos (2CD) (2014)

Posted By: TestTickles
Anne-Marie McDermott - Haydn: Sonatas & Concertos (2CD) (2014)

Anne-Marie McDermott - Haydn: Sonatas & Concertos (2CD) (2014)
EAC Rip | FLAC with CUE and log | scans | 171 mb
MP3 CBR 320kbps | RAR | 319 mb
Genre: classical

Haydn: Sonatas & Concertos is a 2CD set by pianist Anne-Marie McDermott. Recorded in Odense, Denmark in May 2014, McDermott is accompanied by the Odense Symphony Orchestra, with Scott Yoo as the conductor. The discs focus on the music of Franz Joseph Haydn.

Anne-Marie McDermott - Haydn: Sonatas & Concertos (2CD) (2014)

DISC 1
Sonata In F major, H. XVI: 23
1. I. Moderato
2. II. Adagio
3, III. Rondo: Presto

Sonata In G major, H. XVI: 40
4. I. Allegro innocente
5. II. Presto

Sonata In C major, H. XVI: 50
6. I. Allegro
7. II. Adagio
8. III. Allegro molto

Piano Concerto in D major, H. XVIII: 11
9. I. Vicace
10. II. Un poco Adagio
11. III. Rondo all'Ungherese: Allegro assai


DISC 2
Sonata in C minor, H. XVI: 20
1. I. Allegro moderato
2. II. Andante con moto
3. III. Allegro

Sonata in E-flat major, H. XVI: 52
4. I. Allegro
5. II. Adagio
6. III. Finale: Presto

Piano Concerto in G major, H. XVIII: 4
7. I. Allegro
8. II. Adagio cantabile
9. III. Rondo: Presto




Producer: David Starobin
Engineer: Viggo Mangor
Mastering Engineer: Silas Brown
Editors, Doron Schachter, Viggo Mangor
Execitove Producer: Becky Starobin

Concertos recorded at Carl Nielsen Hall, Odense, Denmark, 5 and 6 May, 2014
Sonatas recorded at Carl Neilsen Musikhuset, Odense, Denmark, 3 and 4 May, 2014

Exact Audio Copy V1.1 from 23. June 2015

EAC extraction logfile from 27. February 2016, 8:28

Anne-Marie McDermott / Haydn: Sonatas & Concertos (Disc 1)

Used drive : TEAC DVD-ROM DV-28SW Adapter: 1 ID: 0

Read mode : Secure
Utilize accurate stream : Yes
Defeat audio cache : Yes
Make use of C2 pointers : No

Read offset correction : 6
Overread into Lead-In and Lead-Out : No
Fill up missing offset samples with silence : Yes
Delete leading and trailing silent blocks : No
Null samples used in CRC calculations : Yes
Used interface : Native Win32 interface for Win NT & 2000
Gap handling : Left out

Used output format : Internal WAV Routines
Sample format : 44.100 Hz; 16 Bit; Stereo


TOC of the extracted CD

Track | Start | Length | Start sector | End sector
––––––––––––––––––––––––––––-
1 | 0:00.00 | 6:29.06 | 0 | 29180
2 | 6:29.06 | 8:09.05 | 29181 | 65860
3 | 14:38.11 | 3:49.68 | 65861 | 83103
4 | 18:28.04 | 7:57.08 | 83104 | 118886
5 | 26:25.12 | 3:16.45 | 118887 | 133631
6 | 29:41.57 | 11:28.40 | 133632 | 185271
7 | 41:10.22 | 6:33.26 | 185272 | 214772
8 | 47:43.48 | 2:47.66 | 214773 | 227363
9 | 50:31.39 | 7:48.50 | 227364 | 262513
10 | 58:20.14 | 7:28.67 | 262514 | 296180
11 | 65:49.06 | 4:24.59 | 296181 | 316039


Track 1

Filename C:\My Documents\My FLAC\Anne-Marie McDermott - Haydn, Sonatas & Concertos (2CD) (2014) [FLAC]\Disc 1\01 - Sonata In F major, H. XVI- 23 - I. Moderato.wav

Pre-gap length 0:00:02.00

Peak level 74.0 %
Extraction speed 2.7 X
Track quality 99.9 %
Test CRC 1214CE40
Copy CRC 1214CE40
Track not present in AccurateRip database
Copy OK

Track 2

Filename C:\My Documents\My FLAC\Anne-Marie McDermott - Haydn, Sonatas & Concertos (2CD) (2014) [FLAC]\Disc 1\02 - Sonata In F major, H. XVI- 23 - II. Adagio.wav

Peak level 57.0 %
Extraction speed 3.6 X
Track quality 100.0 %
Test CRC FCAE3B61
Copy CRC FCAE3B61
Track not present in AccurateRip database
Copy OK

Track 3

Filename C:\My Documents\My FLAC\Anne-Marie McDermott - Haydn, Sonatas & Concertos (2CD) (2014) [FLAC]\Disc 1\03 - Sonata In F major, H. XVI- 23 - III. Rondo- Presto.wav

Peak level 82.5 %
Extraction speed 3.7 X
Track quality 100.0 %
Test CRC 71E11179
Copy CRC 71E11179
Track not present in AccurateRip database
Copy OK

Track 4

Filename C:\My Documents\My FLAC\Anne-Marie McDermott - Haydn, Sonatas & Concertos (2CD) (2014) [FLAC]\Disc 1\04 - Sonata In G major, H. XVI- 40 - I. Allegro innocente.wav

Peak level 94.2 %
Extraction speed 3.9 X
Track quality 99.9 %
Test CRC B5AF9343
Copy CRC B5AF9343
Track not present in AccurateRip database
Copy OK

Track 5

Filename C:\My Documents\My FLAC\Anne-Marie McDermott - Haydn, Sonatas & Concertos (2CD) (2014) [FLAC]\Disc 1\05 - Sonata In G major, H. XVI- 40 - II. Presto.wav

Peak level 76.8 %
Extraction speed 4.1 X
Track quality 100.0 %
Test CRC DB752FE5
Copy CRC DB752FE5
Track not present in AccurateRip database
Copy OK

Track 6

Filename C:\My Documents\My FLAC\Anne-Marie McDermott - Haydn, Sonatas & Concertos (2CD) (2014) [FLAC]\Disc 1\06 - Sonata In C major, H. XVI- 50 - I. Allegro.wav

Peak level 85.2 %
Extraction speed 4.6 X
Track quality 99.9 %
Test CRC 5A6B114F
Copy CRC 5A6B114F
Track not present in AccurateRip database
Copy OK

Track 7

Filename C:\My Documents\My FLAC\Anne-Marie McDermott - Haydn, Sonatas & Concertos (2CD) (2014) [FLAC]\Disc 1\07 - Sonata In C major, H. XVI- 50 - II. Adagio.wav

Peak level 58.0 %
Extraction speed 4.7 X
Track quality 100.0 %
Test CRC BAD401EE
Copy CRC BAD401EE
Track not present in AccurateRip database
Copy OK

Track 8

Filename C:\My Documents\My FLAC\Anne-Marie McDermott - Haydn, Sonatas & Concertos (2CD) (2014) [FLAC]\Disc 1\08 - Sonata In C major, H. XVI- 50 - III. Allegro molto.wav

Peak level 64.6 %
Extraction speed 3.7 X
Track quality 100.0 %
Test CRC D52DC14D
Copy CRC D52DC14D
Track not present in AccurateRip database
Copy OK

Track 9

Filename C:\My Documents\My FLAC\Anne-Marie McDermott - Haydn, Sonatas & Concertos (2CD) (2014) [FLAC]\Disc 1\09 - Piano Concerto in D major, H. XVIII- 11 - I. Vicace.wav

Peak level 77.0 %
Extraction speed 5.1 X
Track quality 100.0 %
Test CRC 7A04C9F2
Copy CRC 7A04C9F2
Track not present in AccurateRip database
Copy OK

Track 10

Filename C:\My Documents\My FLAC\Anne-Marie McDermott - Haydn, Sonatas & Concertos (2CD) (2014) [FLAC]\Disc 1\10 - Piano Concerto in D major, H. XVIII- 11 - II. Un poco Adagio.wav

Peak level 52.6 %
Extraction speed 5.8 X
Track quality 100.0 %
Test CRC E7C5C262
Copy CRC E7C5C262
Track not present in AccurateRip database
Copy OK

Track 11

Filename C:\My Documents\My FLAC\Anne-Marie McDermott - Haydn, Sonatas & Concertos (2CD) (2014) [FLAC]\Disc 1\11 - Piano Concerto in D major, H. XVIII- 11 - III. Rondo all'Ungherese- Allegro assai.wav

Peak level 84.6 %
Extraction speed 5.7 X
Track quality 100.0 %
Test CRC 691A0267
Copy CRC 691A0267
Track not present in AccurateRip database
Copy OK


None of the tracks are present in the AccurateRip database

No errors occurred

End of status report

–– CUETools DB Plugin V2.1.6

[CTDB TOCID: kLusd_CSBHXuGsITyklNnsPX5SE-] disk not present in database
Submit result: kLusd_CSBHXuGsITyklNnsPX5SE- has been uploaded


==== Log checksum 94503378F15DD702DC53702E2DA33BBB42E9B17CB4B174E0BAB2C389DF6C73B7 ====








Exact Audio Copy V1.1 from 23. June 2015

EAC extraction logfile from 27. February 2016, 10:03

Anne-Marie McDermott / Haydn: Sonatas & Concertos (Disc 2)

Used drive : TEAC DVD-ROM DV-28SW Adapter: 1 ID: 0

Read mode : Secure
Utilize accurate stream : Yes
Defeat audio cache : Yes
Make use of C2 pointers : No

Read offset correction : 6
Overread into Lead-In and Lead-Out : No
Fill up missing offset samples with silence : Yes
Delete leading and trailing silent blocks : No
Null samples used in CRC calculations : Yes
Used interface : Native Win32 interface for Win NT & 2000
Gap handling : Left out

Used output format : Internal WAV Routines
Sample format : 44.100 Hz; 16 Bit; Stereo


TOC of the extracted CD

Track | Start | Length | Start sector | End sector
––––––––––––––––––––––––––––-
1 | 0:00.00 | 10:48.68 | 0 | 48667
2 | 10:48.68 | 8:13.46 | 48668 | 85688
3 | 19:02.39 | 6:31.64 | 85689 | 115077
4 | 25:34.28 | 8:09.33 | 115078 | 151785
5 | 33:43.61 | 7:25.70 | 151786 | 185230
6 | 41:09.56 | 6:06.20 | 185231 | 212700
7 | 47:16.01 | 9:28.54 | 212701 | 255354
8 | 56:44.55 | 9:03.24 | 255355 | 296103
9 | 65:48.04 | 4:19.05 | 296104 | 315533


Track 1

Filename C:\My Documents\My FLAC\Anne-Marie McDermott - Haydn, Sonatas & Concertos (2CD) (2014) [FLAC]\Disc 2\01 - Sonata in C minor, H. XVI- 20 - I. Allegro moderato.wav

Pre-gap length 0:00:02.00

Peak level 94.2 %
Extraction speed 3.4 X
Track quality 100.0 %
Test CRC F6039AEE
Copy CRC F6039AEE
Track not present in AccurateRip database
Copy OK

Track 2

Filename C:\My Documents\My FLAC\Anne-Marie McDermott - Haydn, Sonatas & Concertos (2CD) (2014) [FLAC]\Disc 2\02 - Sonata in C minor, H. XVI- 20 - II. Andante con moto.wav

Peak level 53.1 %
Extraction speed 3.9 X
Track quality 100.0 %
Test CRC FFA30C59
Copy CRC FFA30C59
Track not present in AccurateRip database
Copy OK

Track 3

Filename C:\My Documents\My FLAC\Anne-Marie McDermott - Haydn, Sonatas & Concertos (2CD) (2014) [FLAC]\Disc 2\03 - Sonata in C minor, H. XVI- 20 - III. Allegro.wav

Peak level 82.0 %
Extraction speed 4.2 X
Track quality 100.0 %
Test CRC 2F4C76DE
Copy CRC 2F4C76DE
Track not present in AccurateRip database
Copy OK

Track 4

Filename C:\My Documents\My FLAC\Anne-Marie McDermott - Haydn, Sonatas & Concertos (2CD) (2014) [FLAC]\Disc 2\04 - Sonata in E-flat major, H. XVI- 52 - I. Allegro.wav

Peak level 94.2 %
Extraction speed 4.7 X
Track quality 100.0 %
Test CRC 36B5AE2B
Copy CRC 36B5AE2B
Track not present in AccurateRip database
Copy OK

Track 5

Filename C:\My Documents\My FLAC\Anne-Marie McDermott - Haydn, Sonatas & Concertos (2CD) (2014) [FLAC]\Disc 2\05 - Sonata in E-flat major, H. XVI- 52 - II. Adagio.wav

Peak level 71.3 %
Extraction speed 5.0 X
Track quality 100.0 %
Test CRC D990B0AA
Copy CRC D990B0AA
Track not present in AccurateRip database
Copy OK

Track 6

Filename C:\My Documents\My FLAC\Anne-Marie McDermott - Haydn, Sonatas & Concertos (2CD) (2014) [FLAC]\Disc 2\06 - Sonata in E-flat major, H. XVI- 52 - III. Finale- Presto.wav

Peak level 86.6 %
Extraction speed 4.9 X
Track quality 100.0 %
Test CRC 89ED9ABA
Copy CRC 89ED9ABA
Track not present in AccurateRip database
Copy OK

Track 7

Filename C:\My Documents\My FLAC\Anne-Marie McDermott - Haydn, Sonatas & Concertos (2CD) (2014) [FLAC]\Disc 2\07 - Piano Concerto in G major, H. XVIII- 4 - I. Allegro.wav

Peak level 95.6 %
Extraction speed 5.1 X
Track quality 99.9 %
Test CRC B450FE18
Copy CRC B450FE18
Track not present in AccurateRip database
Copy OK

Track 8

Filename C:\My Documents\My FLAC\Anne-Marie McDermott - Haydn, Sonatas & Concertos (2CD) (2014) [FLAC]\Disc 2\08 - Piano Concerto in G major, H. XVIII- 4 - II. Adagio cantabile.wav

Peak level 43.7 %
Extraction speed 4.9 X
Track quality 100.0 %
Test CRC F0EFB40E
Copy CRC F0EFB40E
Track not present in AccurateRip database
Copy OK

Track 9

Filename C:\My Documents\My FLAC\Anne-Marie McDermott - Haydn, Sonatas & Concertos (2CD) (2014) [FLAC]\Disc 2\09 - Piano Concerto in G major, H. XVIII- 4 - III. Rondo- Presto.wav

Peak level 93.3 %
Extraction speed 4.4 X
Track quality 100.0 %
Test CRC EA6A5C27
Copy CRC EA6A5C27
Track not present in AccurateRip database
Copy OK


None of the tracks are present in the AccurateRip database

No errors occurred

End of status report

–– CUETools DB Plugin V2.1.6

[CTDB TOCID: pXJOWwJsTdpi.Nhx34xVEpTJWk4-] disk not present in database
Submit result: pXJOWwJsTdpi.Nhx34xVEpTJWk4- has been uploaded


==== Log checksum 141A4938A76A6C2A71056D63A87860A0BDCCD18B9023BA3CDD1C148BA262B80E ====


Anne-Marie McDermott - Haydn: Sonatas & Concertos (2CD) (2014)
NITROFLARE (FLAC)
NITROFLARE (MP3)