Subcategories

Art Blakey's Jazz Messengers - A Night In Tunisia (1958) {2002 Bluebird}

Posted By: TestTickles
Art Blakey's Jazz Messengers - A Night In Tunisia (1958) {2002 Bluebird}

Art Blakey's Jazz Messengers - A Night In Tunisia (1958) {2002 Bluebird}
EAC Rip | FLAC with CUE and log | scans | 331 mb
MP3 CBR 320kbps | RAR | 196 mb
Genre: jazz

A Night In Tunisia is the 1958 album by Art Blakey's Jazz Messengers. This is completely different from the album Blakey released three years later on Blue Note with the same title, but credited to Art Blakey & The Jazz Messengers. This pressing from 2002 by Blue Note/RCA Victor Group features three alternate takes of song on the original album.

Art Blakey's Jazz Messengers - A Night In Tunisia (1958) {2002 Bluebird}

1. A Night In Tunisia
2. Off The Wall
3. Theory Of Art
4. Couldn't It Be You
5. Evans
6. A Night In Tunisia (Alternate Take)
7. Off The Wall (Alternate Take)
8. Theory Of Art (Alternate Take)

Art Blakey-drums
Jackie McLean-alto saxophone
Johnny Griffin-tenor saxophone
Bill Hardman-trumpet
Spanky De Brest-bass
Sam Dockery-piano

Produced by Bob Rolontz
Engineered by Bob Simpson
Recorded in New York, 8 April, 1957
Reissue producer: Ben Young
Remastered by Michael O. Drexler

Art Blakey's Jazz Messengers - A Night In Tunisia (1958) {2002 Bluebird}


Exact Audio Copy V1.0 beta 6 from 9. April 2015

EAC extraction logfile from 30. January 2018, 10:30

Art Blakey's Jazz Messengers / A Night In Tunisia (2002 Bluebird)

Used drive : TSSTcorpDVD+-RW TS-L633C Adapter: 1 ID: 0

Read mode : Secure
Utilize accurate stream : Yes
Defeat audio cache : Yes
Make use of C2 pointers : No

Read offset correction : 6
Overread into Lead-In and Lead-Out : No
Fill up missing offset samples with silence : Yes
Delete leading and trailing silent blocks : No
Null samples used in CRC calculations : Yes
Used interface : Native Win32 interface for Win NT & 2000
Gap handling : Appended to previous track

Used output format : Internal WAV Routines
Sample format : 44.100 Hz; 16 Bit; Stereo


TOC of the extracted CD

Track | Start | Length | Start sector | End sector
––––––––––––––––––––––––––––-
1 | 0:00.00 | 12:55.65 | 0 | 58189
2 | 12:55.65 | 7:16.65 | 58190 | 90954
3 | 20:12.55 | 9:46.20 | 90955 | 134924
4 | 29:59.00 | 8:12.02 | 134925 | 171826
5 | 38:11.02 | 6:30.20 | 171827 | 201096
6 | 44:41.22 | 12:30.55 | 201097 | 257401
7 | 57:12.02 | 7:21.50 | 257402 | 290526
8 | 64:33.52 | 10:14.03 | 290527 | 336579


Track 1

Filename C:\My Documents\My FLAC\Art Blakey's Jazz Messengers - A Night In Tunisia (1958) [FLAC] {2002 Bluebird}\01 - A Night In Tunisia.wav

Pre-gap length 0:00:02.00

Peak level 97.6 %
Extraction speed 3.1 X
Track quality 99.9 %
Test CRC 3E28ACF7
Copy CRC 3E28ACF7
Accurately ripped (confidence 15) [931B9509] (AR v2)
Copy OK

Track 2

Filename C:\My Documents\My FLAC\Art Blakey's Jazz Messengers - A Night In Tunisia (1958) [FLAC] {2002 Bluebird}\02 - Off The Wall.wav

Pre-gap length 0:00:02.43

Peak level 94.9 %
Extraction speed 3.9 X
Track quality 100.0 %
Test CRC F1AE3CB1
Copy CRC F1AE3CB1
Accurately ripped (confidence 15) [5C6896BF] (AR v2)
Copy OK

Track 3

Filename C:\My Documents\My FLAC\Art Blakey's Jazz Messengers - A Night In Tunisia (1958) [FLAC] {2002 Bluebird}\03 - Theory Of Art.wav

Pre-gap length 0:00:01.23

Peak level 99.8 %
Extraction speed 4.0 X
Track quality 99.9 %
Test CRC 094CC8DE
Copy CRC 094CC8DE
Accurately ripped (confidence 15) [888A7DD6] (AR v2)
Copy OK

Track 4

Filename C:\My Documents\My FLAC\Art Blakey's Jazz Messengers - A Night In Tunisia (1958) [FLAC] {2002 Bluebird}\04 - Couldn't It Be You.wav

Pre-gap length 0:00:02.43

Peak level 99.0 %
Extraction speed 4.2 X
Track quality 99.9 %
Test CRC 229592D5
Copy CRC 229592D5
Accurately ripped (confidence 15) [BAD21338] (AR v2)
Copy OK

Track 5

Filename C:\My Documents\My FLAC\Art Blakey's Jazz Messengers - A Night In Tunisia (1958) [FLAC] {2002 Bluebird}\05 - Evans.wav

Pre-gap length 0:00:03.12

Peak level 99.8 %
Extraction speed 4.9 X
Track quality 100.0 %
Test CRC BB9C58DD
Copy CRC BB9C58DD
Accurately ripped (confidence 15) [D478C1ED] (AR v2)
Copy OK

Track 6

Filename C:\My Documents\My FLAC\Art Blakey's Jazz Messengers - A Night In Tunisia (1958) [FLAC] {2002 Bluebird}\06 - A Night In Tunisia (Alternate Take).wav

Pre-gap length 0:00:42.62

Peak level 99.8 %
Extraction speed 5.5 X
Track quality 100.0 %
Test CRC 91A9A798
Copy CRC 91A9A798
Accurately ripped (confidence 15) [B7E832B0] (AR v2)
Copy OK

Track 7

Filename C:\My Documents\My FLAC\Art Blakey's Jazz Messengers - A Night In Tunisia (1958) [FLAC] {2002 Bluebird}\07 - Off The Wall (Alternate Take).wav

Pre-gap length 0:00:11.25

Peak level 99.8 %
Extraction speed 5.6 X
Track quality 100.0 %
Test CRC EAD7F2D0
Copy CRC EAD7F2D0
Accurately ripped (confidence 15) [01DF7DA2] (AR v2)
Copy OK

Track 8

Filename C:\My Documents\My FLAC\Art Blakey's Jazz Messengers - A Night In Tunisia (1958) [FLAC] {2002 Bluebird}\08 - Theory Of Art (Alternate Take).wav

Pre-gap length 0:00:08.65

Peak level 88.1 %
Extraction speed 6.2 X
Track quality 100.0 %
Test CRC 3BE25CA5
Copy CRC 3BE25CA5
Accurately ripped (confidence 15) [F64CECEB] (AR v2)
Copy OK


All tracks accurately ripped

No errors occurred

End of status report

–– CUETools DB Plugin V2.1.6

[CTDB TOCID: 6TYi2d151iMBff8gusBTt6Ob1Hs-] found
Submit result: 6TYi2d151iMBff8gusBTt6Ob1Hs- has been confirmed
Track | CTDB Status
1 | (23/23) Accurately ripped
2 | (23/23) Accurately ripped
3 | (22/23) Accurately ripped
4 | (23/23) Accurately ripped
5 | (23/23) Accurately ripped
6 | (23/23) Accurately ripped
7 | (23/23) Accurately ripped
8 | (23/23) Accurately ripped


==== Log checksum AFF6C083F6979CFA9E55E338C9022A0138B3B244AF8EDD1EFAC2E1B6F37CEE02 ====


Art Blakey's Jazz Messengers - A Night In Tunisia (1958) {2002 Bluebird}