Subcategories

Art Pepper - Art Pepper Meets The Rhythm Section (1957) {2000 20bit K2 Super Coding}

Posted By: TestTickles
Art Pepper - Art Pepper Meets The Rhythm Section (1957) {2000 20bit K2 Super Coding}

Art Pepper - Art Pepper Meets The Rhythm Section (1957) {2000 20bit K2 Super Coding}
EAC Rip | FLAC with CUE and log | scans | 347 mb
MP3 CBR 320kbps | RAR | 137 mb
Genre: jazz

Art Pepper Meets The Rhythm Section is the 1957 album by Art Pepper. Originally released by the Contemporary label, this is the 20bit K2 Super Coding CD pressing released by Fantasy Jazz on 1 August, 2000 and was limited to 10,000 copies.
The rhythm section in question here belonged to Miles Davis in Los Angeles, one fine day in January 1957. Pepper had made a name for himself in Stan Kenton's band, but this was really the first time he found himself in the studio with a rhythm section such as Red Garland, Paul Chambers, and Philly Joe Jones. In his fascinating biography, Straight Life, Pepper tells the story of the date when, after not playing for six months, he was told of the session that morning. He pieced together a broken horn, went in, and blew. Not completely remembering the first tune "You'd Be So Nice to Come Home To," he voices a line that both invokes the melody and refashions it. The rest of the session shows just how high Pepper rose to the occasion. It's one of the most important recordings of his career.

Art Pepper - Art Pepper Meets The Rhythm Section (1957) {2000 20bit K2 Super Coding}

01. You'd Be So Nice To Come Home To
02. Red Pepper Blues
03. Imagination
04. Waltz Me Blues
05. Straight Life
06. Jazz Me Blues
07. Tin Tin Deo
08. Star Eyes
09. Birks' Works
10. The Man I Love (Bonus Track)

Art Farmer-alto saxophone
Red Garland-piano
Pau Chambers-bass
Philly Joe Jones-drums

Produced by Lester Koenig
Recorded at Contemporary's studio in Los Angeles; January 19, 1957
Recording engineer: Roy DuNann

Mastering engineer: Shigeo Miyamoto under supervision of Tamaki Beck for JVC Studios
This album was mastered in analog using the 20-bit K2 Super Coding System

Art Pepper - Art Pepper Meets The Rhythm Section (1957) {2000 20bit K2 Super Coding}


EAC extraction logfile from 17. September 2007, 5:02 for CD
Art Pepper / Art Pepper Meets The Rhythm Section (20Bit K2)

Used drive : LITE-ON DVDRW SOHW-1633S Adapter: 0 ID: 0
Read mode : Secure with NO C2, accurate stream, disable cache
Read offset correction : 12
Overread into Lead-In and Lead-Out : No

Used output format : Internal WAV Routines
44.100 Hz; 16 Bit; Stereo

Other options :
Fill up missing offset samples with silence : Yes
Delete leading and trailing silent blocks : No
Installed external ASPI interface


Track 1
Filename D:\FLAC\Art Pepper - Art Pepper Meets The Rhythm Section (1957) [FLAC] {2000 20bit K2 Super Coding}\01 - You'd Be So Nice To Come Home To.wav

Pre-gap length 0:00:02.00

Peak level 93.9 %
Track quality 100.0 %
Test CRC CD3B6B23
Copy CRC CD3B6B23
Copy OK

Track 2
Filename D:\FLAC\Art Pepper - Art Pepper Meets The Rhythm Section (1957) [FLAC] {2000 20bit K2 Super Coding}\02 - Red Pepper Blues.wav

Pre-gap length 0:00:02.29

Peak level 93.9 %
Track quality 100.0 %
Test CRC 4F35BB1F
Copy CRC 4F35BB1F
Copy OK

Track 3
Filename D:\FLAC\Art Pepper - Art Pepper Meets The Rhythm Section (1957) [FLAC] {2000 20bit K2 Super Coding}\03 - Imagination.wav

Pre-gap length 0:00:02.80

Peak level 94.0 %
Track quality 100.0 %
Test CRC 18029D94
Copy CRC 18029D94
Copy OK

Track 4
Filename D:\FLAC\Art Pepper - Art Pepper Meets The Rhythm Section (1957) [FLAC] {2000 20bit K2 Super Coding}\04 - Waltz Me Blues.wav

Pre-gap length 0:00:02.16

Peak level 94.0 %
Track quality 100.0 %
Test CRC 5A937279
Copy CRC 5A937279
Copy OK

Track 5
Filename D:\FLAC\Art Pepper - Art Pepper Meets The Rhythm Section (1957) [FLAC] {2000 20bit K2 Super Coding}\05 - Straight Life.wav

Pre-gap length 0:00:02.02

Peak level 94.0 %
Track quality 100.0 %
Test CRC 9B5F18E5
Copy CRC 9B5F18E5
Copy OK

Track 6
Filename D:\FLAC\Art Pepper - Art Pepper Meets The Rhythm Section (1957) [FLAC] {2000 20bit K2 Super Coding}\06 - Jazz Me Blues.wav

Pre-gap length 0:00:02.16

Peak level 93.9 %
Track quality 100.0 %
Test CRC B182EA10
Copy CRC B182EA10
Copy OK

Track 7
Filename D:\FLAC\Art Pepper - Art Pepper Meets The Rhythm Section (1957) [FLAC] {2000 20bit K2 Super Coding}\07 - Tin Tin Deo.wav

Pre-gap length 0:00:02.13

Peak level 94.0 %
Track quality 100.0 %
Test CRC 1C46A1E8
Copy CRC 1C46A1E8
Copy OK

Track 8
Filename D:\FLAC\Art Pepper - Art Pepper Meets The Rhythm Section (1957) [FLAC] {2000 20bit K2 Super Coding}\08 - Star Eyes.wav

Pre-gap length 0:00:02.60

Peak level 93.9 %
Track quality 100.0 %
Test CRC B2A6331C
Copy CRC B2A6331C
Copy OK

Track 9
Filename D:\FLAC\Art Pepper - Art Pepper Meets The Rhythm Section (1957) [FLAC] {2000 20bit K2 Super Coding}\09 - Birks' Works.wav

Pre-gap length 0:00:02.22

Peak level 93.9 %
Track quality 99.9 %
Test CRC 7F0D276A
Copy CRC 7F0D276A
Copy OK

Track 10
Filename D:\FLAC\Art Pepper - Art Pepper Meets The Rhythm Section (1957) [FLAC] {2000 20bit K2 Super Coding}\10 - The Man I Love (Bonus Track).wav

Pre-gap length 0:00:01.86

Peak level 93.9 %
Track quality 100.0 %
Test CRC 2CB1F306
Copy CRC 2CB1F306
Copy OK

No errors occured


End of status report