Subcategories

Autodidact - Chinese Girls Have The Best Asses (2004) {Crucial Blast} **[RE-UP]**

Posted By: TestTickles
Autodidact - Chinese Girls Have The Best Asses (2004) {Crucial Blast} **[RE-UP]**

Autodidact - Chinese Girls Have The Best Asses (2004) {Crucial Blast}
EAC Rip | FLAC with CUE and log | scans | 358 mb
MP3 CBR 320kbps | RAR | 132 mb
Genre: indie rock, electronic, noise rock, post-rock

Chinese Girls Have The Best Asses is the 2004 album by Autodidact. Lead by Roy K. Felps, who is also the guitarist of Korperschwache. This title comes courtesy of Crucial Blast.

Autodidact - Chinese Girls Have The Best Asses (2004) {Crucial Blast} **[RE-UP]**

1. The Hammer Of Funk, My Chinese Ass (6:48)
2. The International Brotherhood Of Ice Machines (6:03)
3. The Tension Mounts (Chief Broom) (5:00)
4. Chinese Box (6:20)
5. Mystified By The Shape Of Sound (4:28)
6. Symphony Of The Zero (5:10)
7. Last Exit To The Coming Of The White (17:11)
8. Devolve (Bastard) (6:54)

RKF (Roy K. Felps)-main performer/bullshit
Teresa Mau-wooly bully bass of doom (bass)
Doktor Omega-Oppressively Glacial Beats (drum programming)

Produced & Mastered by RKF.

Exact Audio Copy V1.1 from 23. June 2015

EAC extraction logfile from 14. April 2017, 19:11

Autodidact / Chinese Girls Have The Best Asses

Used drive : TEAC DVD-ROM DV-28SW Adapter: 1 ID: 0

Read mode : Secure
Utilize accurate stream : Yes
Defeat audio cache : Yes
Make use of C2 pointers : No

Read offset correction : 6
Overread into Lead-In and Lead-Out : No
Fill up missing offset samples with silence : Yes
Delete leading and trailing silent blocks : No
Null samples used in CRC calculations : Yes
Used interface : Native Win32 interface for Win NT & 2000
Gap handling : Appended to previous track

Used output format : Internal WAV Routines
Sample format : 44.100 Hz; 16 Bit; Stereo


TOC of the extracted CD

Track | Start | Length | Start sector | End sector
––––––––––––––––––––––––––––-
1 | 0:00.00 | 6:48.54 | 0 | 30653
2 | 6:48.54 | 6:03.30 | 30654 | 57908
3 | 12:52.09 | 5:00.54 | 57909 | 80462
4 | 17:52.63 | 6:20.34 | 80463 | 108996
5 | 24:13.22 | 4:28.42 | 108997 | 129138
6 | 28:41.64 | 5:10.28 | 129139 | 152416
7 | 33:52.17 | 17:11.42 | 152417 | 229783
8 | 51:03.59 | 6:54.63 | 229784 | 260896


Track 1

Filename C:\My Documents\My FLAC\Autodidact - Chinese Girls Have The Best Asses (2004) [FLAC] {Crucial Blast}\01 - The Hammer Of Funk, My Chinese Ass.wav

Pre-gap length 0:00:02.00

Peak level 94.9 %
Extraction speed 2.4 X
Track quality 100.0 %
Test CRC 5057A24E
Copy CRC 5057A24E
Cannot be verified as accurate (confidence 1) [17C80CE7], AccurateRip returned [007E5791] (AR v2)
Copy OK

Track 2

Filename C:\My Documents\My FLAC\Autodidact - Chinese Girls Have The Best Asses (2004) [FLAC] {Crucial Blast}\02 - The International Brotherhood Of Ice Machines.wav

Peak level 95.0 %
Extraction speed 3.3 X
Track quality 100.0 %
Test CRC 8DFF4A0C
Copy CRC 8DFF4A0C
Cannot be verified as accurate (confidence 1) [DF98E432], AccurateRip returned [767AA539] (AR v2)
Copy OK

Track 3

Filename C:\My Documents\My FLAC\Autodidact - Chinese Girls Have The Best Asses (2004) [FLAC] {Crucial Blast}\03 - The Tension Mounts (Chief Broom).wav

Peak level 94.9 %
Extraction speed 3.5 X
Track quality 100.0 %
Test CRC 91867168
Copy CRC 91867168
Cannot be verified as accurate (confidence 1) [812820FF], AccurateRip returned [4B0D36D1] (AR v2)
Copy OK

Track 4

Filename C:\My Documents\My FLAC\Autodidact - Chinese Girls Have The Best Asses (2004) [FLAC] {Crucial Blast}\04 - Chinese Box.wav

Peak level 95.0 %
Extraction speed 3.5 X
Track quality 99.9 %
Test CRC 6F2BB96B
Copy CRC 6F2BB96B
Cannot be verified as accurate (confidence 1) [A11ED22E], AccurateRip returned [452829F4] (AR v2)
Copy OK

Track 5

Filename C:\My Documents\My FLAC\Autodidact - Chinese Girls Have The Best Asses (2004) [FLAC] {Crucial Blast}\05 - Mystified By The Shape Of Sound.wav

Peak level 95.0 %
Extraction speed 3.4 X
Track quality 99.9 %
Test CRC 2CAFAE92
Copy CRC 2CAFAE92
Cannot be verified as accurate (confidence 1) [40CA86C4], AccurateRip returned [CA259B1A] (AR v2)
Copy OK

Track 6

Filename C:\My Documents\My FLAC\Autodidact - Chinese Girls Have The Best Asses (2004) [FLAC] {Crucial Blast}\06 - Symphony Of The Zero.wav

Peak level 94.9 %
Extraction speed 4.3 X
Track quality 100.0 %
Test CRC FD816B57
Copy CRC FD816B57
Cannot be verified as accurate (confidence 1) [9B27D020], AccurateRip returned [63A25A8D] (AR v2)
Copy OK

Track 7

Filename C:\My Documents\My FLAC\Autodidact - Chinese Girls Have The Best Asses (2004) [FLAC] {Crucial Blast}\07 - Last Exit To The Coming Of The White.wav

Peak level 95.0 %
Extraction speed 4.5 X
Track quality 100.0 %
Test CRC 4D51E92B
Copy CRC 4D51E92B
Cannot be verified as accurate (confidence 1) [496A0423], AccurateRip returned [ECCA8BD8] (AR v2)
Copy OK

Track 8

Filename C:\My Documents\My FLAC\Autodidact - Chinese Girls Have The Best Asses (2004) [FLAC] {Crucial Blast}\08 - Devolve (Bastard).wav

Peak level 95.0 %
Extraction speed 1.0 X
Track quality 100.0 %
Test CRC 87B2B7C2
Copy CRC 87B2B7C2
Cannot be verified as accurate (confidence 1) [36ACA352], AccurateRip returned [A59AE0D2] (AR v2)
Copy OK


No tracks could be verified as accurate
You may have a different pressing from the one(s) in the database

No errors occurred

End of status report

–– CUETools DB Plugin V2.1.6

[CTDB TOCID: eF.2iJUBDRL_b8SdhTC6kak8Fks-] disk not present in database
Submit result: eF.2iJUBDRL_b8SdhTC6kak8Fks- has been uploaded


==== Log checksum 2AA5F2E255BBF70940751676600A23B5C44D887C9CF435FF29063EDA6EBCDA5E ====


Autodidact - Chinese Girls Have The Best Asses (2004) {Crucial Blast} **[RE-UP]**