VA - 50 Of The Most Loved Records Of Your Life (2CD) (1984)

Posted By: TestTickles
VA - 50 Of The Most Loved Records Of Your Life (2CD) (1984)

VA - 50 Of The Most Loved Records Of Your Life (2CD) (1984)
EAC Rip | FLAC with CUE and log | scans | 736 mb
MP3 CBR 320kbps | RAR | 323 mb
Genre: oldies, pop, R&B, rock'n'roll, easy listening

50 Of The Most Loved Records Of Your Life is a 2-CD compilation released by The Beautiful Music Company in association wioth Suffolk Marketing. On vinyl, this was released as two volumes of 2-record sets, a total of 4 records. These are the original songs by the original artists, just listen.

VA - 50 Of The Most Loved Records Of Your Life (2CD) (1984)

50 Of The Most Loved Records Of Your Life (Disc 1)

VA - 50 Of The Most Loved Records Of Your Life (2CD) (1984)

1. Englebert Humperdinck - Release Me
2. The Harmonicats - Peg O' My Heart
3. Bing Crosby - Now Is The Hour
4. Tom Jones - I'll Never Fall In Love Again
5. Vera Lynn - Auf Wiedersehn, Sweetheart
6. Nat King Cole - Too Young
7. Kitty Kallen - Little Things Mean A Lot
8. Al Martino - Spanish Eyes
9. Patti Page - Tennessee Waltz
10. The Platters - Only You
11. The Four Aces - Love Is A Many Splendored Thing
12. Billy Vaughn - Melody Of Love
13. The Ink Spots - To Each His Own
14. Frank Ifield - I Remember You
15. Margaret Whiting - Moonlight In Vermont
16. Edith Piaf - La Vie En Rose
17. Al Hibbler - Unchained Melody
18. Fats Domino - Blueberry Hill
19. Art Mooney - Bluebird Of Happiness
20. Georgia Gibbs - Kiss Of Fire
21. Dean Martin - Return To Me
22. Bobby Helms - My Special Angel
23. The Mills Brothers - You Always Hurt The One You Love
24. Les Paul & Mary Ford - Vaya Con Dios
25. Teresa Brewer - Till I Waltz Again With You

VA - 50 Of The Most Loved Records Of Your Life (2CD) (1984)


=====

VA - 50 Of The Most Loved Records Of Your Life (2CD) (1984)

50 Of The Most Loved Records Of Your Life (Disc 2)

VA - 50 Of The Most Loved Records Of Your Life (2CD) (1984)

01. The Four Lads - Moment To Remember
02. The Browns - The Three Bells
03. Johnnie Ray - Just Walkin' In The Rain
04. Rosemary Clooney - Tenderly
05. Eddy Arnold - Make The World Go Away
06. Ray Price - Crazy Arms
07. Eddie Fisher - Anytime
08. Guy Mitchell - Heartache By The Number
09. Ray Conniff & The Singers - Somewhere My Love
10. Frankie Laine - I Believe
11. Bobby Darin - Beyond The Sea
12. Doris Day - Secret Love
13. The Ames Brothers with Hugo Winterhalter & His Orchestra - You, You, You
14. Johnny Mathis - Chances Are
15. Bobby Vinton - Roses Are Red (My Love)
16. Jim Reeves - He'll Have To Go
17. Jane Morgan - Fascination
18. Tony Bennett - Because Of You
19. The Three Suns - Twilight Time
20. Jo Stafford - You Belong To Me
21. Brook Benton - It's Just A Matter Of Time
22. Vic Damone - You're Breaking My Heart
23. Billy Eckstine - Everthing I Have Is Yours
24. Roger Williams - Autumn Leaves
25. Gordon Jenkins - Goodnight Irene

VA - 50 Of The Most Loved Records Of Your Life (2CD) (1984)


Exact Audio Copy V1.1 from 23. June 2015

EAC extraction logfile from 26. July 2016, 7:58

Various Artists / 50 Of The Most Loved Records Of Your Life (Disc 1)

Used drive : TEAC DVD-ROM DV-28SW Adapter: 1 ID: 0

Read mode : Secure
Utilize accurate stream : Yes
Defeat audio cache : Yes
Make use of C2 pointers : No

Read offset correction : 6
Overread into Lead-In and Lead-Out : No
Fill up missing offset samples with silence : Yes
Delete leading and trailing silent blocks : No
Null samples used in CRC calculations : Yes
Used interface : Native Win32 interface for Win NT & 2000
Gap handling : Appended to previous track

Used output format : Internal WAV Routines
Sample format : 44.100 Hz; 16 Bit; Stereo


TOC of the extracted CD

Track | Start | Length | Start sector | End sector
––––––––––––––––––––––––––––-
1 | 0:00.00 | 3:18.65 | 0 | 14914
2 | 3:18.65 | 2:14.35 | 14915 | 24999
3 | 5:33.25 | 3:10.43 | 25000 | 39292
4 | 8:43.68 | 2:59.12 | 39293 | 52729
5 | 11:43.05 | 2:41.43 | 52730 | 64847
6 | 14:24.48 | 3:13.72 | 64848 | 79394
7 | 17:38.45 | 3:01.25 | 79395 | 92994
8 | 20:39.70 | 2:48.40 | 92995 | 105634
9 | 23:28.35 | 3:03.63 | 105635 | 119422
10 | 26:32.23 | 2:38.55 | 119423 | 131327
11 | 29:11.03 | 3:01.40 | 131328 | 144942
12 | 32:12.43 | 3:01.55 | 144943 | 158572
13 | 35:14.23 | 3:15.37 | 158573 | 173234
14 | 38:29.60 | 2:00.63 | 173235 | 182297
15 | 40:30.48 | 3:14.72 | 182298 | 196919
16 | 43:45.45 | 3:08.55 | 196920 | 211074
17 | 46:54.25 | 2:58.35 | 211075 | 224459
18 | 49:52.60 | 2:22.60 | 224460 | 235169
19 | 52:15.45 | 3:19.08 | 235170 | 250102
20 | 55:34.53 | 2:27.52 | 250103 | 261179
21 | 58:02.30 | 2:26.58 | 261180 | 272187
22 | 60:29.13 | 3:01.05 | 272188 | 285767
23 | 63:30.18 | 3:26.02 | 285768 | 301219
24 | 66:56.20 | 2:54.20 | 301220 | 314289
25 | 69:50.40 | 2:59.28 | 314290 | 327742


Track 1

Filename C:\My Documents\My FLAC\VA - 50 Of The Most Loved Records Of Your Life (2CD) (1984) [FLAC]\Disc 1\01 - Engelbert Humperdinck - Release Me.wav

Pre-gap length 0:00:02.00

Peak level 63.0 %
Extraction speed 2.2 X
Track quality 99.9 %
Test CRC 22118166
Copy CRC 22118166
Cannot be verified as accurate (confidence 3) [181B00DE], AccurateRip returned [8C7E9008] (AR v2)
Copy OK

Track 2

Filename C:\My Documents\My FLAC\VA - 50 Of The Most Loved Records Of Your Life (2CD) (1984) [FLAC]\Disc 1\02 - The Harmonicats - Peg O' My Heart.wav

Pre-gap length 0:00:01.57

Peak level 46.7 %
Extraction speed 2.1 X
Track quality 99.9 %
Test CRC 8BD61295
Copy CRC 8BD61295
Cannot be verified as accurate (confidence 3) [ABCF6D41], AccurateRip returned [D33E7AA5] (AR v2)
Copy OK

Track 3

Filename C:\My Documents\My FLAC\VA - 50 Of The Most Loved Records Of Your Life (2CD) (1984) [FLAC]\Disc 1\03 - Bing Crosby - Now Is The Hour.wav

Pre-gap length 0:00:02.00

Peak level 77.4 %
Extraction speed 2.5 X
Track quality 99.9 %
Test CRC 191B69A1
Copy CRC 191B69A1
Cannot be verified as accurate (confidence 3) [6CA8B34C], AccurateRip returned [4925CBDA] (AR v2)
Copy OK

Track 4

Filename C:\My Documents\My FLAC\VA - 50 Of The Most Loved Records Of Your Life (2CD) (1984) [FLAC]\Disc 1\04 - Tom Jones - I'll Never Fall In Love Again.wav

Pre-gap length 0:00:02.10

Peak level 63.1 %
Extraction speed 3.2 X
Track quality 100.0 %
Test CRC 2A50E712
Copy CRC 2A50E712
Cannot be verified as accurate (confidence 3) [114E95D9], AccurateRip returned [083C046B] (AR v2)
Copy OK

Track 5

Filename C:\My Documents\My FLAC\VA - 50 Of The Most Loved Records Of Your Life (2CD) (1984) [FLAC]\Disc 1\05 - Vera Lynn - Auf Wiedersehn, Sweetheart.wav

Pre-gap length 0:00:04.07

Peak level 64.6 %
Extraction speed 3.2 X
Track quality 100.0 %
Test CRC 754B8339
Copy CRC 754B8339
Cannot be verified as accurate (confidence 3) [58D6FFB3], AccurateRip returned [AB756ABE] (AR v2)
Copy OK

Track 6

Filename C:\My Documents\My FLAC\VA - 50 Of The Most Loved Records Of Your Life (2CD) (1984) [FLAC]\Disc 1\06 - Nat ''King'' Cole - Too Young.wav

Pre-gap length 0:00:03.48

Peak level 77.2 %
Extraction speed 3.5 X
Track quality 100.0 %
Test CRC 2643A86A
Copy CRC 2643A86A
Cannot be verified as accurate (confidence 3) [AC03BF28], AccurateRip returned [6FAB883D] (AR v2)
Copy OK

Track 7

Filename C:\My Documents\My FLAC\VA - 50 Of The Most Loved Records Of Your Life (2CD) (1984) [FLAC]\Disc 1\07 - Kitty Kallen - Little Things Mean A Lot.wav

Pre-gap length 0:00:02.40

Peak level 67.8 %
Extraction speed 3.6 X
Track quality 100.0 %
Test CRC 87D2C309
Copy CRC 87D2C309
Cannot be verified as accurate (confidence 3) [0936BB41], AccurateRip returned [F6BEA5FC] (AR v2)
Copy OK

Track 8

Filename C:\My Documents\My FLAC\VA - 50 Of The Most Loved Records Of Your Life (2CD) (1984) [FLAC]\Disc 1\08 - Al Martino - Spanish Eyes.wav

Pre-gap length 0:00:02.55

Peak level 76.3 %
Extraction speed 3.7 X
Track quality 100.0 %
Test CRC 9E72EFC5
Copy CRC 9E72EFC5
Cannot be verified as accurate (confidence 3) [1F4C99AF], AccurateRip returned [8F817E5C] (AR v2)
Copy OK

Track 9

Filename C:\My Documents\My FLAC\VA - 50 Of The Most Loved Records Of Your Life (2CD) (1984) [FLAC]\Disc 1\09 - Patti Page - Tennessee Waltz.wav

Pre-gap length 0:00:02.67

Peak level 54.8 %
Extraction speed 3.9 X
Track quality 100.0 %
Test CRC F5CF3E9F
Copy CRC F5CF3E9F
Cannot be verified as accurate (confidence 3) [F0A32715], AccurateRip returned [2E4088FA] (AR v2)
Copy OK

Track 10

Filename C:\My Documents\My FLAC\VA - 50 Of The Most Loved Records Of Your Life (2CD) (1984) [FLAC]\Disc 1\10 - The Platters - Only You.wav

Pre-gap length 0:00:02.15

Peak level 66.0 %
Extraction speed 3.9 X
Track quality 100.0 %
Test CRC DDD3212C
Copy CRC DDD3212C
Cannot be verified as accurate (confidence 3) [45797B6B], AccurateRip returned [6D88A390] (AR v2)
Copy OK

Track 11

Filename C:\My Documents\My FLAC\VA - 50 Of The Most Loved Records Of Your Life (2CD) (1984) [FLAC]\Disc 1\11 - The Four Aces - Love Is A Many Splendored Thing.wav

Pre-gap length 0:00:03.18

Peak level 85.7 %
Extraction speed 4.1 X
Track quality 100.0 %
Test CRC 6A8BCA21
Copy CRC 6A8BCA21
Cannot be verified as accurate (confidence 3) [869E1C78], AccurateRip returned [EABB7571] (AR v2)
Copy OK

Track 12

Filename C:\My Documents\My FLAC\VA - 50 Of The Most Loved Records Of Your Life (2CD) (1984) [FLAC]\Disc 1\12 - Billy Vaughn - Melody Of Love.wav

Pre-gap length 0:00:03.15

Peak level 46.8 %
Extraction speed 4.2 X
Track quality 100.0 %
Test CRC 4C53695E
Copy CRC 4C53695E
Cannot be verified as accurate (confidence 3) [8BE84419], AccurateRip returned [81865BF6] (AR v2)
Copy OK

Track 13

Filename C:\My Documents\My FLAC\VA - 50 Of The Most Loved Records Of Your Life (2CD) (1984) [FLAC]\Disc 1\13 - The Ink Spots - To Each His Own.wav

Pre-gap length 0:00:02.60

Peak level 66.9 %
Extraction speed 4.4 X
Track quality 100.0 %
Test CRC 14547EFA
Copy CRC 14547EFA
Cannot be verified as accurate (confidence 3) [48CA1D23], AccurateRip returned [48C71254] (AR v2)
Copy OK

Track 14

Filename C:\My Documents\My FLAC\VA - 50 Of The Most Loved Records Of Your Life (2CD) (1984) [FLAC]\Disc 1\14 - Frank Ifield - I Remember You.wav

Pre-gap length 0:00:03.27

Peak level 60.2 %
Extraction speed 3.1 X
Track quality 99.9 %
Test CRC 78A7BE4F
Copy CRC 78A7BE4F
Cannot be verified as accurate (confidence 3) [D63249AB], AccurateRip returned [CA128A8D] (AR v2)
Copy OK

Track 15

Filename C:\My Documents\My FLAC\VA - 50 Of The Most Loved Records Of Your Life (2CD) (1984) [FLAC]\Disc 1\15 - Margaret Whiting - Moonlight In Vermont.wav

Pre-gap length 0:00:02.63

Peak level 61.5 %
Extraction speed 4.6 X
Track quality 100.0 %
Test CRC 51ABD476
Copy CRC 51ABD476
Cannot be verified as accurate (confidence 3) [5E5C2623], AccurateRip returned [C0FDCEE9] (AR v2)
Copy OK

Track 16

Filename C:\My Documents\My FLAC\VA - 50 Of The Most Loved Records Of Your Life (2CD) (1984) [FLAC]\Disc 1\16 - Edith Piaf - La Vie En Rose.wav

Pre-gap length 0:00:02.62

Peak level 53.8 %
Extraction speed 4.7 X
Track quality 100.0 %
Test CRC 194D310D
Copy CRC 194D310D
Cannot be verified as accurate (confidence 3) [52D6FBEB], AccurateRip returned [4AD68362] (AR v2)
Copy OK

Track 17

Filename C:\My Documents\My FLAC\VA - 50 Of The Most Loved Records Of Your Life (2CD) (1984) [FLAC]\Disc 1\17 - Al Hibbler - Unchained Melody.wav

Pre-gap length 0:00:02.52

Peak level 66.0 %
Extraction speed 4.8 X
Track quality 100.0 %
Test CRC 7B137A27
Copy CRC 7B137A27
Cannot be verified as accurate (confidence 3) [901D3037], AccurateRip returned [EBDB4766] (AR v2)
Copy OK

Track 18

Filename C:\My Documents\My FLAC\VA - 50 Of The Most Loved Records Of Your Life (2CD) (1984) [FLAC]\Disc 1\18 - Fats Domino - Blueberry Hill.wav

Pre-gap length 0:00:03.55

Peak level 71.0 %
Extraction speed 4.6 X
Track quality 100.0 %
Test CRC 1F50E832
Copy CRC 1F50E832
Cannot be verified as accurate (confidence 3) [5018E502], AccurateRip returned [CFF58DCE] (AR v2)
Copy OK

Track 19

Filename C:\My Documents\My FLAC\VA - 50 Of The Most Loved Records Of Your Life (2CD) (1984) [FLAC]\Disc 1\19 - Art Mooney - Bluebird Of Happiness.wav

Pre-gap length 0:00:02.62

Peak level 66.9 %
Extraction speed 0.5 X
Track quality 100.0 %
Test CRC B8FDD0ED
Copy CRC B8FDD0ED
Cannot be verified as accurate (confidence 3) [328F4C47], AccurateRip returned [3711F24A] (AR v2)
Copy OK

Track 20

Filename C:\My Documents\My FLAC\VA - 50 Of The Most Loved Records Of Your Life (2CD) (1984) [FLAC]\Disc 1\20 - Georgia Gibbs - Kiss Of Fire.wav

Pre-gap length 0:00:03.30

Peak level 87.2 %
Extraction speed 3.8 X
Track quality 99.9 %
Test CRC 5B96AF66
Copy CRC 5B96AF66
Cannot be verified as accurate (confidence 3) [25FE5CC7], AccurateRip returned [DE6108AC] (AR v2)
Copy OK

Track 21

Filename C:\My Documents\My FLAC\VA - 50 Of The Most Loved Records Of Your Life (2CD) (1984) [FLAC]\Disc 1\21 - Dean Martin - Return To Me.wav

Pre-gap length 0:00:02.50

Peak level 73.9 %
Extraction speed 4.9 X
Track quality 100.0 %
Test CRC E414C645
Copy CRC E414C645
Cannot be verified as accurate (confidence 3) [798644EA], AccurateRip returned [B5288735] (AR v2)
Copy OK

Track 22

Filename C:\My Documents\My FLAC\VA - 50 Of The Most Loved Records Of Your Life (2CD) (1984) [FLAC]\Disc 1\22 - Bobby Helms - My Special Angel.wav

Pre-gap length 0:00:02.60

Peak level 76.1 %
Extraction speed 5.2 X
Track quality 100.0 %
Test CRC 437DB2FE
Copy CRC 437DB2FE
Cannot be verified as accurate (confidence 3) [A4070ADC], AccurateRip returned [B190F716] (AR v2)
Copy OK

Track 23

Filename C:\My Documents\My FLAC\VA - 50 Of The Most Loved Records Of Your Life (2CD) (1984) [FLAC]\Disc 1\23 - The Mills Brothers - You Always Hurt The One You Love.wav

Pre-gap length 0:00:03.28

Peak level 70.4 %
Extraction speed 5.4 X
Track quality 100.0 %
Test CRC 230D6662
Copy CRC 230D6662
Cannot be verified as accurate (confidence 3) [13FC1F5F], AccurateRip returned [B08D015A] (AR v2)
Copy OK

Track 24

Filename C:\My Documents\My FLAC\VA - 50 Of The Most Loved Records Of Your Life (2CD) (1984) [FLAC]\Disc 1\24 - Les Paul & Mary Ford - Vaya Con Dios.wav

Pre-gap length 0:00:02.32

Peak level 60.5 %
Extraction speed 4.3 X
Track quality 99.9 %
Test CRC DF4EF26F
Copy CRC DF4EF26F
Cannot be verified as accurate (confidence 3) [84F25F36], AccurateRip returned [E268F33F] (AR v2)
Copy OK

Track 25

Filename C:\My Documents\My FLAC\VA - 50 Of The Most Loved Records Of Your Life (2CD) (1984) [FLAC]\Disc 1\25 - Teresa Brewer - Till I Waltz Again With You.wav

Pre-gap length 0:00:01.45

Peak level 59.6 %
Extraction speed 5.4 X
Track quality 100.0 %
Test CRC 13021A0F
Copy CRC 13021A0F
Cannot be verified as accurate (confidence 3) [EDE0CAB8], AccurateRip returned [3582682B] (AR v2)
Copy OK


No tracks could be verified as accurate
You may have a different pressing from the one(s) in the database

No errors occurred

End of status report

–– CUETools DB Plugin V2.1.6

[CTDB TOCID: 0fxz3S1JmlYeya3TrNGmMzhl4XY-] found
Submit result: 0fxz3S1JmlYeya3TrNGmMzhl4XY- has been confirmed
Track | CTDB Status
1 | (8/8) Accurately ripped
2 | (8/8) Accurately ripped
3 | (8/8) Accurately ripped
4 | (8/8) Accurately ripped
5 | (8/8) Accurately ripped
6 | (8/8) Accurately ripped
7 | (8/8) Accurately ripped
8 | (8/8) Accurately ripped
9 | (8/8) Accurately ripped
10 | (8/8) Accurately ripped
11 | (8/8) Accurately ripped
12 | (8/8) Accurately ripped
13 | (8/8) Accurately ripped
14 | (8/8) Accurately ripped
15 | (8/8) Accurately ripped
16 | (8/8) Accurately ripped
17 | (8/8) Accurately ripped
18 | (8/8) Accurately ripped
19 | (8/8) Accurately ripped
20 | (8/8) Accurately ripped
21 | (8/8) Accurately ripped
22 | (8/8) Accurately ripped
23 | (8/8) Accurately ripped
24 | (8/8) Accurately ripped
25 | (8/8) Accurately ripped


==== Log checksum 4FDAD830EE9D0272E93F37FC280C029743BAD8164FEA4E8F7BEAF5427F972003 ====







Exact Audio Copy V1.1 from 23. June 2015

EAC extraction logfile from 26. July 2016, 9:26

Various Artists / 50 of the Most Loved Records of Your Life (Disc 2)

Used drive : TEAC DVD-ROM DV-28SW Adapter: 1 ID: 0

Read mode : Secure
Utilize accurate stream : Yes
Defeat audio cache : Yes
Make use of C2 pointers : No

Read offset correction : 6
Overread into Lead-In and Lead-Out : No
Fill up missing offset samples with silence : Yes
Delete leading and trailing silent blocks : No
Null samples used in CRC calculations : Yes
Used interface : Native Win32 interface for Win NT & 2000
Gap handling : Appended to previous track

Used output format : Internal WAV Routines
Sample format : 44.100 Hz; 16 Bit; Stereo


TOC of the extracted CD

Track | Start | Length | Start sector | End sector
––––––––––––––––––––––––––––-
1 | 0:00.00 | 3:19.17 | 0 | 14941
2 | 3:19.17 | 2:54.68 | 14942 | 28059
3 | 6:14.10 | 2:40.65 | 28060 | 40124
4 | 8:55.00 | 3:31.37 | 40125 | 55986
5 | 12:26.37 | 2:40.05 | 55987 | 67991
6 | 15:06.42 | 2:34.40 | 67992 | 79581
7 | 17:41.07 | 2:41.15 | 79582 | 91671
8 | 20:22.22 | 2:40.25 | 91672 | 103696
9 | 23:02.47 | 2:32.18 | 103697 | 115114
10 | 25:34.65 | 2:14.05 | 115115 | 125169
11 | 27:48.70 | 2:50.15 | 125170 | 137934
12 | 30:39.10 | 3:42.72 | 137935 | 154656
13 | 34:22.07 | 2:57.23 | 154657 | 167954
14 | 37:19.30 | 3:05.62 | 167955 | 181891
15 | 40:25.17 | 2:41.08 | 181892 | 193974
16 | 43:06.25 | 2:22.42 | 193975 | 204666
17 | 45:28.67 | 2:49.35 | 204667 | 217376
18 | 48:18.27 | 3:01.25 | 217377 | 230976
19 | 51:19.52 | 3:39.55 | 230977 | 247456
20 | 54:59.32 | 3:07.30 | 247457 | 261511
21 | 58:06.62 | 2:29.65 | 261512 | 272751
22 | 60:36.52 | 3:18.13 | 272752 | 287614
23 | 63:54.65 | 3:00.15 | 287615 | 301129
24 | 66:55.05 | 3:03.62 | 301130 | 314916
25 | 69:58.67 | 3:20.73 | 314917 | 329989


Track 1

Filename C:\My Documents\My FLAC\VA - 50 Of The Most Loved Records Of Your Life (2CD) (1984) [FLAC]\Disc 2\01 - The Four Lads - Moment To Remember.wav

Pre-gap length 0:00:02.00

Peak level 64.3 %
Extraction speed 1.8 X
Track quality 100.0 %
Test CRC F7EB93D2
Copy CRC F7EB93D2
Cannot be verified as accurate (confidence 5) [41F72681], AccurateRip returned [0977CFE8] (AR v2)
Copy OK

Track 2

Filename C:\My Documents\My FLAC\VA - 50 Of The Most Loved Records Of Your Life (2CD) (1984) [FLAC]\Disc 2\02 - The Browns - The Three Bells.wav

Pre-gap length 0:00:02.62

Peak level 55.6 %
Extraction speed 1.9 X
Track quality 100.0 %
Test CRC A83F7172
Copy CRC A83F7172
Cannot be verified as accurate (confidence 5) [715533E5], AccurateRip returned [D0C2731E] (AR v2)
Copy OK

Track 3

Filename C:\My Documents\My FLAC\VA - 50 Of The Most Loved Records Of Your Life (2CD) (1984) [FLAC]\Disc 2\03 - Johnnie Ray - Just Walkin' In The Rain.wav

Pre-gap length 0:00:02.63

Peak level 53.2 %
Extraction speed 2.0 X
Track quality 100.0 %
Test CRC 5A59BF0F
Copy CRC 5A59BF0F
Cannot be verified as accurate (confidence 5) [3821BBEB], AccurateRip returned [470751DC] (AR v2)
Copy OK

Track 4

Filename C:\My Documents\My FLAC\VA - 50 Of The Most Loved Records Of Your Life (2CD) (1984) [FLAC]\Disc 2\04 - Rosemary Clooney - Tenderly.wav

Pre-gap length 0:00:02.63

Peak level 53.3 %
Extraction speed 2.0 X
Track quality 99.9 %
Test CRC 8FA7E734
Copy CRC 8FA7E734
Cannot be verified as accurate (confidence 5) [ABE16352], AccurateRip returned [45E5D13F] (AR v2)
Copy OK

Track 5

Filename C:\My Documents\My FLAC\VA - 50 Of The Most Loved Records Of Your Life (2CD) (1984) [FLAC]\Disc 2\05 - Eddy Arnold - Make The World Go Away.wav

Pre-gap length 0:00:02.62

Peak level 56.9 %
Extraction speed 2.2 X
Track quality 100.0 %
Test CRC 35702C54
Copy CRC 35702C54
Cannot be verified as accurate (confidence 5) [5802CACC], AccurateRip returned [7EF570D7] (AR v2)
Copy OK

Track 6

Filename C:\My Documents\My FLAC\VA - 50 Of The Most Loved Records Of Your Life (2CD) (1984) [FLAC]\Disc 2\06 - Ray Price - Crazy Arms.wav

Pre-gap length 0:00:02.62

Peak level 60.4 %
Extraction speed 2.3 X
Track quality 100.0 %
Test CRC C8D27C74
Copy CRC C8D27C74
Cannot be verified as accurate (confidence 5) [D2437DBE], AccurateRip returned [3AB4BCAF] (AR v2)
Copy OK

Track 7

Filename C:\My Documents\My FLAC\VA - 50 Of The Most Loved Records Of Your Life (2CD) (1984) [FLAC]\Disc 2\07 - Eddie Fisher - Anytime.wav

Pre-gap length 0:00:02.62

Peak level 72.7 %
Extraction speed 2.4 X
Track quality 100.0 %
Test CRC 241FBF44
Copy CRC 241FBF44
Cannot be verified as accurate (confidence 5) [A7AF6EC6], AccurateRip returned [58D9D2DC] (AR v2)
Copy OK

Track 8

Filename C:\My Documents\My FLAC\VA - 50 Of The Most Loved Records Of Your Life (2CD) (1984) [FLAC]\Disc 2\08 - Guy Mitchell - Heartache By The Number.wav

Pre-gap length 0:00:02.62

Peak level 67.2 %
Extraction speed 2.1 X
Track quality 99.9 %
Test CRC 68820BD7
Copy CRC 68820BD7
Cannot be verified as accurate (confidence 5) [32EAB3D9], AccurateRip returned [F8580217] (AR v2)
Copy OK

Track 9

Filename C:\My Documents\My FLAC\VA - 50 Of The Most Loved Records Of Your Life (2CD) (1984) [FLAC]\Disc 2\09 - Ray Conniff & The Singers - Somewhere My Love.wav

Pre-gap length 0:00:02.62

Peak level 59.9 %
Extraction speed 2.6 X
Track quality 100.0 %
Test CRC 1E003C8F
Copy CRC 1E003C8F
Cannot be verified as accurate (confidence 5) [BF6301BB], AccurateRip returned [94418277] (AR v2)
Copy OK

Track 10

Filename C:\My Documents\My FLAC\VA - 50 Of The Most Loved Records Of Your Life (2CD) (1984) [FLAC]\Disc 2\10 - Frankie Laine - I Believe.wav

Pre-gap length 0:00:02.63

Peak level 67.0 %
Extraction speed 2.5 X
Track quality 100.0 %
Test CRC D07BEC70
Copy CRC D07BEC70
Cannot be verified as accurate (confidence 5) [41869F5D], AccurateRip returned [661D2CA5] (AR v2)
Copy OK

Track 11

Filename C:\My Documents\My FLAC\VA - 50 Of The Most Loved Records Of Your Life (2CD) (1984) [FLAC]\Disc 2\11 - Bobby Darin - Beyond The Sea.wav

Pre-gap length 0:00:02.63

Peak level 55.4 %
Extraction speed 2.7 X
Track quality 100.0 %
Test CRC A28889B3
Copy CRC A28889B3
Cannot be verified as accurate (confidence 6) [D770DF33], AccurateRip returned [4914BF16] (AR v2)
Copy OK

Track 12

Filename C:\My Documents\My FLAC\VA - 50 Of The Most Loved Records Of Your Life (2CD) (1984) [FLAC]\Disc 2\12 - Doris Day - Secret Love.wav

Pre-gap length 0:00:02.63

Peak level 58.7 %
Extraction speed 3.0 X
Track quality 100.0 %
Test CRC 2A138BA7
Copy CRC 2A138BA7
Cannot be verified as accurate (confidence 5) [2FB322C3], AccurateRip returned [59230DB9] (AR v2)
Copy OK

Track 13

Filename C:\My Documents\My FLAC\VA - 50 Of The Most Loved Records Of Your Life (2CD) (1984) [FLAC]\Disc 2\13 - The Ames Brothers with Hugo Winterhalter & His Orchestra - You, You, You.wav

Pre-gap length 0:00:02.62

Peak level 65.7 %
Extraction speed 2.3 X
Track quality 99.9 %
Test CRC C2D55129
Copy CRC C2D55129
Cannot be verified as accurate (confidence 5) [68CACD7B], AccurateRip returned [9230991D] (AR v2)
Copy OK

Track 14

Filename C:\My Documents\My FLAC\VA - 50 Of The Most Loved Records Of Your Life (2CD) (1984) [FLAC]\Disc 2\14 - Johnny Mathis - Chances Are.wav

Pre-gap length 0:00:02.63

Peak level 49.4 %
Extraction speed 2.5 X
Track quality 100.0 %
Test CRC 02AC9419
Copy CRC 02AC9419
Cannot be verified as accurate (confidence 5) [C9523695], AccurateRip returned [0B81A9D6] (AR v2)
Copy OK

Track 15

Filename C:\My Documents\My FLAC\VA - 50 Of The Most Loved Records Of Your Life (2CD) (1984) [FLAC]\Disc 2\15 - Bobby Vinton - Roses Are Red (My Love).wav

Pre-gap length 0:00:02.62

Peak level 54.4 %
Extraction speed 2.9 X
Track quality 100.0 %
Test CRC 6513FF6C
Copy CRC 6513FF6C
Cannot be verified as accurate (confidence 5) [8201EE94], AccurateRip returned [E79F0F81] (AR v2)
Copy OK

Track 16

Filename C:\My Documents\My FLAC\VA - 50 Of The Most Loved Records Of Your Life (2CD) (1984) [FLAC]\Disc 2\16 - Jim Reeves - He'll Have To Go.wav

Pre-gap length 0:00:02.63

Peak level 50.9 %
Extraction speed 2.9 X
Track quality 100.0 %
Test CRC 7D154AFB
Copy CRC 7D154AFB
Cannot be verified as accurate (confidence 5) [1AC1C05E], AccurateRip returned [9ACD0CE7] (AR v2)
Copy OK

Track 17

Filename C:\My Documents\My FLAC\VA - 50 Of The Most Loved Records Of Your Life (2CD) (1984) [FLAC]\Disc 2\17 - Jane Morgan - Fascination.wav

Pre-gap length 0:00:02.62

Peak level 53.4 %
Extraction speed 2.9 X
Track quality 100.0 %
Test CRC CC737293
Copy CRC CC737293
Cannot be verified as accurate (confidence 5) [3B91D37C], AccurateRip returned [2FBB9021] (AR v2)
Copy OK

Track 18

Filename C:\My Documents\My FLAC\VA - 50 Of The Most Loved Records Of Your Life (2CD) (1984) [FLAC]\Disc 2\18 - Tony Bennett - Because Of You.wav

Pre-gap length 0:00:02.62

Peak level 61.9 %
Extraction speed 2.8 X
Track quality 100.0 %
Test CRC 043C1201
Copy CRC 043C1201
Cannot be verified as accurate (confidence 5) [3FCF1551], AccurateRip returned [17E73CF1] (AR v2)
Copy OK

Track 19

Filename C:\My Documents\My FLAC\VA - 50 Of The Most Loved Records Of Your Life (2CD) (1984) [FLAC]\Disc 2\19 - The Three Suns - Twilight Time.wav

Pre-gap length 0:00:02.62

Peak level 54.9 %
Extraction speed 3.0 X
Track quality 99.9 %
Test CRC D4A746BD
Copy CRC D4A746BD
Cannot be verified as accurate (confidence 5) [10D5BBCC], AccurateRip returned [30B7D6A5] (AR v2)
Copy OK

Track 20

Filename C:\My Documents\My FLAC\VA - 50 Of The Most Loved Records Of Your Life (2CD) (1984) [FLAC]\Disc 2\20 - Jo Stafford - You Belong To Me.wav

Pre-gap length 0:00:02.62

Peak level 60.5 %
Extraction speed 3.3 X
Track quality 100.0 %
Test CRC 7CDC6FB8
Copy CRC 7CDC6FB8
Cannot be verified as accurate (confidence 5) [616E5481], AccurateRip returned [CF5EEE81] (AR v2)
Copy OK

Track 21

Filename C:\My Documents\My FLAC\VA - 50 Of The Most Loved Records Of Your Life (2CD) (1984) [FLAC]\Disc 2\21 - Brook Benton - It's Just A Matter Of Time.wav

Pre-gap length 0:00:02.62

Peak level 67.7 %
Extraction speed 3.1 X
Track quality 100.0 %
Test CRC 619029C1
Copy CRC 619029C1
Cannot be verified as accurate (confidence 5) [96A909CC], AccurateRip returned [5102B9A1] (AR v2)
Copy OK

Track 22

Filename C:\My Documents\My FLAC\VA - 50 Of The Most Loved Records Of Your Life (2CD) (1984) [FLAC]\Disc 2\22 - Vic Damone - You're Breaking My Heart.wav

Pre-gap length 0:00:02.62

Peak level 63.0 %
Extraction speed 3.0 X
Track quality 99.9 %
Test CRC 369DEECD
Copy CRC 369DEECD
Cannot be verified as accurate (confidence 5) [52230EDA], AccurateRip returned [0DE4454B] (AR v2)
Copy OK

Track 23

Filename C:\My Documents\My FLAC\VA - 50 Of The Most Loved Records Of Your Life (2CD) (1984) [FLAC]\Disc 2\23 - Billy Eckstine - Everthing I Have Is Yours.wav

Pre-gap length 0:00:02.63

Peak level 65.6 %
Extraction speed 3.5 X
Track quality 100.0 %
Test CRC D4EA7C38
Copy CRC D4EA7C38
Cannot be verified as accurate (confidence 5) [EB7202CA], AccurateRip returned [520A6875] (AR v2)
Copy OK

Track 24

Filename C:\My Documents\My FLAC\VA - 50 Of The Most Loved Records Of Your Life (2CD) (1984) [FLAC]\Disc 2\24 - Roger Williams - Autumn Leaves.wav

Pre-gap length 0:00:02.63

Peak level 79.3 %
Extraction speed 3.7 X
Track quality 100.0 %
Test CRC 0B121EC0
Copy CRC 0B121EC0
Cannot be verified as accurate (confidence 5) [B492A560], AccurateRip returned [3690F824] (AR v2)
Copy OK

Track 25

Filename C:\My Documents\My FLAC\VA - 50 Of The Most Loved Records Of Your Life (2CD) (1984) [FLAC]\Disc 2\25 - Gordon Jenkins - Goodnight Irene.wav

Pre-gap length 0:00:02.62

Peak level 79.8 %
Extraction speed 3.8 X
Track quality 100.0 %
Test CRC FF933590
Copy CRC FF933590
Cannot be verified as accurate (confidence 5) [FB7DCACF], AccurateRip returned [FA0964E2] (AR v2)
Copy OK


No tracks could be verified as accurate
You may have a different pressing from the one(s) in the database

No errors occurred

End of status report

–– CUETools DB Plugin V2.1.6

[CTDB TOCID: Ln_tw5_xjAnpuzmVSlqyZnlWAO0-] found
Submit result: Ln_tw5_xjAnpuzmVSlqyZnlWAO0- has been confirmed
Track | CTDB Status
1 | (8/8) Accurately ripped
2 | (8/8) Accurately ripped
3 | (8/8) Accurately ripped
4 | (8/8) Accurately ripped
5 | (8/8) Accurately ripped
6 | (8/8) Accurately ripped
7 | (8/8) Accurately ripped
8 | (8/8) Accurately ripped
9 | (8/8) Accurately ripped
10 | (8/8) Accurately ripped
11 | (8/8) Accurately ripped
12 | (8/8) Accurately ripped
13 | (8/8) Accurately ripped
14 | (8/8) Accurately ripped
15 | (8/8) Accurately ripped
16 | (8/8) Accurately ripped
17 | (8/8) Accurately ripped
18 | (8/8) Accurately ripped
19 | (8/8) Accurately ripped
20 | (8/8) Accurately ripped
21 | (8/8) Accurately ripped
22 | (8/8) Accurately ripped
23 | (8/8) Accurately ripped
24 | (8/8) Accurately ripped
25 | (8/8) Accurately ripped


==== Log checksum 745C03061CDA2292D7524C2038D3FA31B8ABD3E46F45978C5AC3FBF8B7C6649E ====
NITROFLARE (FLAC)
NITROFLARE (MP3)