Subcategories

Sara Evans - Born To Fly (2000) **[RE-UP]**

Posted By: TestTickles
Sara Evans - Born To Fly (2000) **[RE-UP]**

Sara Evans - Born To Fly (2000)
EAC Rip | FLAC with CUE and log | scans | 391 mb
MP3 CBR 320kbps | RAR | 148 mb
Genre: country

Born To Fly is the 2000 CD by country singer Sara Evans. Released on 10 October, 2000, this is her third full length album that featured the hit songs "I Keep Looking", "Saints & Angels", "I Could Not Ask For More" and the title track.
The third time's a charm for the delightful Sara Evans. Bound to make her a household name, Born to Fly is, simply put, a great album. Whether it's her new mom status, or the fact that she co-produced for the first time and had a hand in writing six of the album's 11 enjoyable songs, Evans' confidence radiates in each and every song, from the playful title track "Born to Fly" to the unbreakable spirit of "I Learned That From You" about a love gone wrong even though they tried to make it work. She puts her own spin on distinguished renditions of Edwin McCain's "I Could Not Ask for More" and Bruce Hornsby's "Every Little Kiss." What must have added to her confidence was having her family (sister Ashley, sister Lesley, sister-in-law Melody) sing background vocals on some songs and brother Matt playing bass. Sara Evans has found herself musically and entertains country fans with an album they can be proud of.

Sara Evans - Born To Fly (2000) **[RE-UP]**

01. Born To Fly
02. Saints & Angels
03. I Could Not Ask For More
04. I Keep Looking
05. I Learned That From You
06. Let's Dance
07. Why Should I Care
08. Four-Thirty
09. Show Me The Way To Your Heart
10. You Don't
11. Every Little Kiss

–-
Sara Evans-vocals, background vocals
Paul Worley-acoustic, electric & 12-string guitars, 6-string bass
Timothy J. Lauer-accordion
Dan Dugmore-acoustic & steel guitars
Randy Scruggs-acoustic guitar, banjo
Biff Watson-acoustic guitar, bouzouki, mandolin
Marcus Hummon-acoustic guitar
Robbie Turner-steel guitars
Jerry Douglas-dobro
Aubrey Haynie-fiddle
Jonathan Yudkin-Fiddle, mandolin
Steve Nathan-piano, Fender Rhodes piano, Hammond B-3 organ, synthesizer
Bruce Hornsby-Wurlitzer, piano
Glenn Worf-bass
Matt Chamberlain-drums
Ricky Scaggs, Troy Johnson, Wes Hightower, Lesley Evans Lyons, Ashley Evans Simpson, Melody Schelske-background vocals

Produced by Sara Evans and Paul Worley

EAC extraction logfile from 29. August 2006, 13:00 for CD
Sara Evans / Born To Fly

Used drive : LITE-ON DVDRW SOHW-1633S Adapter: 0 ID: 0
Read mode : Secure with NO C2, accurate stream, disable cache
Read offset correction : 12
Overread into Lead-In and Lead-Out : No

Used output format : Internal WAV Routines
44.100 Hz; 16 Bit; Stereo

Other options :
Fill up missing offset samples with silence : Yes
Delete leading and trailing silent blocks : No
Installed external ASPI interface


Track 1
Filename D:\FLAC\Sara Evans - Born To Fly (2000) [FLAC]\01 - Born To Fly.wav

Pre-gap length 0:00:02.00

Peak level 90.5 %
Track quality 100.0 %
Test CRC 7909FBA3
Copy CRC 7909FBA3
Copy OK

Track 2
Filename D:\FLAC\Sara Evans - Born To Fly (2000) [FLAC]\02 - Saints & Angels.wav

Peak level 90.5 %
Track quality 99.9 %
Test CRC 24AB7115
Copy CRC 24AB7115
Copy OK

Track 3
Filename D:\FLAC\Sara Evans - Born To Fly (2000) [FLAC]\03 - I Could Not Ask For More.wav

Pre-gap length 0:00:01.02

Peak level 90.5 %
Track quality 100.0 %
Test CRC 970A522D
Copy CRC 970A522D
Copy OK

Track 4
Filename D:\FLAC\Sara Evans - Born To Fly (2000) [FLAC]\04 - I Keep Looking.wav

Pre-gap length 0:00:01.33

Peak level 88.1 %
Track quality 100.0 %
Test CRC 6B350836
Copy CRC 6B350836
Copy OK

Track 5
Filename D:\FLAC\Sara Evans - Born To Fly (2000) [FLAC]\05 - I Learned That From You.wav

Peak level 90.5 %
Track quality 100.0 %
Test CRC A15D1DC8
Copy CRC A15D1DC8
Copy OK

Track 6
Filename D:\FLAC\Sara Evans - Born To Fly (2000) [FLAC]\06 - Let's Dance.wav

Peak level 90.5 %
Track quality 100.0 %
Test CRC 5FC57CFD
Copy CRC 5FC57CFD
Copy OK

Track 7
Filename D:\FLAC\Sara Evans - Born To Fly (2000) [FLAC]\07 - Why Should I Care.wav

Peak level 90.5 %
Track quality 99.9 %
Test CRC E11A8B87
Copy CRC E11A8B87
Copy OK

Track 8
Filename D:\FLAC\Sara Evans - Born To Fly (2000) [FLAC]\08 - Four-Thirty.wav

Peak level 90.5 %
Track quality 100.0 %
Test CRC 4650616B
Copy CRC 4650616B
Copy OK

Track 9
Filename D:\FLAC\Sara Evans - Born To Fly (2000) [FLAC]\09 - Show Me The Way To Your Heart.wav

Peak level 90.5 %
Track quality 99.9 %
Test CRC 56D76EDD
Copy CRC 56D76EDD
Copy OK

Track 10
Filename D:\FLAC\Sara Evans - Born To Fly (2000) [FLAC]\10 - You Don't.wav

Peak level 84.0 %
Track quality 100.0 %
Test CRC 72D57FA6
Copy CRC 72D57FA6
Copy OK

Track 11
Filename D:\FLAC\Sara Evans - Born To Fly (2000) [FLAC]\11 - Every Little Kiss.wav

Peak level 90.5 %
Track quality 100.0 %
Test CRC 066485B0
Copy CRC 066485B0
Copy OK

No errors occured


End of status report


Sara Evans - Born To Fly (2000) **[RE-UP]**


Check out other titles in my Avaxhome blog