Subcategories

VA - Saturday Night Fish Fry (2001) {Soul Jazz} **[RE-UP]**

Posted By: TestTickles
VA - Saturday Night Fish Fry (2001) {Soul Jazz} **[RE-UP]**

VA - Saturday Night Fish Fry (2001) {Soul Jazz}
EAC Rip | FLAC with CUE and log | scans | 324 mb
MP3 CBR 320kbps | RAR | 205mb
Genre: soul, R&B, funk

Saturday Night Fish Fry is a compilation CD on Soul Jazz Records released in 2001 that explored "New Orleans Funk & Soul". Most of the artists have one song each while Betty Harris and Eldridge Holmes have two songs each. It's a small hint of the glorious music the Crescent City has had to offer.

VA - Saturday Night Fish Fry (2001) {Soul Jazz} **[RE-UP]**

1. Roger & The Gypsies - Pass the Hatchet (2:55)
2. Betty Harris - Mean Man (2:39)
3. The Dixie Cups - Iko Iko (2:03)
4. David R. Batiste, Jr. - Funky Soul (1:57)
5. Edlridge Holmes - Where Is Love (1:42)
6. Lee Dorsey - Give It Up (3:05)
7. Salt - Hung Up (2:13)
8. Huey Piano Smith - Little Liza Jane (2:09)
9. Eddie Bo - The Thang, Pt. 2 (3:00)
10. The Wild Magnolias - Soul, Soul, Soul (The Wild Magnolias) (6:11)
11. Bobby & The Heavyweights - Soul Train (3:06)
12. Betty Harris - Break in the Road (2:49)
13. Eldridge Holmes - Hump Back (1:58)
14. The Meters - Message from the Meters (2:41)
15. Dr. John - Gris Gris Gumbo Ya Ya (5:33)
16. Irma Thomas - Don't Mess With My Man (2:20)
17. The Gaturs - Cold Bear (2:50)
18. Oliver Morgan - Roll Call (2:49)
19. Inell Young - The Next Ball Game (2:08)
20. Lee Dorsey - Yes We Can Can (3:28)
21. Irma Thomas - Ruler of My Heart (2:35)
22. Smokey Johnson - I Can't Help It (2:24)

EAC Extraction Logfile From 23. February 2006, 10:08 For CD
Various / Saturday Night Fish Fry

Used Drive : LITE-ON DVDRW SOHW-1633S Adapter: 0 ID: 0
Read Mode : Secure With NO C2, Accurate Stream, Disable Cache
Read Offset Correction : 12
Overread Into Lead-In And Lead-Out : No

Used Output Format : Internal WAV Routines
44.100 Hz; 16 Bit; Stereo

Other Options :
Fill Up Missing Offset Samples With Silence : Yes
Delete Leading And Trailing Silent Blocks : No
Installed External ASPI Interface


Track 1
Filename D:\FLAC\VA - Saturday Night Fish Fry (2001) [FLAC] {Soul Jazz}\01 - Roger And The Gypsies - Pass The Hatchet.wav

Pre-gap Length 0:00:02.00

Peak Level 97.7 %
Track Quality 99.9 %
Test CRC 8A5D72B3
Copy CRC 8A5D72B3
Copy OK

Track 2
Filename D:\FLAC\VA - Saturday Night Fish Fry (2001) [FLAC] {Soul Jazz}\02 - Betty Harris - Mean Man.wav

Pre-gap Length 0:00:01.94

Peak Level 96.2 %
Track Quality 100.0 %
Test CRC CBB627B6
Copy CRC CBB627B6
Copy OK

Track 3
Filename D:\FLAC\VA - Saturday Night Fish Fry (2001) [FLAC] {Soul Jazz}\03 - The Dixie Cups - Iko Iko.wav

Pre-gap Length 0:00:00.58

Peak Level 89.0 %
Track Quality 100.0 %
Test CRC F6BCFF85
Copy CRC F6BCFF85
Copy OK

Track 4
Filename D:\FLAC\VA - Saturday Night Fish Fry (2001) [FLAC] {Soul Jazz}\04 - David Batiste & The Gladiators - Funky Soul.wav

Pre-gap Length 0:00:01.38

Peak Level 98.8 %
Track Quality 99.9 %
Test CRC 1B3145DD
Copy CRC 1B3145DD
Copy OK

Track 5
Filename D:\FLAC\VA - Saturday Night Fish Fry (2001) [FLAC] {Soul Jazz}\05 - Eldridge Holmes - Where Is Love.wav

Pre-gap Length 0:00:02.41

Peak Level 95.8 %
Track Quality 100.0 %
Test CRC 9AC0B21A
Copy CRC 9AC0B21A
Copy OK

Track 6
Filename D:\FLAC\VA - Saturday Night Fish Fry (2001) [FLAC] {Soul Jazz}\06 - Lee Dorsey - Give It Up.wav

Pre-gap Length 0:00:01.65

Peak Level 100.0 %
Track Quality 100.0 %
Test CRC 82B307AA
Copy CRC 82B307AA
Copy OK

Track 7
Filename D:\FLAC\VA - Saturday Night Fish Fry (2001) [FLAC] {Soul Jazz}\07 - Salt - Hung Up.wav

Pre-gap Length 0:00:01.78

Peak Level 94.8 %
Track Quality 100.0 %
Test CRC 512532A0
Copy CRC 512532A0
Copy OK

Track 8
Filename D:\FLAC\VA - Saturday Night Fish Fry (2001) [FLAC] {Soul Jazz}\08 - Huey Piano Smith - Little Liza Jane.wav

Peak Level 97.7 %
Track Quality 100.0 %
Test CRC 5876296A
Copy CRC 5876296A
Copy OK

Track 9
Filename D:\FLAC\VA - Saturday Night Fish Fry (2001) [FLAC] {Soul Jazz}\09 - Eddie Bo & The Soul Finders - We're Doing It (the Thang) (part 2).wav

Pre-gap Length 0:00:00.89

Peak Level 94.9 %
Track Quality 100.0 %
Test CRC C199131B
Copy CRC C199131B
Copy OK

Track 10
Filename D:\FLAC\VA - Saturday Night Fish Fry (2001) [FLAC] {Soul Jazz}\10 - The Wild Magnolias - Soul, Soul, Soul.wav

Pre-gap Length 0:00:01.97

Peak Level 99.7 %
Track Quality 100.0 %
Test CRC DC6F04F6
Copy CRC DC6F04F6
Copy OK

Track 11
Filename D:\FLAC\VA - Saturday Night Fish Fry (2001) [FLAC] {Soul Jazz}\11 - Bobby And The Heavyweights - Soul Train.wav

Pre-gap Length 0:00:02.01

Peak Level 100.0 %
Track Quality 100.0 %
Test CRC 07221EE3
Copy CRC 07221EE3
Copy OK

Track 12
Filename D:\FLAC\VA - Saturday Night Fish Fry (2001) [FLAC] {Soul Jazz}\12 - Betty Harris - Break In The Road.wav

Pre-gap Length 0:00:02.18

Peak Level 92.2 %
Track Quality 100.0 %
Test CRC 2262311A
Copy CRC 2262311A
Copy OK

Track 13
Filename D:\FLAC\VA - Saturday Night Fish Fry (2001) [FLAC] {Soul Jazz}\13 - Eldridge Holmes - Hump Back.wav

Pre-gap Length 0:00:02.01

Peak Level 97.7 %
Track Quality 100.0 %
Test CRC 49B44240
Copy CRC 49B44240
Copy OK

Track 14
Filename D:\FLAC\VA - Saturday Night Fish Fry (2001) [FLAC] {Soul Jazz}\14 - The Meters - Message From The Meters.wav

Pre-gap Length 0:00:01.98

Peak Level 97.7 %
Track Quality 100.0 %
Test CRC AE0C8312
Copy CRC AE0C8312
Copy OK

Track 15
Filename D:\FLAC\VA - Saturday Night Fish Fry (2001) [FLAC] {Soul Jazz}\15 - Dr John - Gris Gris Gumbo Ya Ya.wav

Pre-gap Length 0:00:00.96

Peak Level 92.2 %
Track Quality 100.0 %
Test CRC 85FBE270
Copy CRC 85FBE270
Copy OK

Track 16
Filename D:\FLAC\VA - Saturday Night Fish Fry (2001) [FLAC] {Soul Jazz}\16 - Irma Thomas - Don't Mess With My Man.wav

Pre-gap Length 0:00:01.85

Peak Level 94.4 %
Track Quality 100.0 %
Test CRC 70C7B4B4
Copy CRC 70C7B4B4
Copy OK

Track 17
Filename D:\FLAC\VA - Saturday Night Fish Fry (2001) [FLAC] {Soul Jazz}\17 - The Gaturs - Cold Bear.wav
Pre-gap Length 0:00:01.26

Peak Level 90.7 %
Track Quality 100.0 %
Test CRC 18160158
Copy CRC 18160158
Copy OK

Track 18
Filename D:\FLAC\VA - Saturday Night Fish Fry (2001) [FLAC] {Soul Jazz}\18 - Oliver Morgan - Roll Call.wav

Pre-gap Length 0:00:02.13

Peak Level 94.2 %
Track Quality 99.9 %
Test CRC 55A72FE3
Copy CRC 55A72FE3
Copy OK

Track 19
Filename D:\FLAC\VA - Saturday Night Fish Fry (2001) [FLAC] {Soul Jazz}\19 - Inell Young - The Next Ball Game.wav

Pre-gap Length 0:00:01.96

Peak Level 99.9 %
Track Quality 100.0 %
Test CRC DCA012DA
Copy CRC DCA012DA
Copy OK

Track 20
Filename D:\FLAC\VA - Saturday Night Fish Fry (2001) [FLAC] {Soul Jazz}\20 - Lee Dorsey - Yes We Can Can.wav

Pre-gap Length 0:00:01.18

Peak Level 90.1 %
Track Quality 100.0 %
Test CRC A37EEEE8
Copy CRC A37EEEE8
Copy OK

Track 21
Filename D:\FLAC\VA - Saturday Night Fish Fry (2001) [FLAC] {Soul Jazz}\21 - Irma Thomas - Ruler Of My Heart.wav

Pre-gap Length 0:00:02.22

Peak Level 87.6 %
Track Quality 100.0 %
Test CRC F63E8053
Copy CRC F63E8053
Copy OK

Track 22
Filename D:\FLAC\VA - Saturday Night Fish Fry (2001) [FLAC] {Soul Jazz}\22 - Smokey Johnson - I Can't Help It.wav

Pre-gap Length 0:00:01.50

Peak Level 96.2 %
Track Quality 100.0 %
Test CRC 9BA4CE03
Copy CRC 9BA4CE03
Copy OK

No Errors Occured


End Of Status Report



VA - Saturday Night Fish Fry (2001) {Soul Jazz} **[RE-UP]**