Subcategories

Scott Earl Holman Trio - Don't Wake The Kids (2007)

Posted By: TestTickles
Scott Earl Holman Trio - Don't Wake The Kids (2007)

Scott Earl Holman Trio - Don't Wake The Kids (2007)
EAC Rip | FLAC with CUE and log | scans | 284 mb
MP3 CBR 320kbps | RAR | 133 mb
Genre: jazz

Don't Wake The Kids is the 2007 album by the Scott Earl Holman Trio. This was released by Crumblehead Records.

Scott Earl Holman Trio - Don't Wake The Kids (2007)

01. The Lord's Cause
02. Intro
03. Noble One
04. Intro
05. His Children Dance
06. The Thought
07. Marching In His Band
08. Waiting To See
09. The Smile
10. Intro
11. The Face Of God

Scott Earl Holman-piano
Pawel Jarzebski-acoustic bass
Rusty Jones-drums

Produced by Scott Earl Holman
Recordeing & mixing engineer: Joanie Pallatto
Mastered by Steve Yates

Scott Earl Holman Trio - Don't Wake The Kids (2007)


Exact Audio Copy V1.0 beta 6 from 9. April 2015

EAC extraction logfile from 22. November 2017, 11:07

Scott Earl Holman Trio / Don't Wake The Kids

Used drive : TSSTcorpDVD+-RW TS-L633C Adapter: 1 ID: 0

Read mode : Burst

Read offset correction : 6
Overread into Lead-In and Lead-Out : No
Fill up missing offset samples with silence : Yes
Delete leading and trailing silent blocks : No
Null samples used in CRC calculations : Yes
Used interface : Native Win32 interface for Win NT & 2000
Gap handling : Appended to previous track

Used output format : Internal WAV Routines
Sample format : 44.100 Hz; 16 Bit; Stereo


TOC of the extracted CD

Track | Start | Length | Start sector | End sector
––––––––––––––––––––––––––––-
1 | 0:00.00 | 9:44.37 | 0 | 43836
2 | 9:44.37 | 0:28.39 | 43837 | 45975
3 | 10:13.01 | 5:51.54 | 45976 | 72354
4 | 16:04.55 | 1:15.44 | 72355 | 78023
5 | 17:20.24 | 7:29.32 | 78024 | 111730
6 | 24:49.56 | 3:53.66 | 111731 | 129271
7 | 28:43.47 | 10:12.00 | 129272 | 175171
8 | 38:55.47 | 2:50.33 | 175172 | 187954
9 | 41:46.05 | 2:11.12 | 187955 | 197791
10 | 43:57.17 | 1:39.01 | 197792 | 205217
11 | 45:36.18 | 9:07.25 | 205218 | 246267


Track 1

Filename C:\My Documents\My FLAC\Scott Earl Holman Trio - Don't Wake The Kids (2007) [FLAC]\01 - The Lord's Cause.wav

Pre-gap length 0:00:02.00

Peak level 94.4 %
Extraction speed 10.6 X
Test CRC DF10D282
Copy CRC DF10D282
Accurately ripped (confidence 1) [05DDB8DD] (AR v2)
Copy OK

Track 2

Filename C:\My Documents\My FLAC\Scott Earl Holman Trio - Don't Wake The Kids (2007) [FLAC]\02 - Intro.wav

Pre-gap length 0:00:02.00

Peak level 23.2 %
Extraction speed 11.5 X
Test CRC A47620EF
Copy CRC A47620EF
Accurately ripped (confidence 1) [17486B35] (AR v2)
Copy OK

Track 3

Filename C:\My Documents\My FLAC\Scott Earl Holman Trio - Don't Wake The Kids (2007) [FLAC]\03 - Noble One.wav

Peak level 96.6 %
Extraction speed 12.6 X
Test CRC BDE4B326
Copy CRC BDE4B326
Accurately ripped (confidence 1) [77491070] (AR v2)
Copy OK

Track 4

Filename C:\My Documents\My FLAC\Scott Earl Holman Trio - Don't Wake The Kids (2007) [FLAC]\04 - Intro.wav

Pre-gap length 0:00:02.00

Peak level 96.6 %
Extraction speed 13.3 X
Test CRC B7441EA5
Copy CRC B7441EA5
Accurately ripped (confidence 1) [7526C633] (AR v2)
Copy OK

Track 5

Filename C:\My Documents\My FLAC\Scott Earl Holman Trio - Don't Wake The Kids (2007) [FLAC]\05 - His Children Dance.wav

Peak level 96.7 %
Extraction speed 14.3 X
Test CRC E62EA51E
Copy CRC E62EA51E
Accurately ripped (confidence 1) [3E47D34A] (AR v2)
Copy OK

Track 6

Filename C:\My Documents\My FLAC\Scott Earl Holman Trio - Don't Wake The Kids (2007) [FLAC]\06 - The Thought.wav

Pre-gap length 0:00:02.00

Peak level 90.7 %
Extraction speed 15.4 X
Test CRC FBE88554
Copy CRC FBE88554
Accurately ripped (confidence 1) [3031A0B1] (AR v2)
Copy OK

Track 7

Filename C:\My Documents\My FLAC\Scott Earl Holman Trio - Don't Wake The Kids (2007) [FLAC]\07 - Marching In His Band.wav

Pre-gap length 0:00:02.00

Peak level 97.6 %
Extraction speed 16.7 X
Test CRC FD80551C
Copy CRC FD80551C
Accurately ripped (confidence 1) [43054388] (AR v2)
Copy OK

Track 8

Filename C:\My Documents\My FLAC\Scott Earl Holman Trio - Don't Wake The Kids (2007) [FLAC]\08 - Waiting To See.wav

Pre-gap length 0:00:02.00

Peak level 90.5 %
Extraction speed 17.7 X
Test CRC 7555E56F
Copy CRC 7555E56F
Accurately ripped (confidence 1) [BF7D9A6B] (AR v2)
Copy OK

Track 9

Filename C:\My Documents\My FLAC\Scott Earl Holman Trio - Don't Wake The Kids (2007) [FLAC]\09 - The Smile.wav

Pre-gap length 0:00:02.00

Peak level 71.0 %
Extraction speed 18.1 X
Test CRC 4F2E9A98
Copy CRC 4F2E9A98
Accurately ripped (confidence 1) [45996E4E] (AR v2)
Copy OK

Track 10

Filename C:\My Documents\My FLAC\Scott Earl Holman Trio - Don't Wake The Kids (2007) [FLAC]\10 - Intro.wav

Pre-gap length 0:00:02.00

Peak level 85.8 %
Extraction speed 18.3 X
Test CRC B28F0C24
Copy CRC B28F0C24
Accurately ripped (confidence 1) [735FF122] (AR v2)
Copy OK

Track 11

Filename C:\My Documents\My FLAC\Scott Earl Holman Trio - Don't Wake The Kids (2007) [FLAC]\11 - The Face Of God.wav

Peak level 89.0 %
Extraction speed 19.3 X
Test CRC 5EFFD912
Copy CRC 5EFFD912
Accurately ripped (confidence 1) [A6BBBDD6] (AR v2)
Copy OK


All tracks accurately ripped

No errors occurred

End of status report

–– CUETools DB Plugin V2.1.6

[CTDB TOCID: yzEAOIVQKH5YccBjfkY_2WySenM-] disk not present in database
Submit result: yzEAOIVQKH5YccBjfkY_2WySenM- has been uploaded


==== Log checksum 7169D6B882E8FE21FD56EB3C8FD7251B465989D507913BAB73642EA6DBDE5690 ====


Scott Earl Holman Trio - Don't Wake The Kids (2007)