Subcategories

Stan Getz/Kenny Barron - People Time (2CD) (1992) {Verve}

Posted By: TestTickles
Stan Getz/Kenny Barron - People Time (2CD) (1992) {Verve}

Stan Getz/Kenny Barron - People Time (2CD) (1992) {Verve}
EAC Rip | FLAC with CUE and log | scans | 520 mb
MP3 CBR 320kbps | RAR | 291 mb
Genre: jazz

People Time is the 1992 collaborative album between Stan Getz and Kenny Barron. It was recorded in Copenhagen in 1991 at a cafe, just Getz on saxophone and Barron on piano. This is a Gitanes Jazz project, released through Verve Records.

Stan Getz/Kenny Barron - People Time (2CD) (1992) {Verve}

DISC 1
1. East Of The Sun (And West Of The Moon)
2. Night And Day
3. I'm Okay
4. Like Someone In Love
5. Stablemates
6. I Remember Clifford
7. Gone With The Wind

DISC 2
1. First Song (For Ruth)
2. (There Is) No Greater Love
3. The Surrey With The Fringe On Top
4. People Time
5. Softly, As In A Morning Sunrise
6. Hush-A-Bye
7. Soul Eyes

Stan Getz-tenor saxophone
Kenny Barron-piano

Produced by Jean-Philippe Allard
Digitally recorded live on 3-6 March, 1991 at the Cafe Montmartre, Copenhagen
Recorded and mixing engineer: Johnnie Hjerting
Mastered by Dave Collins

Stan Getz/Kenny Barron - People Time (2CD) (1992) {Verve}


Exact Audio Copy V1.0 beta 6 from 9. April 2015

EAC extraction logfile from 30. December 2017, 13:19

Stan Getz/Kenny Barron / People Time (Disc 1)

Used drive : TSSTcorpDVD+-RW TS-L633C Adapter: 1 ID: 0

Read mode : Secure
Utilize accurate stream : Yes
Defeat audio cache : Yes
Make use of C2 pointers : No

Read offset correction : 6
Overread into Lead-In and Lead-Out : No
Fill up missing offset samples with silence : Yes
Delete leading and trailing silent blocks : No
Null samples used in CRC calculations : Yes
Used interface : Native Win32 interface for Win NT & 2000
Gap handling : Appended to previous track

Used output format : Internal WAV Routines
Sample format : 44.100 Hz; 16 Bit; Stereo


TOC of the extracted CD

Track | Start | Length | Start sector | End sector
––––––––––––––––––––––––––––-
1 | 0:00.00 | 9:25.47 | 0 | 42421
2 | 9:25.47 | 8:19.68 | 42422 | 79914
3 | 17:45.40 | 5:24.17 | 79915 | 104231
4 | 23:09.57 | 8:04.25 | 104232 | 140556
5 | 31:14.07 | 8:48.63 | 140557 | 180219
6 | 40:02.70 | 9:08.07 | 180220 | 221326
7 | 49:11.02 | 7:11.25 | 221327 | 253676


Track 1

Filename C:\My Documents\My FLAC\Stan Getz, Kenny Barron - People Time (2CD) (1992) [FLAC] {Verve}\Disc 1\01 - East Of The Sun (And West Of The Moon ).wav

Pre-gap length 0:00:02.00

Peak level 79.2 %
Extraction speed 1.5 X
Track quality 100.0 %
Test CRC 3F5F0EF3
Copy CRC 3F5F0EF3
Cannot be verified as accurate (confidence 34) [49507901], AccurateRip returned [84483888] (AR v2)
Copy OK

Track 2

Filename C:\My Documents\My FLAC\Stan Getz, Kenny Barron - People Time (2CD) (1992) [FLAC] {Verve}\Disc 1\02 - Night And Day.wav

Peak level 81.2 %
Extraction speed 1.7 X
Track quality 100.0 %
Test CRC 17E7C733
Copy CRC 17E7C733
Cannot be verified as accurate (confidence 34) [F1A5B472], AccurateRip returned [F24012F6] (AR v2)
Copy OK

Track 3

Filename C:\My Documents\My FLAC\Stan Getz, Kenny Barron - People Time (2CD) (1992) [FLAC] {Verve}\Disc 1\03 - I'm Okay.wav

Peak level 78.3 %
Extraction speed 1.8 X
Track quality 100.0 %
Test CRC 8734DB08
Copy CRC 8734DB08
Cannot be verified as accurate (confidence 34) [B2511A2F], AccurateRip returned [37153A07] (AR v2)
Copy OK

Track 4

Filename C:\My Documents\My FLAC\Stan Getz, Kenny Barron - People Time (2CD) (1992) [FLAC] {Verve}\Disc 1\04 - Like Someone In Love.wav

Peak level 77.1 %
Extraction speed 2.0 X
Track quality 100.0 %
Test CRC 6CBC4E90
Copy CRC 6CBC4E90
Cannot be verified as accurate (confidence 34) [359E212D], AccurateRip returned [58A161E4] (AR v2)
Copy OK

Track 5

Filename C:\My Documents\My FLAC\Stan Getz, Kenny Barron - People Time (2CD) (1992) [FLAC] {Verve}\Disc 1\05 - Stablemates.wav

Pre-gap length 0:00:04.04

Peak level 80.3 %
Extraction speed 2.1 X
Track quality 99.9 %
Test CRC 08D67AA2
Copy CRC 08D67AA2
Cannot be verified as accurate (confidence 34) [0CE7FD6B], AccurateRip returned [DE3FF626] (AR v2)
Copy OK

Track 6

Filename C:\My Documents\My FLAC\Stan Getz, Kenny Barron - People Time (2CD) (1992) [FLAC] {Verve}\Disc 1\06 - I Remember Clifford.wav

Peak level 79.7 %
Extraction speed 2.3 X
Track quality 99.9 %
Test CRC EA671A7E
Copy CRC EA671A7E
Cannot be verified as accurate (confidence 33) [70443CE1], AccurateRip returned [D5A9C6BD] (AR v2)
Copy OK

Track 7

Filename C:\My Documents\My FLAC\Stan Getz, Kenny Barron - People Time (2CD) (1992) [FLAC] {Verve}\Disc 1\07 - Gone With The Wind.wav

Peak level 77.7 %
Extraction speed 2.5 X
Track quality 100.0 %
Test CRC 7868443E
Copy CRC 7868443E
Cannot be verified as accurate (confidence 33) [4A5AF0C2], AccurateRip returned [16828DAA] (AR v2)
Copy OK


No tracks could be verified as accurate
You may have a different pressing from the one(s) in the database

No errors occurred

End of status report

–– CUETools DB Plugin V2.1.6

[CTDB TOCID: awSj4HIw6fDwRAfNDG8IxXUPJ.o-] found
Submit result: awSj4HIw6fDwRAfNDG8IxXUPJ.o- has been confirmed
Track | CTDB Status
1 | ( 2/52) Accurately ripped
2 | ( 2/52) Accurately ripped
3 | ( 2/52) Accurately ripped
4 | ( 2/52) Accurately ripped
5 | ( 2/52) Accurately ripped
6 | ( 2/52) Accurately ripped
7 | ( 2/52) Accurately ripped


==== Log checksum E7CB8FB4B70671F6E4F8C3D6F6FEDC9E00D1273477AF38FC02A88A78CF7B1871 ====







Exact Audio Copy V1.0 beta 6 from 9. April 2015

EAC extraction logfile from 30. December 2017, 14:30

Stan Getz/Kenny Barron / People Time (Disc 2)

Used drive : TSSTcorpDVD+-RW TS-L633C Adapter: 1 ID: 0

Read mode : Secure
Utilize accurate stream : Yes
Defeat audio cache : Yes
Make use of C2 pointers : No

Read offset correction : 6
Overread into Lead-In and Lead-Out : No
Fill up missing offset samples with silence : Yes
Delete leading and trailing silent blocks : No
Null samples used in CRC calculations : Yes
Used interface : Native Win32 interface for Win NT & 2000
Gap handling : Appended to previous track

Used output format : Internal WAV Routines
Sample format : 44.100 Hz; 16 Bit; Stereo


TOC of the extracted CD

Track | Start | Length | Start sector | End sector
––––––––––––––––––––––––––––-
1 | 0:00.00 | 9:55.02 | 0 | 44626
2 | 9:55.02 | 8:35.05 | 44627 | 83256
3 | 18:30.07 | 9:22.50 | 83257 | 125456
4 | 27:52.57 | 6:21.60 | 125457 | 154091
5 | 34:14.42 | 7:54.05 | 154092 | 189646
6 | 42:08.47 | 9:31.03 | 189647 | 232474
7 | 51:39.50 | 7:32.32 | 232475 | 266406


Track 1

Filename C:\My Documents\My FLAC\Stan Getz, Kenny Barron - People Time (2CD) (1992) [FLAC] {Verve}\Disc 2\01 - First Song (For Ruth).wav

Pre-gap length 0:00:02.00

Peak level 88.4 %
Extraction speed 1.4 X
Track quality 100.0 %
Test CRC C88DB291
Copy CRC C88DB291
Cannot be verified as accurate (confidence 32) [A3DE64CA], AccurateRip returned [BDC11438] (AR v2)
Copy OK

Track 2

Filename C:\My Documents\My FLAC\Stan Getz, Kenny Barron - People Time (2CD) (1992) [FLAC] {Verve}\Disc 2\02 - (There Is) No Greater Love.wav

Peak level 94.4 %
Extraction speed 1.7 X
Track quality 100.0 %
Test CRC 480AF6AE
Copy CRC 480AF6AE
Cannot be verified as accurate (confidence 34) [2B6827D7], AccurateRip returned [C92224A9] (AR v2)
Copy OK

Track 3

Filename C:\My Documents\My FLAC\Stan Getz, Kenny Barron - People Time (2CD) (1992) [FLAC] {Verve}\Disc 2\03 - The Surrey With The Fringe On Top.wav

Peak level 89.8 %
Extraction speed 0.9 X
Track quality 100.0 %
Test CRC F6A419FE
Copy CRC F6A419FE
Cannot be verified as accurate (confidence 33) [150B0858], AccurateRip returned [3137BC31] (AR v2)
Copy OK

Track 4

Filename C:\My Documents\My FLAC\Stan Getz, Kenny Barron - People Time (2CD) (1992) [FLAC] {Verve}\Disc 2\04 - People Time.wav

Pre-gap length 0:00:02.05

Peak level 91.2 %
Extraction speed 1.9 X
Track quality 99.9 %
Test CRC A416BB39
Copy CRC A416BB39
Cannot be verified as accurate (confidence 34) [CE0F2340], AccurateRip returned [99C663B2] (AR v2)
Copy OK

Track 5

Filename C:\My Documents\My FLAC\Stan Getz, Kenny Barron - People Time (2CD) (1992) [FLAC] {Verve}\Disc 2\05 - Softly, As In A Morning Sunrise.wav

Peak level 89.7 %
Extraction speed 2.1 X
Track quality 99.9 %
Test CRC 87F881AC
Copy CRC 87F881AC
Cannot be verified as accurate (confidence 33) [083549E4], AccurateRip returned [55661ACE] (AR v2)
Copy OK

Track 6

Filename C:\My Documents\My FLAC\Stan Getz, Kenny Barron - People Time (2CD) (1992) [FLAC] {Verve}\Disc 2\06 - Hush-A-Bye.wav

Peak level 90.2 %
Extraction speed 2.3 X
Track quality 99.9 %
Test CRC 903D2454
Copy CRC 903D2454
Cannot be verified as accurate (confidence 34) [7F30D7B8], AccurateRip returned [3EF62849] (AR v2)
Copy OK

Track 7

Filename C:\My Documents\My FLAC\Stan Getz, Kenny Barron - People Time (2CD) (1992) [FLAC] {Verve}\Disc 2\07 - Soul Eyes.wav

Peak level 90.4 %
Extraction speed 2.6 X
Track quality 100.0 %
Test CRC 676BEED4
Copy CRC 676BEED4
Cannot be verified as accurate (confidence 34) [24F3D260], AccurateRip returned [17A8043F] (AR v2)
Copy OK


No tracks could be verified as accurate
You may have a different pressing from the one(s) in the database

No errors occurred

End of status report

–– CUETools DB Plugin V2.1.6

[CTDB TOCID: TiUPj9yjnTY2XU5LcrsJO335r8w-] found
Submit result: TiUPj9yjnTY2XU5LcrsJO335r8w- has been confirmed
Track | CTDB Status
1 | ( 2/57) Accurately ripped
2 | ( 2/57) Accurately ripped
3 | ( 2/57) Accurately ripped
4 | ( 2/57) Accurately ripped
5 | ( 2/57) Accurately ripped
6 | ( 2/57) Accurately ripped
7 | ( 2/57) Accurately ripped


==== Log checksum 7CDAF7F72CFC5B87DAF7543C843F1CF4970A07EC23CF4CFEC5EAE4D7308B0BE0 ====


Stan Getz/Kenny Barron - People Time (2CD) (1992) {Verve}