Subcategories

Supercar - Answer (2004) {Ki/oon}

Posted By: TestTickles
Supercar - Answer (2004) {Ki/oon}

Supercar - Answer (2004) {Ki/oon}
EAC Rip | FLAC with log | scans | 386 mb
MP3 CBR 320 kbps | RAR | 133 mb
Genre: indie rock, J-rock, shoegaze

Answer is the 2004 album by Japanese pop/rock band Supercar. This was released by Ki/oon.

Supercar - Answer (2004) {Ki/oon}

01. Free Hand
02. Justice Black
03. Sunshine Fairyland
04. Wonder Word
05. Bgm
06. Discord
07. Harmony
08. Recreation
09. Golden Master Key
10. The World Is Naked
11. Siren
12. Last Scene
13. Time

Exact Audio Copy V0.99 prebeta 5 from 4. May 2009

EAC extraction logfile from 26. December 2010, 10:54

Supercar / Answer

Used drive : Optiarc DVD RW AD-7203A Adapter: 0 ID: 0

Read mode : Secure
Utilize accurate stream : Yes
Defeat audio cache : Yes
Make use of C2 pointers : No

Read offset correction : 48
Overread into Lead-In and Lead-Out : Yes
Fill up missing offset samples with silence : Yes
Delete leading and trailing silent blocks : No
Null samples used in CRC calculations : Yes
Used interface : Native Win32 interface for Win NT & 2000

Used output format : Internal WAV Routines
Sample format : 44.100 Hz; 16 Bit; Stereo


TOC of the extracted CD

Track | Start | Length | Start sector | End sector
––––––––––––––––––––––––––––-
1 | 0:00.00 | 4:54.00 | 0 | 22049
2 | 4:54.00 | 2:54.00 | 22050 | 35099
3 | 7:48.00 | 2:43.00 | 35100 | 47324
4 | 10:31.00 | 3:38.70 | 47325 | 63744
5 | 14:09.70 | 4:38.01 | 63745 | 84595
6 | 18:47.71 | 4:06.08 | 84596 | 103053
7 | 22:54.04 | 2:52.00 | 103054 | 115953
8 | 25:46.04 | 4:57.01 | 115954 | 138229
9 | 30:43.05 | 5:40.01 | 138230 | 163730
10 | 36:23.06 | 5:10.33 | 163731 | 187013
11 | 41:33.39 | 8:25.01 | 187014 | 224889
12 | 49:58.40 | 4:39.01 | 224890 | 245815
13 | 54:37.41 | 5:16.17 | 245816 | 269532


Range status and errors

Selected range

Filename C:\cuntfist\Supercar - Answer (2004) [FLAC] {Ki,oon}\Supercar - Answer.wav

Suspicious position 0:59:53

Peak level 100.0 %
Range quality 99.9 %
Copy CRC F9FB4CC8
Copy finished

There were errors


AccurateRip summary

Track 1 not present in database
Track 2 not present in database
Track 3 not present in database
Track 4 not present in database
Track 5 not present in database
Track 6 not present in database
Track 7 not present in database
Track 8 not present in database
Track 9 not present in database
Track 10 not present in database
Track 11 not present in database
Track 12 not present in database
Track 13 not present in database

None of the tracks are present in the AccurateRip database

End of status report


Supercar - Answer (2004) {Ki/oon}


Thank you to the original uploader.