Subcategories

VA - Song For A Winter's Night (2006) {Sony/BMG} **[RE-UP]**

Posted By: TestTickles
VA - Song For A Winter's Night (2006) {Sony/BMG} **[RE-UP]**

VA - Song For A Winter's Night (2006) {Sony/BMG}
EAC Rip | FLAC with CUE and log | scans | 245 mb
MP3 CBR 320kbps | RAR | 118 mb
Genre: Christmas, pop, pop rock, R&B, soul, holiday

In some parts of our Planet Earth, the last day of winter is 19 March, 2016. Song For A Winter's Night honors the last night of winter. This compilation was released in 2006 through Sony Music and BMG, featuring songs relating to the holiday season along with cold chilling moments that are slowly fading away into the ever-present sunset, amen. It is a taste of the raisin of the new season.

VA - Song For A Winter's Night (2006) {Sony/BMG} **[RE-UP]**

01. Sarah McLachlan - Song For A Winter's Night
02. Gavin DeGraw - Have Yourself A Merry Little Christmas
03. Destiny's Child - Silent Night
04. Alicia Keys - Little Drummer Girl
05. The Raveonettes - The Christmas Song
06. Phanton Planet - Winter Wonderland
07. Pete Yorn - Do They Know It's Christmas
08. Rachael Yamagata - River
09. Carly Simon - Let It Snow! Let It Snow! Let It Snow!
10. Play - Sleigh Ride

Exact Audio Copy V1.1 from 23. June 2015

EAC extraction logfile from 18. March 2016, 9:28

Unknown Artist / Song For A Winter's Night

Used drive : TEAC DVD-ROM DV-28SW Adapter: 1 ID: 0

Read mode : Secure
Utilize accurate stream : Yes
Defeat audio cache : Yes
Make use of C2 pointers : No

Read offset correction : 6
Overread into Lead-In and Lead-Out : No
Fill up missing offset samples with silence : Yes
Delete leading and trailing silent blocks : No
Null samples used in CRC calculations : Yes
Used interface : Native Win32 interface for Win NT & 2000
Gap handling : Left out

Used output format : Internal WAV Routines
Sample format : 44.100 Hz; 16 Bit; Stereo


TOC of the extracted CD

Track | Start | Length | Start sector | End sector
––––––––––––––––––––––––––––-
1 | 0:00.00 | 3:47.21 | 0 | 17045
2 | 3:47.21 | 3:17.34 | 17046 | 31854
3 | 7:04.55 | 3:42.65 | 31855 | 48569
4 | 10:47.45 | 4:32.63 | 48570 | 69032
5 | 15:20.33 | 2:14.49 | 69033 | 79131
6 | 17:35.07 | 2:46.59 | 79132 | 91640
7 | 20:21.66 | 3:42.44 | 91641 | 108334
8 | 24:04.35 | 4:23.72 | 108335 | 128131
9 | 28:28.32 | 3:07.23 | 128132 | 142179
10 | 31:35.55 | 3:42.09 | 142180 | 158838


Track 1

Filename C:\My Documents\My FLAC\VA - Song For A Winter's Night (2006) [FLAC] {Sony BMG}\01 - Sarah McLachlan - Song For A Winter's Night.wav

Pre-gap length 0:00:02.00

Peak level 95.0 %
Extraction speed 2.8 X
Track quality 100.0 %
Test CRC C410761C
Copy CRC C410761C
Track not fully ripped for AccurateRip lookup
Copy OK

Track 2

Filename C:\My Documents\My FLAC\VA - Song For A Winter's Night (2006) [FLAC] {Sony BMG}\02 - Gavin DeGraw - Have Yourself A Merry Little Christmas.wav

Pre-gap length 0:00:01.20

Peak level 99.9 %
Extraction speed 3.0 X
Track quality 100.0 %
Test CRC 65F6FC32
Copy CRC 65F6FC32
Accurately ripped (confidence 6) [081EFA2A] (AR v2)
Copy OK

Track 3

Filename C:\My Documents\My FLAC\VA - Song For A Winter's Night (2006) [FLAC] {Sony BMG}\03 - Destiny's Child - Silent Night.wav

Peak level 100.0 %
Extraction speed 3.2 X
Track quality 100.0 %
Test CRC 6E747AD8
Copy CRC 6E747AD8
Track not fully ripped for AccurateRip lookup
Copy OK

Track 4

Filename C:\My Documents\My FLAC\VA - Song For A Winter's Night (2006) [FLAC] {Sony BMG}\04 - Alicia Keys - Little Drummer Girl.wav

Pre-gap length 0:00:01.18

Peak level 89.1 %
Extraction speed 3.5 X
Track quality 100.0 %
Test CRC A941176C
Copy CRC A941176C
Accurately ripped (confidence 6) [6BBB780F] (AR v2)
Copy OK

Track 5

Filename C:\My Documents\My FLAC\VA - Song For A Winter's Night (2006) [FLAC] {Sony BMG}\05 - The Raveonettes - The Christmas Song.wav

Peak level 74.8 %
Extraction speed 3.3 X
Track quality 100.0 %
Test CRC C6027BED
Copy CRC C6027BED
Accurately ripped (confidence 6) [AF76BFC5] (AR v2)
Copy OK

Track 6

Filename C:\My Documents\My FLAC\VA - Song For A Winter's Night (2006) [FLAC] {Sony BMG}\06 - Phanton Planet - Winter Wonderland.wav

Peak level 89.1 %
Extraction speed 3.5 X
Track quality 100.0 %
Test CRC 9AADEFD5
Copy CRC 9AADEFD5
Accurately ripped (confidence 6) [8EF6A67A] (AR v2)
Copy OK

Track 7

Filename C:\My Documents\My FLAC\VA - Song For A Winter's Night (2006) [FLAC] {Sony BMG}\07 - Pete Yorn - Do They Know It's Christmas.wav

Peak level 93.3 %
Extraction speed 3.9 X
Track quality 100.0 %
Test CRC F769C2CF
Copy CRC F769C2CF
Accurately ripped (confidence 6) [1FE02CE2] (AR v2)
Copy OK

Track 8

Filename C:\My Documents\My FLAC\VA - Song For A Winter's Night (2006) [FLAC] {Sony BMG}\08 - Rachael Yamagata - River.wav

Peak level 99.8 %
Extraction speed 3.6 X
Track quality 99.9 %
Test CRC 4B6061CB
Copy CRC 4B6061CB
Accurately ripped (confidence 6) [71DC05F4] (AR v2)
Copy OK

Track 9

Filename C:\My Documents\My FLAC\VA - Song For A Winter's Night (2006) [FLAC] {Sony BMG}\09 - Carly Simon - Let It Snow! Let It Snow! Let It Snow!.wav

Peak level 88.8 %
Extraction speed 4.1 X
Track quality 100.0 %
Test CRC 473BC57A
Copy CRC 473BC57A
Track not fully ripped for AccurateRip lookup
Copy OK

Track 10

Filename C:\My Documents\My FLAC\VA - Song For A Winter's Night (2006) [FLAC] {Sony BMG}\10 - Play - Sleigh Ride.wav

Pre-gap length 0:00:00.51

Peak level 87.4 %
Extraction speed 3.6 X
Track quality 99.9 %
Test CRC EDDBAD70
Copy CRC EDDBAD70
Accurately ripped (confidence 6) [06F61D17] (AR v2)
Copy OK


7 track(s) accurately ripped
3 track(s) not fully ripped for AccurateRip lookup

Some tracks could not be verified as accurate

No errors occurred

End of status report

==== Log checksum B2F9C10CC81DC751A31B31DE543A8A56F16B868473F8C44DAF1985A0A05E2481 ====


VA - Song For A Winter's Night (2006) {Sony/BMG} **[RE-UP]**