Subcategories

Vivaldi, Torelli, Carulli - Baroque Concertos for Mandolin, Lute & Guitar

Posted By: LeePark
Vivaldi, Torelli, Carulli - Baroque Concertos for Mandolin, Lute & Guitar

Vivaldi, Torelli, Carulli - Baroque Concertos for Mandolin, Lute & Guitar
EAC Rip | Classics | FLAC, LOG, noCUE | Covers | 305 MB
Label: VOX | Release: 1986 | Catalog: 71362 | Multi


Tracklists
1 Vivaldi: Concerto, Cmaj, Mandolin, Strings, Continuo, P.134: Allegro
2 Vivaldi: Concerto, Cmaj, Mandolin, Strings, Continuo, P.134: Largo
3 Vivaldi: Concerto, Cmaj, Mandolin, Strings, Continuo, P.134: Allegro
4 Vivaldi: Concerto, Gmaj, Two Mandolins, Strings & Continuo, P.133: Allegro
5 Vivaldi: Concerto, Gmaj, Two Mandolins, Strings & Continuo, P.133: Largo
6 Vivaldi: Concerto, Gmaj, Two Mandolins, Strings & Continuo, P.133: Allegro
7 Vivaldi: Concerto, Dmaj, Lute, Strings & Continuo, P.209: Allegro giusto
8 Vivaldi: Concerto, Dmaj, Lute, Strings & Continuo, P.209: Largo
9 Vivaldi: Concerto, Dmaj, Lute, Strings & Continuo, P.209: Allegro
10 Vivaldi: Concerto, Gmin, Violin, Lute & Continue, F XVI,4: Andante molto
11 Vivaldi: Concerto, Gmin, Violin, Lute & Continue, F XVI,4: Larghetto
12 Vivaldi: Concerto, Gmin, Violin, Lute & Continue, F XVI,4: Allegro
13 Torelli: Concerto, Amaj, Guitar, Violin & Continue: Allegro
14 Torelli: Concerto, Amaj, Guitar, Violin & Continue: Adagio
15 Torelli: Concerto, Amaj, Guitar, Violin & Continue: Allegro
16 Carulli: Concerto, Amaj, Guitar & Orchestra
Exact Audio Copy V0.99 prebeta 4 from 23. January 2008

EAC extraction logfile from 23. July 2008, 23:25

Vivaldi, Torelli, Carulli / Baroque Concertos for Mandolin, Lute & Guitar

Used drive : ATAPI DVD A DH20A4P Adapter: 0 ID: 1

Read mode : Secure
Utilize accurate stream : Yes
Defeat audio cache : Yes
Make use of C2 pointers : Yes

Read offset correction : 6
Overread into Lead-In and Lead-Out : No
Fill up missing offset samples with silence : Yes
Delete leading and trailing silent blocks : No
Null samples used in CRC calculations : Yes
Used interface : Installed external ASPI interface
Gap handling : Appended to previous track

Used output format : User Defined Encoder
Selected bitrate : 768 kBit/s
Quality : High
Add ID3 tag : No
Command line compressor : C:\Program Files\Exact Audio Copy\FLAC\FLAC.EXE
Additional command line options : -8 -A tukey(0.25) -A gauss(0.1875) -b 4096 -V -T "artist=%a" -T "title=%t" -T "album=%g" -T "date=%y" -T "tracknumber=%n" -T "genre=%m" %s –sector-align


TOC of the extracted CD

Track | Start | Length | Start sector | End sector
––––––––––––––––––––––––––––-
1 | 0:00.00 | 3:31.07 | 0 | 15831
2 | 3:31.07 | 2:56.13 | 15832 | 29044
3 | 6:27.20 | 2:59.62 | 29045 | 42531
4 | 9:27.07 | 5:04.33 | 42532 | 65364
5 | 14:31.40 | 3:04.17 | 65365 | 79181
6 | 17:35.57 | 4:17.25 | 79182 | 98481
7 | 21:53.07 | 4:29.15 | 98482 | 118671
8 | 26:22.22 | 2:40.23 | 118672 | 130694
9 | 29:02.45 | 2:36.05 | 130695 | 142399
10 | 31:38.50 | 4:32.67 | 142400 | 162866
11 | 36:11.42 | 2:33.73 | 162867 | 174414
12 | 38:45.40 | 2:31.10 | 174415 | 185749
13 | 41:16.50 | 2:10.65 | 185750 | 195564
14 | 43:27.40 | 3:27.42 | 195565 | 211131
15 | 46:55.07 | 1:44.53 | 211132 | 218984
16 | 48:39.60 | 9:23.25 | 218985 | 261234


Track 1

Filename C:\Ripped Music\Vivaldi, Torelli, Carulli\Baroque Concertos for Mandolin, Lute & Guitar\01 Vivaldi- Concerto, Cmaj, Mandolin, Strings, Continuo, P.134- Allegro.wav

Pre-gap length 0:00:02.00

Peak level 93.2 %
Track quality 100.0 %
Copy CRC C9C3C8F7
Track not present in AccurateRip database
Copy OK

Track 2

Filename C:\Ripped Music\Vivaldi, Torelli, Carulli\Baroque Concertos for Mandolin, Lute & Guitar\02 Vivaldi- Concerto, Cmaj, Mandolin, Strings, Continuo, P.134- Largo.wav

Peak level 27.0 %
Track quality 100.0 %
Copy CRC 33E797D8
Track not present in AccurateRip database
Copy OK

Track 3

Filename C:\Ripped Music\Vivaldi, Torelli, Carulli\Baroque Concertos for Mandolin, Lute & Guitar\03 Vivaldi- Concerto, Cmaj, Mandolin, Strings, Continuo, P.134- Allegro.wav

Peak level 90.6 %
Track quality 100.0 %
Copy CRC BD9F16E5
Track not present in AccurateRip database
Copy OK

Track 4

Filename C:\Ripped Music\Vivaldi, Torelli, Carulli\Baroque Concertos for Mandolin, Lute & Guitar\04 Vivaldi- Concerto, Gmaj, Two Mandolins, Strings & Continuo, P.133- Allegro.wav

Peak level 96.5 %
Track quality 100.0 %
Copy CRC 778373BB
Track not present in AccurateRip database
Copy OK

Track 5

Filename C:\Ripped Music\Vivaldi, Torelli, Carulli\Baroque Concertos for Mandolin, Lute & Guitar\05 Vivaldi- Concerto, Gmaj, Two Mandolins, Strings & Continuo, P.133- Largo.wav

Peak level 41.8 %
Track quality 99.8 %
Copy CRC A1DDB126
Track not present in AccurateRip database
Copy OK

Track 6

Filename C:\Ripped Music\Vivaldi, Torelli, Carulli\Baroque Concertos for Mandolin, Lute & Guitar\06 Vivaldi- Concerto, Gmaj, Two Mandolins, Strings & Continuo, P.133- Allegro.wav

Peak level 83.2 %
Track quality 100.0 %
Copy CRC 52D0828C
Track not present in AccurateRip database
Copy OK

Track 7

Filename C:\Ripped Music\Vivaldi, Torelli, Carulli\Baroque Concertos for Mandolin, Lute & Guitar\07 Vivaldi- Concerto, Dmaj, Lute, Strings & Continuo, P.209- Allegro giusto.wav

Peak level 79.3 %
Track quality 100.0 %
Copy CRC 5BF05A96
Track not present in AccurateRip database
Copy OK

Track 8

Filename C:\Ripped Music\Vivaldi, Torelli, Carulli\Baroque Concertos for Mandolin, Lute & Guitar\08 Vivaldi- Concerto, Dmaj, Lute, Strings & Continuo, P.209- Largo.wav

Peak level 33.2 %
Track quality 100.0 %
Copy CRC 863916CA
Track not present in AccurateRip database
Copy OK

Track 9

Filename C:\Ripped Music\Vivaldi, Torelli, Carulli\Baroque Concertos for Mandolin, Lute & Guitar\09 Vivaldi- Concerto, Dmaj, Lute, Strings & Continuo, P.209- Allegro.wav

Peak level 66.6 %
Track quality 100.0 %
Copy CRC D17468E0
Track not present in AccurateRip database
Copy OK

Track 10

Filename C:\Ripped Music\Vivaldi, Torelli, Carulli\Baroque Concertos for Mandolin, Lute & Guitar\10 Vivaldi- Concerto, Gmin, Violin, Lute & Continue, F XVI,4- Andante molto.wav

Peak level 51.6 %
Track quality 99.9 %
Copy CRC 87D59770
Track not present in AccurateRip database
Copy OK

Track 11

Filename C:\Ripped Music\Vivaldi, Torelli, Carulli\Baroque Concertos for Mandolin, Lute & Guitar\11 Vivaldi- Concerto, Gmin, Violin, Lute & Continue, F XVI,4- Larghetto.wav

Peak level 33.7 %
Track quality 100.0 %
Copy CRC CBC8C891
Track not present in AccurateRip database
Copy OK

Track 12

Filename C:\Ripped Music\Vivaldi, Torelli, Carulli\Baroque Concertos for Mandolin, Lute & Guitar\12 Vivaldi- Concerto, Gmin, Violin, Lute & Continue, F XVI,4- Allegro.wav

Peak level 60.0 %
Track quality 100.0 %
Copy CRC 7C4791B4
Track not present in AccurateRip database
Copy OK

Track 13

Filename C:\Ripped Music\Vivaldi, Torelli, Carulli\Baroque Concertos for Mandolin, Lute & Guitar\13 Torelli- Concerto, Amaj, Guitar, Violin & Continue- Allegro.wav

Peak level 89.4 %
Track quality 100.0 %
Copy CRC C8721F26
Track not present in AccurateRip database
Copy OK

Track 14

Filename C:\Ripped Music\Vivaldi, Torelli, Carulli\Baroque Concertos for Mandolin, Lute & Guitar\14 Torelli- Concerto, Amaj, Guitar, Violin & Continue- Adagio.wav

Peak level 69.3 %
Track quality 100.0 %
Copy CRC 14C4F739
Track not present in AccurateRip database
Copy OK

Track 15

Filename C:\Ripped Music\Vivaldi, Torelli, Carulli\Baroque Concertos for Mandolin, Lute & Guitar\15 Torelli- Concerto, Amaj, Guitar, Violin & Continue- Allegro.wav

Peak level 78.5 %
Track quality 100.0 %
Copy CRC 6BB2C65C
Track not present in AccurateRip database
Copy OK

Track 16

Filename C:\Ripped Music\Vivaldi, Torelli, Carulli\Baroque Concertos for Mandolin, Lute & Guitar\16 Carulli- Concerto, Amaj, Guitar & Orchestra.wav

Peak level 80.3 %
Track quality 100.0 %
Copy CRC 3E5C9D93
Track not present in AccurateRip database
Copy OK


None of the tracks are present in the AccurateRip database

No errors occurred

End of status report