Subcategories

B.E.E.K. - Live At The Spruce Street Forum (2004) {Boticelli}

Posted By: TestTickles
B.E.E.K. - Live At The Spruce Street Forum (2004) {Boticelli}

B.E.E.K. - Live At The Spruce Street Forum (2004) {Boticelli}
EAC Rip | FLAC with CUE and log | scans | 455 mb
MP3 CBR 320kbps | RAR | 173 mb
Genre: jazz, free jazz

Live At The Spruce Street Forum is the 2004 live album by Peter Brötzmann, Lisle Ellis, Marco Eneidi and Jackson Krall, credited on this CD as B.E.E.K. This was released on the Boticelli label.
Recent Brötzmann recordings have been as powerful as ever, but often distressingly rational. Live at Spruce Street Forum, I’m glad to report, sounds completely bonkers. The longstanding Eneidi/Ellis/Krall trio doesn’t bother extending their guest any “after-you” courtesies: they just start blowing and make Brötzmann force his way in. The 16-minute opener is a sheer, brutal joy, beginning with five minutes of just the core trio – Krall’s quickwitted, free-but-funky drumming, Ellis’s talking bass, Eneidi’s rude, Lyonsish alto – before Brötzmann enters the fray and all hell breaks loose. Part 2 is more measured (groovy freebop rather than a bloodbath, the musicians actually taking turns to solo, Eneidi at times downright tuneful) but Brötz’s stubbornly incoherent clarinet babbling keeps things from getting too comfy, and the track ends with a convincingly ugly brawl. Part 3 is a bagatelle – a cute little two-minute onslaught – and part 4 is almost lyrical, a dismembered free-form balladish thing harking back to Ornette’s Atlantic period. As you’d expect, this musical truce proves temporary, and it’s almost a relief when on the fifth and final track the four musicians resume hostilities. Hourlong screamfests can be exhausting experiences – the kind of thing you put on the stereo only in the right mood – but not this one: Live at Spruce Street Forum is curiously addictive, and I’ve found that in order to appreciate the music’s finer nuances (that’s a joke, by the way) the best solution is to play the whole thing repeatedly from beginning to end at high volume. Discerning neighbours and family members will thank you.

B.E.E.K. - Live At The Spruce Street Forum (2004) {Boticelli}

1. No. 1
2. No. 2
3. No. 3
4. No. 4
5. No. 5

Peter Brötzmann-alto saxophont tenor saxophone, clarinet, bass clarinet
Lisle Ellis-contrabass
Marco Eneidi-alto saxophone
Jackson Krall-drums

Recorded in San Diego, CA, 24 March 2002

EAC extraction logfile from 18. August 2007, 12:49 for CD
B.E.E.K. / Live At The Spruce Street Forum

Used drive : LITE-ON LTR-52327S Adapter: 1 ID: 0
Read mode : Secure with NO C2, accurate stream, disable cache
Read offset correction : 48
Overread into Lead-In and Lead-Out : No

Used output format : Internal WAV Routines
44.100 Hz; 16 Bit; Stereo

Other options :
Fill up missing offset samples with silence : Yes
Delete leading and trailing silent blocks : No
Native Win32 interface for Win NT & 2000


Track 1
Filename C:\FLAC\B.E.E.K. - Live At The Spruce Street Forum (2004) [FLAC] {Botticelli}\01 - no. 1.wav

Pre-gap length 0:00:02.00

Peak level 97.7 %
Track quality 100.0 %
Test CRC E622BACC
Copy CRC E622BACC
Copy OK

Track 2
Filename C:\FLAC\B.E.E.K. - Live At The Spruce Street Forum (2004) [FLAC] {Botticelli}\02 - no. 2.wav

Peak level 97.7 %
Track quality 100.0 %
Test CRC C354CE0E
Copy CRC C354CE0E
Copy OK

Track 3
Filename C:\FLAC\B.E.E.K. - Live At The Spruce Street Forum (2004) [FLAC] {Botticelli}\03 - no. 3.wav

Peak level 97.7 %
Track quality 100.0 %
Test CRC 1B3A8788
Copy CRC 1B3A8788
Copy OK

Track 4
Filename C:\FLAC\B.E.E.K. - Live At The Spruce Street Forum (2004) [FLAC] {Botticelli}\04 - no. 4.wav

Peak level 97.7 %
Track quality 99.9 %
Test CRC FE4579E1
Copy CRC FE4579E1
Copy OK

Track 5
Filename C:\FLAC\B.E.E.K. - Live At The Spruce Street Forum (2004) [FLAC] {Botticelli}\05 - no. 5.wav

Peak level 97.7 %
Track quality 99.9 %
Test CRC F2835831
Copy CRC F2835831
Copy OK

No errors occured


End of status report


B.E.E.K. - Live At The Spruce Street Forum (2004) {Boticelli}


Thank you to the original uploader.