Subcategories

Beck - Loser (UK/US CD5) (1994)

Posted By: TestTickles
Beck - Loser (UK/US CD5) (1994)

Beck - Loser (UK/US CD5) (1994)
EAC Rip | FLAC with CUE and log | scans | 94 mb, 144 mb
MP3 CBR 320kbps | RAR | 37 mb, 55mb
Genre: alternative, hip-hop, rap, vocal jazz, junk folk

Loser is the 1994 single by Beck Hansen, an American singer/musician known under the mononym Beck. Originally released as a single on Bong Load, this was placed on his major label debut Mellow Gold and became a huge hit that still receives airplay today. This features the UK and US CD singles, which share a few songs but both are different with tracks not on the album, including a then-new version of "MTV Makes Me Want To Smoke Crack".

Beck - Loser (UK/US CD5) (1994)

Beck - Loser (UK CD5)

Beck - Loser (UK/US CD5) (1994)

1. Loser (LP Version) (3:54)
2. Totally Confused (3:26)
3. Corvette Bummer (4:55)
4. MTV Makes Me Want To Smoke Crack (3:29)

Beck - Loser (UK/US CD5) (1994)


Exact Audio Copy V1.1 from 23. June 2015

EAC extraction logfile from 20. February 2016, 17:56

Beck / Loser (UK CD5)

Used drive : TEAC DVD-ROM DV-28SW Adapter: 1 ID: 0

Read mode : Secure
Utilize accurate stream : Yes
Defeat audio cache : Yes
Make use of C2 pointers : No

Read offset correction : 6
Overread into Lead-In and Lead-Out : No
Fill up missing offset samples with silence : Yes
Delete leading and trailing silent blocks : No
Null samples used in CRC calculations : Yes
Used interface : Native Win32 interface for Win NT & 2000
Gap handling : Left out

Used output format : Internal WAV Routines
Sample format : 44.100 Hz; 16 Bit; Stereo


TOC of the extracted CD

Track | Start | Length | Start sector | End sector
––––––––––––––––––––––––––––-
1 | 0:00.00 | 3:57.30 | 0 | 17804
2 | 3:57.30 | 3:28.52 | 17805 | 33456
3 | 7:26.07 | 4:56.13 | 33457 | 55669
4 | 12:22.20 | 3:29.32 | 55670 | 71376


Track 1

Filename C:\My Documents\My FLAC\Beck - Loser (UK CD5) (1994) [FLAC]\01 - Loser.wav

Pre-gap length 0:00:02.00

Peak level 99.7 %
Extraction speed 2.7 X
Track quality 100.0 %
Test CRC 8E9840B6
Copy CRC 8E9840B6
Track not fully ripped for AccurateRip lookup
Copy OK

Track 2

Filename C:\My Documents\My FLAC\Beck - Loser (UK CD5) (1994) [FLAC]\02 - Totally Confused.wav

Pre-gap length 0:00:01.35

Peak level 100.0 %
Extraction speed 3.0 X
Track quality 100.0 %
Test CRC 65A6E802
Copy CRC 65A6E802
Track not fully ripped for AccurateRip lookup
Copy OK

Track 3

Filename C:\My Documents\My FLAC\Beck - Loser (UK CD5) (1994) [FLAC]\03 - Corvette Bummer.wav

Pre-gap length 0:00:00.70

Peak level 95.0 %
Extraction speed 3.0 X
Track quality 99.9 %
Test CRC 665FFA94
Copy CRC 665FFA94
Track not fully ripped for AccurateRip lookup
Copy OK

Track 4

Filename C:\My Documents\My FLAC\Beck - Loser (UK CD5) (1994) [FLAC]\04 - MTV Makes Me Want To Smoke Crack.wav

Pre-gap length 0:00:01.05

Peak level 90.2 %
Extraction speed 3.6 X
Track quality 100.0 %
Test CRC 175945A0
Copy CRC 175945A0
Accurately ripped (confidence 6) [FF1093A6] (AR v2)
Copy OK


1 track(s) accurately ripped
3 track(s) not fully ripped for AccurateRip lookup

Some tracks could not be verified as accurate

No errors occurred

End of status report

==== Log checksum 0605823689380142959FF5AD118F7351A9B3087987131E922E204B86BA1E571D ====


=====

Beck - Loser (UK/US CD5) (1994)

Beck - Loser (US CD5)

Beck - Loser (UK/US CD5) (1994)

1. Loser (LP Version) (3:55)
2. Corvette Bummer (4:57)
3. Alcohol (3:51)
4. Soul Suckin Jerk (Reject) (6:09)
5. Fume (4:29)

Beck - Loser (UK/US CD5) (1994)


Exact Audio Copy V1.1 from 23. June 2015

EAC extraction logfile from 20. February 2016, 18:39

Beck / Loser (US CD5)

Used drive : TEAC DVD-ROM DV-28SW Adapter: 1 ID: 0

Read mode : Secure
Utilize accurate stream : Yes
Defeat audio cache : Yes
Make use of C2 pointers : No

Read offset correction : 6
Overread into Lead-In and Lead-Out : No
Fill up missing offset samples with silence : Yes
Delete leading and trailing silent blocks : No
Null samples used in CRC calculations : Yes
Used interface : Native Win32 interface for Win NT & 2000
Gap handling : Left out

Used output format : Internal WAV Routines
Sample format : 44.100 Hz; 16 Bit; Stereo


TOC of the extracted CD

Track | Start | Length | Start sector | End sector
––––––––––––––––––––––––––––-
1 | 0:00.37 | 3:55.43 | 37 | 17704
2 | 3:56.05 | 4:57.22 | 17705 | 40001
3 | 8:53.27 | 3:51.30 | 40002 | 57356
4 | 12:44.57 | 6:09.68 | 57357 | 85099
5 | 18:54.50 | 4:30.67 | 85100 | 105416


Track 1

Filename C:\My Documents\My FLAC\Beck - Loser (US CD5) (1994) [FLAC]\01 - Loser (LP Version).wav

Pre-gap length 0:00:02.37

Peak level 99.7 %
Extraction speed 2.8 X
Track quality 100.0 %
Test CRC 1FD5EA31
Copy CRC 1FD5EA31
Accurately ripped (confidence 37) [FBDB3617] (AR v2)
Copy OK

Track 2

Filename C:\My Documents\My FLAC\Beck - Loser (US CD5) (1994) [FLAC]\02 - Corvette Bummer.wav

Peak level 95.0 %
Extraction speed 3.3 X
Track quality 100.0 %
Test CRC C1E9A265
Copy CRC C1E9A265
Track not fully ripped for AccurateRip lookup
Copy OK

Track 3

Filename C:\My Documents\My FLAC\Beck - Loser (US CD5) (1994) [FLAC]\03 - Alcohol.wav

Pre-gap length 0:00:00.57

Peak level 100.0 %
Extraction speed 3.5 X
Track quality 100.0 %
Test CRC 1C917077
Copy CRC 1C917077
Track not fully ripped for AccurateRip lookup
Copy OK

Track 4

Filename C:\My Documents\My FLAC\Beck - Loser (US CD5) (1994) [FLAC]\04 - Soul Suckin Jerk (Reject).wav

Pre-gap length 0:00:01.17

Peak level 97.1 %
Extraction speed 3.6 X
Track quality 99.9 %
Test CRC 086FF942
Copy CRC 086FF942
Track not fully ripped for AccurateRip lookup
Copy OK

Track 5

Filename C:\My Documents\My FLAC\Beck - Loser (US CD5) (1994) [FLAC]\05 - Fume.wav

Pre-gap length 0:00:00.32

Peak level 95.0 %
Extraction speed 3.6 X
Track quality 99.9 %
Test CRC 692D7C36
Copy CRC 692D7C36
Accurately ripped (confidence 34) [5C0EF37F] (AR v2)
Copy OK


2 track(s) accurately ripped
3 track(s) not fully ripped for AccurateRip lookup

Some tracks could not be verified as accurate

No errors occurred

End of status report

==== Log checksum FDE4AB117F7387E8DA7028A20434E747D08993286BAA621B9FEBEE431A059A82 ====
NITROFLARE (FLAC; UK CD5)
NITROFLARE (MP3; UK CD5)
NITROFLARE (FLAC; US CD5)
NITROFLARE (MP3; US CD5)