Subcategories

Bananarama - Megarama '89 (German CD5) (1989) {ffrr/London}

Posted By: TestTickles
Bananarama - Megarama '89 (German CD5) (1989) {ffrr/London}

Bananarama - Megarama '89 (German CD5) (1989) {ffrr/London}
EAC Rip | FLAC with CUE and log | scans | 151 mb
MP3 CBR 320kbps | RAR | 53 mb
Genre: synth pop, dance pop

"Megarama '89" is a 1989 megamix by British dance pop trio Bananarama. This was released in support of their compilation album The Greatest Hits Collection even though this didn't appear on it. This German CD single also features remixes of "I Heard A Rumour" and "Venus". This was released by ffrr via London.

1. Megarama'89 (Full Length Version)
2. I Heard A Rumour (Corporation Of Bananarama Mix)
3. Venus (The Greatest Remix)

Exact Audio Copy V1.0 beta 3 from 29. August 2011

EAC extraction logfile from 22. September 2013, 14:45

Bananarama / Megarama '89 (German CD5)

Used drive : TSSTcorpCDDVDW SN-208BB Adapter: 0 ID: 1

Read mode : Secure
Utilize accurate stream : Yes
Defeat audio cache : Yes
Make use of C2 pointers : No

Read offset correction : 6
Overread into Lead-In and Lead-Out : No
Fill up missing offset samples with silence : Yes
Delete leading and trailing silent blocks : No
Null samples used in CRC calculations : Yes
Used interface : Native Win32 interface for Win NT & 2000
Gap handling : Appended to previous track

Used output format : User Defined Encoder
Selected bitrate : 1024 kBit/s
Quality : High
Add ID3 tag : No
Command line compressor : C:\Program Files (x86)\Exact Audio Copy\Flac\flac.exe
Additional command line options : -8 -V -T "artist=%artist%" -T "title=%title%" -T "album=%albumtitle%" -T "date=%year%" -T "tracknumber=%tracknr%" -T "genre=%genre%" %source%


TOC of the extracted CD

Track | Start | Length | Start sector | End sector
––––––––––––––––––––––––––––-
1 | 0:00.33 | 8:36.50 | 33 | 38782
2 | 8:37.08 | 5:40.37 | 38783 | 64319
3 | 14:17.45 | 7:42.63 | 64320 | 99032


Track 1

Filename C:\FLAC\Bananarama - Megarama '89 (German CD5) (1989) [FLAC] {ffrr, London}\01 - Megarama '89 (Full Length Version).wav

Pre-gap length 0:00:02.33

Peak level 93.3 %
Extraction speed 2.2 X
Track quality 100.0 %
Test CRC 648EAE06
Copy CRC 648EAE06
Accurately ripped (confidence 3) [57C4AC5E] (AR v1)
Copy OK

Track 2

Filename C:\FLAC\Bananarama - Megarama '89 (German CD5) (1989) [FLAC] {ffrr, London}\02 - I Heard A Rumour (Corporation Of Bananarama Mix).wav

Peak level 72.8 %
Extraction speed 2.4 X
Track quality 100.0 %
Test CRC 6E348E53
Copy CRC 6E348E53
Accurately ripped (confidence 3) [62270C85] (AR v1)
Copy OK

Track 3

Filename C:\FLAC\Bananarama - Megarama '89 (German CD5) (1989) [FLAC] {ffrr, London}\03 - Venus (The Greatest Remix).wav

Peak level 73.4 %
Extraction speed 2.6 X
Track quality 99.9 %
Test CRC 8A254CE0
Copy CRC 8A254CE0
Accurately ripped (confidence 3) [E771D837] (AR v1)
Copy OK


All tracks accurately ripped

No errors occurred

End of status report

==== Log checksum 62C168686FD062C314EF5802B556B75C0BC55B111FC3773895C20BBAB4D71B4C ====


Bananarama - Megarama '89 (German CD5) (1989) {ffrr/London}


Thank you to the original uploader