Subcategories

Barre Phillips - Three Day Moon (1978) {ECM}

Posted By: TestTickles
Barre Phillips - Three Day Moon (1978) {ECM}

Barre Phillips - Three Day Moon (1978) {ECM}
EAC Rip | FLAC with CUE and log | scans | 184 mb
MP3 CBR 320kbps | RAR | 96 mb
Genre: jazz

Three Day Moo is a 1978 album by Barre Phillips. This was released by ECM Records, no release date for the CD on the disc or packaging but it was mastered and pressed in Germany, most likely in the late 80's. Thank you to the original uploader.

1. A-i-a (9:41)
2. Ms. P. (4:59)
3. La Folle (5:18)
4. Brd (8:38)
5. Ingul-Buz (3:58)
6. S. C. & W. (9:27)

Barre Phillips-bass
Terje Rypdal-guitar, guitar synthesizer, organ
Dieter Feichtner-synthesizer
Trilok Gurtu-tabla, percussion

Recorded March 1978 at Talent Studio, Oslo
Produced by Manfred Eicher
Engineered by Jan Erik Kongshaug

CD mastered in Germany

Exact Audio Copy V1.0 beta 1 from 2. September 2006 for CD
Barre Phillips / Three Day Moon

Used drive : LITE-ON DVDRW SOHW-1633S Adapter: 0 ID: 0
Read mode : Secure with NO C2, accurate stream, disable cache
Read offset correction : 12
Overread into Lead-In and Lead-Out : No

Used output format : Internal WAV Routines
44.100 Hz; 16 Bit; Stereo

Other options :
Fill up missing offset samples with silence : Yes
Delete leading and trailing silent blocks : No
Installed external ASPI interface


Track 1

Filename D:\FLAC\Barre Phillips - Three Day Moon (1978) [FLAC] {ECM}\01 - A-i-a.wav

Pre-gap length 0:00:02.32

Peak level 62.8 %
Extraction speed 1.3 X
Track quality 100.0 %
Test CRC 98D8C2CB
Copy CRC 98D8C2CB
Cannot be verified as accurate (confidence 1) [020A14D7], AccurateRip returned [0A02CBA7]
Copy OK

Track 2

Filename D:\FLAC\Barre Phillips - Three Day Moon (1978) [FLAC] {ECM}\02 - Ms.P..wav

Pre-gap length 0:00:03.12

Peak level 50.5 %
Extraction speed 1.4 X
Track quality 100.0 %
Test CRC 3A6F4A26
Copy CRC 3A6F4A26
Cannot be verified as accurate (confidence 1) [11DA4A4E], AccurateRip returned [D667A1E6]
Copy OK

Track 3

Filename D:\FLAC\Barre Phillips - Three Day Moon (1978) [FLAC] {ECM}\03 - La Folle.wav

Pre-gap length 0:00:03.23

Peak level 79.6 %
Extraction speed 1.5 X
Track quality 100.0 %
Test CRC 311CA71D
Copy CRC 311CA71D
Cannot be verified as accurate (confidence 1) [8A1A988A], AccurateRip returned [49088BD6]
Copy OK

Track 4

Filename D:\FLAC\Barre Phillips - Three Day Moon (1978) [FLAC] {ECM}\04 - Brd.wav

Pre-gap length 0:00:03.45

Peak level 67.3 %
Extraction speed 1.7 X
Track quality 100.0 %
Test CRC 72CAE53D
Copy CRC 72CAE53D
Cannot be verified as accurate (confidence 1) [24F56C83], AccurateRip returned [F4322933]
Copy OK

Track 5

Filename D:\FLAC\Barre Phillips - Three Day Moon (1978) [FLAC] {ECM}\05 - Ingul-Buz.wav

Pre-gap length 0:00:03.13

Peak level 48.7 %
Extraction speed 1.7 X
Track quality 100.0 %
Test CRC C974B03B
Copy CRC C974B03B
Cannot be verified as accurate (confidence 1) [46B27C05], AccurateRip returned [445F72E5]
Copy OK

Track 6

Filename D:\FLAC\Barre Phillips - Three Day Moon (1978) [FLAC] {ECM}\06 - S.C.&W..wav

Pre-gap length 0:00:03.18

Peak level 69.0 %
Extraction speed 2.0 X
Track quality 100.0 %
Test CRC 26C6F5F4
Copy CRC 26C6F5F4
Cannot be verified as accurate (confidence 1) [37E40B2F], AccurateRip returned [1FFA6B57]
Copy OK


No tracks could be verified as accurate
You may have a different pressing from the one(s) in the database

No errors occurred

End of status report

==== Log checksum BC0EF5ABC7B6251D9C401B42C359A42C681FD29C4E9F63386FEC99CFE25CD8A6 ====


Barre Phillips - Three Day Moon (1978) {ECM}