Subcategories

Barry Phillips/Linda Buirham-Hall/Lux Musica Ensemble - UTSAV! Celebrating Ravi Shankar: Raga & Raj (2013) **[RE-UP]**

Posted By: TestTickles
Barry Phillips/Linda Buirham-Hall/Lux Musica Ensemble - UTSAV! Celebrating Ravi Shankar: Raga & Raj (2013) **[RE-UP]**

Barry Phillips/Linda Buirham-Hall/Lux Musica Ensemble - UTSAV! Celebrating Ravi Shankar: Raga & Raj (2013)
EAC Rip | FLAC with CUE and log | scans | 376 mb
MP3 CBR 320kbps | RAR | 153 mb
Genre: Indian classical

UTSAV! Celebrating Ravi Shankar: Raga & Raj is a 2013 album by Barry Phillips, Linda Buirham-Hall and the Lux Musica Ensemble. Released on Shankar's own East Meets West label, it focuses on ragas that either Shankar wrote or arranged and made his own.

Barry Phillips/Linda Buirham-Hall/Lux Musica Ensemble - UTSAV! Celebrating Ravi Shankar: Raga & Raj (2013) **[RE-UP]**

01. Eight Ragas: Dreaming
02. Eight Ragas: Awakening
03. Eight Ragas: In Brindaban Forest
04. Eight Ragas: Homage
05. Eight Ragas: Quiet Hour
06. Eight Ragas: Alap And Ground
07. Eight Ragas: Conversation
08. Eight Ragas: Finale
09. Hindoostanee Airs: Rekhtah-Mutru Be Khoosh Nuwa Bego
10. Hindoostanee Airs: Tuppah-Ouwevl Ke Murabuh Isht Razee Kurdee
11. Hindoostanee Airs: Rekhtah-Gid a Shumba
12. Hindoostanee Airs: Tuppah-Kia Kam Keea Dil Ne
13. Jahla Journey: Jahla I
14. Jahla Journey: Jahla II
15. Jahla Journey: Jahla III
16. Jahla Journey: Jahla duet
17. Jahla Journey: Jahla in the form of a ductia
18. Jahla Journey: Serenade
19. Raghupati Raghava Raja Ram

Barry Phillips-Indian cello
Linda Buirham-Hall-harpsicord, fortepiano, percussion

Lux Musica Ensemble
Lars Johannesson-flutes
David Wilson-violin
Amy Brodo-cello and viola da gamba
Debopriya Sarkar-tabla
Shelley Phillips-tanpura

Produced by Barry Phillips & Shyama Priya
Engineered by William Coulter & Barry Phillips
Edit, mix & mastering engineer: Barry Phillips

EAC extraction logfile from 1. March 2017, 21:19 for CD
Barry Phillips/Linda Burman-Hall/Lux Musica Ensemble / UTSAV! Celebrating Ravi Shankar: Raga & Raj

Used drive : TSSTcorpDVD+-RW TS-H653B Adapter: 2 ID: 0
Read mode : Secure with NO C2, accurate stream, disable cache
Read offset correction : 6
Overread into Lead-In and Lead-Out : No

Used output format : Internal WAV Routines
44.100 Hz; 16 Bit; Stereo

Other options :
Fill up missing offset samples with silence : Yes
Delete leading and trailing silent blocks : No
Native Win32 interface for Win NT & 2000


Track 1
Filename C:\Desktop\Barry Phillips, Linda Burman-Hall, Lux Musica Ensemble - UTSAV! Celebrating Ravi Shankar, Raga & Raj (2013) [FLAC] {East Meets West}\01 - Eight Ragas- Dreaming.wav

Pre-gap length 0:00:02.00

Peak level 53.4 %
Track quality 100.0 %
Test CRC CC8F3CFE
Copy CRC CC8F3CFE
Copy OK

Track 2
Filename C:\Desktop\Barry Phillips, Linda Burman-Hall, Lux Musica Ensemble - UTSAV! Celebrating Ravi Shankar, Raga & Raj (2013) [FLAC] {East Meets West}\02 - Eight Ragas- Awakening.wav

Peak level 99.9 %
Track quality 100.0 %
Test CRC AE4DB6C4
Copy CRC AE4DB6C4
Copy OK

Track 3
Filename C:\Desktop\Barry Phillips, Linda Burman-Hall, Lux Musica Ensemble - UTSAV! Celebrating Ravi Shankar, Raga & Raj (2013) [FLAC] {East Meets West}\03 - Eight Ragas- In Brindaban Forest.wav

Peak level 99.9 %
Track quality 100.0 %
Test CRC F236858F
Copy CRC F236858F
Copy OK

Track 4
Filename C:\Desktop\Barry Phillips, Linda Burman-Hall, Lux Musica Ensemble - UTSAV! Celebrating Ravi Shankar, Raga & Raj (2013) [FLAC] {East Meets West}\04 - Eight Ragas- Homage (based on melody by Ravi Shankar).wav

Peak level 99.9 %
Track quality 100.0 %
Test CRC 2AD6A7F1
Copy CRC 2AD6A7F1
Copy OK

Track 5
Filename C:\Desktop\Barry Phillips, Linda Burman-Hall, Lux Musica Ensemble - UTSAV! Celebrating Ravi Shankar, Raga & Raj (2013) [FLAC] {East Meets West}\05 - Eight Ragas- Quiet Hour.wav

Peak level 74.6 %
Track quality 100.0 %
Test CRC 4EEC4C81
Copy CRC 4EEC4C81
Copy OK

Track 6
Filename C:\Desktop\Barry Phillips, Linda Burman-Hall, Lux Musica Ensemble - UTSAV! Celebrating Ravi Shankar, Raga & Raj (2013) [FLAC] {East Meets West}\06 - Eight Ragas- Alap And Ground.wav

Peak level 96.6 %
Track quality 100.0 %
Test CRC E1C01EAE
Copy CRC E1C01EAE
Copy OK

Track 7
Filename C:\Desktop\Barry Phillips, Linda Burman-Hall, Lux Musica Ensemble - UTSAV! Celebrating Ravi Shankar, Raga & Raj (2013) [FLAC] {East Meets West}\07 - Eight Ragas- Conversation.wav

Peak level 99.9 %
Track quality 100.0 %
Test CRC B200D8EB
Copy CRC B200D8EB
Copy OK

Track 8
Filename C:\Desktop\Barry Phillips, Linda Burman-Hall, Lux Musica Ensemble - UTSAV! Celebrating Ravi Shankar, Raga & Raj (2013) [FLAC] {East Meets West}\08 - Eight Ragas- Finale.wav

Peak level 99.9 %
Track quality 100.0 %
Test CRC 86E1CFB7
Copy CRC 86E1CFB7
Copy OK

Track 9
Filename C:\Desktop\Barry Phillips, Linda Burman-Hall, Lux Musica Ensemble - UTSAV! Celebrating Ravi Shankar, Raga & Raj (2013) [FLAC] {East Meets West}\09 - Hindoostanee Airs- Rakhtah (Mutru be khoosh nuwa bego).wav

Pre-gap length 0:00:05.00

Peak level 82.5 %
Track quality 100.0 %
Test CRC 8027E339
Copy CRC 8027E339
Copy OK

Track 10
Filename C:\Desktop\Barry Phillips, Linda Burman-Hall, Lux Musica Ensemble - UTSAV! Celebrating Ravi Shankar, Raga & Raj (2013) [FLAC] {East Meets West}\10 - Hindoostanee Airs- Tuppah (Ouwel ke murabuh isht razee kurdee

Peak level 100.0 %
Track quality 100.0 %
Test CRC F4A0CF1F
Copy CRC F4A0CF1F
Copy OK

Track 11
Filename C:\Desktop\Barry Phillips, Linda Burman-Hall, Lux Musica Ensemble - UTSAV! Celebrating Ravi Shankar, Raga & Raj (2013) [FLAC] {East Meets West}\11 - Hindoostanee Airs- Rekhtah (Gid a Shumba).wav

Peak level 78.3 %
Track quality 100.0 %
Test CRC A81F2439
Copy CRC A81F2439
Copy OK

Track 12
Filename C:\Desktop\Barry Phillips, Linda Burman-Hall, Lux Musica Ensemble - UTSAV! Celebrating Ravi Shankar, Raga & Raj (2013) [FLAC] {East Meets West}\12 - Hindoostanee Airs- Tuppah (Kia kam keea dil ne).wav

Peak level 97.6 %
Track quality 100.0 %
Test CRC 0BE81993
Copy CRC 0BE81993
Copy OK

Track 13
Filename C:\Desktop\Barry Phillips, Linda Burman-Hall, Lux Musica Ensemble - UTSAV! Celebrating Ravi Shankar, Raga & Raj (2013) [FLAC] {East Meets West}\13 - Jahla Journey- Jahia I.wav

Pre-gap length 0:00:05.00

Peak level 88.8 %
Track quality 100.0 %
Test CRC 16031AD8
Copy CRC 16031AD8
Copy OK

Track 14
Filename C:\Desktop\Barry Phillips, Linda Burman-Hall, Lux Musica Ensemble - UTSAV! Celebrating Ravi Shankar, Raga & Raj (2013) [FLAC] {East Meets West}\14 - Jahla Journey- Jahia II.wav

Peak level 100.0 %
Track quality 99.9 %
Test CRC A5BFBC47
Copy CRC A5BFBC47
Copy OK

Track 15
Filename C:\Desktop\Barry Phillips, Linda Burman-Hall, Lux Musica Ensemble - UTSAV! Celebrating Ravi Shankar, Raga & Raj (2013) [FLAC] {East Meets West}\15 - Jahla Journey- Jahia III.wav

Peak level 99.0 %
Track quality 100.0 %
Test CRC 82DF139A
Copy CRC 82DF139A
Copy OK

Track 16
Filename C:\Desktop\Barry Phillips, Linda Burman-Hall, Lux Musica Ensemble - UTSAV! Celebrating Ravi Shankar, Raga & Raj (2013) [FLAC] {East Meets West}\16 - Jahla Journey- Jahia Duet.wav

Peak level 65.1 %
Track quality 100.0 %
Test CRC 16BDFFD7
Copy CRC 16BDFFD7
Copy OK

Track 17
Filename C:\Desktop\Barry Phillips, Linda Burman-Hall, Lux Musica Ensemble - UTSAV! Celebrating Ravi Shankar, Raga & Raj (2013) [FLAC] {East Meets West}\17 - Jahla Journey- Jahla In The Form Of A Ductia.wav

Peak level 99.2 %
Track quality 100.0 %
Test CRC 0C4C29F8
Copy CRC 0C4C29F8
Copy OK

Track 18
Filename C:\Desktop\Barry Phillips, Linda Burman-Hall, Lux Musica Ensemble - UTSAV! Celebrating Ravi Shankar, Raga & Raj (2013) [FLAC] {East Meets West}\18 - Jahla Journey- Serenade.wav

Peak level 74.1 %
Track quality 100.0 %
Test CRC F149E752
Copy CRC F149E752
Copy OK

Track 19
Filename C:\Desktop\Barry Phillips, Linda Burman-Hall, Lux Musica Ensemble - UTSAV! Celebrating Ravi Shankar, Raga & Raj (2013) [FLAC] {East Meets West}\19 - Raghapati Raghava Raja Ram.wav

Pre-gap length 0:00:05.00

Peak level 100.0 %
Track quality 100.0 %
Test CRC 01F62406
Copy CRC 01F62406
Copy OK

No errors occured


End of status report


Barry Phillips/Linda Buirham-Hall/Lux Musica Ensemble - UTSAV! Celebrating Ravi Shankar: Raga & Raj (2013) **[RE-UP]**

Barry Phillips/Linda Buirham-Hall/Lux Musica Ensemble - UTSAV! Celebrating Ravi Shankar: Raga & Raj (2013) **[RE-UP]**