Subcategories

Black Moon - Enta Da Stage (1993) {Wreck} **[RE-UP]**

Posted By: TestTickles
Black Moon - Enta Da Stage (1993) {Wreck} **[RE-UP]**

Black Moon - Enta Da Stage (1993) {Wreck}
EAC Rip | FLAC with CUE and log | scans | 349 mb
MP3 CBR 320kbps | RAR | 152 mb
Genre: hip-hop, rap

Enta Da Stage is the 1993 debut album by New York rap group Black Moon, which featured 5 Ft., Evil Dee, and Buckshot Shorty. This is the album that featured the hits "Who Got Da Props" and "How Many MC's…", plus original versions of "Buck Em Down" and "I Got Cha Opin" that would later be remixed and become hit songs.

Black Moon - Enta Da Stage (1993) {Wreck} **[RE-UP]**

FIRST STAGE
01. Powaful Impak
02. Niguz Talk Shit
03. Who Got Da Props
04. Ack Like U Want It
05. Buck Em Down
06. Black Smif-N-Wessun
07. Son Get Wrec

SECOND STAGE
08. Make Munne
09. Slave
10. I Got Cha Opin
11. Shit Iz Real
12. Enta Da Stage
13. How Many MC's…
14. U Da Man
–-
BLACK MOON:
Buckshot Shorty
5 Ft.
Evil Dee


Produced by Da Beatminerz

EAC extraction logfile from 13. June 2006, 21:35 for CD
Black Moon / Enta Da Stage

Used drive : LITE-ON DVDRW SOHW-1633S Adapter: 0 ID: 0
Read mode : Secure with NO C2, accurate stream, disable cache
Read offset correction : 12
Overread into Lead-In and Lead-Out : No

Used output format : Internal WAV Routines
44.100 Hz; 16 Bit; Stereo

Other options :
Fill up missing offset samples with silence : Yes
Delete leading and trailing silent blocks : No
Installed external ASPI interface


Track 1
Filename D:\FLAC\Black Moon - Enta Da Stage (1993) [FLAC] {Wreck}\01 - Powaful Impak.wav

Pre-gap length 0:00:02.66

Peak level 100.0 %
Track quality 100.0 %
Test CRC 549BC2DD
Copy CRC 549BC2DD
Copy OK

Track 2
Filename D:\FLAC\Black Moon - Enta Da Stage (1993) [FLAC] {Wreck}\02 - Niguz Talk Shit.wav

Pre-gap length 0:00:01.09

Peak level 100.0 %
Track quality 100.0 %
Test CRC AAFA817F
Copy CRC AAFA817F
Copy OK

Track 3
Filename D:\FLAC\Black Moon - Enta Da Stage (1993) [FLAC] {Wreck}\03 - Who Got Da Props.wav

Pre-gap length 0:00:01.89

Peak level 100.0 %
Track quality 100.0 %
Test CRC 86C09C67
Copy CRC 86C09C67
Copy OK

Track 4
Filename D:\FLAC\Black Moon - Enta Da Stage (1993) [FLAC] {Wreck}\04 - Ack Like U Want It.wav

Pre-gap length 0:00:00.16

Peak level 100.0 %
Track quality 99.9 %
Test CRC 45C3633F
Copy CRC 45C3633F
Copy OK

Track 5
Filename D:\FLAC\Black Moon - Enta Da Stage (1993) [FLAC] {Wreck}\05 - Buck Em Down.wav

Pre-gap length 0:00:00.76

Peak level 100.0 %
Track quality 100.0 %
Test CRC 9565B569
Copy CRC 9565B569
Copy OK

Track 6
Filename D:\FLAC\Black Moon - Enta Da Stage (1993) [FLAC] {Wreck}\06 - Black Smif-N-Wessun.wav

Pre-gap length 0:00:00.92

Peak level 100.0 %
Track quality 100.0 %
Test CRC 58629A4D
Copy CRC 58629A4D
Copy OK

Track 7
Filename D:\FLAC\Black Moon - Enta Da Stage (1993) [FLAC] {Wreck}\07 - Son Get Wrec.wav

Pre-gap length 0:00:01.96

Peak level 100.0 %
Track quality 100.0 %
Test CRC 49293939
Copy CRC 49293939
Copy OK

Track 8
Filename D:\FLAC\Black Moon - Enta Da Stage (1993) [FLAC] {Wreck}\08 - Make Munne.wav

Pre-gap length 0:00:01.09

Peak level 100.0 %
Track quality 100.0 %
Test CRC FD3BED8A
Copy CRC FD3BED8A
Copy OK

Track 9
Filename D:\FLAC\Black Moon - Enta Da Stage (1993) [FLAC] {Wreck}\09 - Slave.wav

Pre-gap length 0:00:01.36

Peak level 100.0 %
Track quality 100.0 %
Test CRC C883D902
Copy CRC C883D902
Copy OK

Track 10
Filename D:\FLAC\Black Moon - Enta Da Stage (1993) [FLAC] {Wreck}\10 - I Got Cha Opin.wav

Pre-gap length 0:00:01.06

Peak level 98.0 %
Track quality 100.0 %
Test CRC A68F4058
Copy CRC A68F4058
Copy OK

Track 11
Filename D:\FLAC\Black Moon - Enta Da Stage (1993) [FLAC] {Wreck}\11 - Shit Iz Real.wav

Pre-gap length 0:00:00.09

Peak level 100.0 %
Track quality 99.9 %
Test CRC C8CA6450
Copy CRC C8CA6450
Copy OK

Track 12
Filename D:\FLAC\Black Moon - Enta Da Stage (1993) [FLAC] {Wreck}\12 - Enta Da Stage.wav

Pre-gap length 0:00:00.73

Peak level 100.0 %
Track quality 100.0 %
Test CRC 94363A13
Copy CRC 94363A13
Copy OK

Track 13
Filename D:\FLAC\Black Moon - Enta Da Stage (1993) [FLAC] {Wreck}\13 - How Many MC's….wav

Pre-gap length 0:00:02.52

Peak level 100.0 %
Track quality 100.0 %
Test CRC 6DC650B0
Copy CRC 6DC650B0
Copy OK

Track 14
Filename D:\FLAC\Black Moon - Enta Da Stage (1993) [FLAC] {Wreck}\14 - U Da Man.wav

Pre-gap length 0:00:00.66

Peak level 100.0 %
Track quality 100.0 %
Test CRC 0ED88834
Copy CRC 0ED88834
Copy OK

No errors occured


End of status report


Black Moon - Enta Da Stage (1993) {Wreck} **[RE-UP]**