Subcategories

Blue Murder - s/t (1989) {Geffen} **[RE-UP]**

Posted By: TestTickles
Blue Murder - s/t (1989) {Geffen} **[RE-UP]**

Blue Murder - s/t (1989) {Geffen}
EAC Rip | FLAC with CUE and log | scans | 375 gb
MP3 CBR 320kbps | RAR | 143 mb
Genre: hard rock, classic rock

Blue Murder were a hard rock supergroup featuring John Sykes, Tony Franklin, and Carmine Appice. This was Sykes' project after departing from Whitesnake and they weer signed with Geffen. The album featured two singles, "Valley Of The Kings" and "Jelly Roll".

Blue Murder - s/t (1989) {Geffen} **[RE-UP]**

1. Riot
2. Sex Child
3. Valley Of The Kings
4. Jelly Roll
5. Blue Murder
6. Out Of Love
7. Billy
8. Ptolemy
9. Black Hearted Woman

EAC extraction logfile from 23. July 2006, 21:00 for CD
Blue Murder / Blue Murder

Used drive : LITE-ON DVDRW SOHW-1633S Adapter: 0 ID: 0
Read mode : Secure with NO C2, accurate stream, disable cache
Read offset correction : 12
Overread into Lead-In and Lead-Out : No

Used output format : Internal WAV Routines
44.100 Hz; 16 Bit; Stereo

Other options :
Fill up missing offset samples with silence : Yes
Delete leading and trailing silent blocks : No
Installed external ASPI interface


Track 1
Filename D:\FLAC\Blue Murder - s-t (1989) [FLAC]\01 - Riot.wav

Pre-gap length 0:00:02.00

Peak level 100.0 %
Track quality 99.9 %
Test CRC EE86E47B
Copy CRC EE86E47B
Copy OK

Track 2
Filename D:\FLAC\Blue Murder - s-t (1989) [FLAC]\02 - Sex Child.wav

Peak level 98.9 %
Track quality 100.0 %
Test CRC 90765B4A
Copy CRC 90765B4A
Copy OK

Track 3
Filename D:\FLAC\Blue Murder - s-t (1989) [FLAC]\03 - Valley Of The Kings.wav

Pre-gap length 0:00:00.90

Peak level 83.3 %
Track quality 100.0 %
Test CRC CCDAB008
Copy CRC CCDAB008
Copy OK

Track 4
Filename D:\FLAC\Blue Murder - s-t (1989) [FLAC]\04 - Jelly Roll.wav

Peak level 99.9 %
Track quality 100.0 %
Test CRC CFBAC695
Copy CRC CFBAC695
Copy OK

Track 5
Filename D:\FLAC\Blue Murder - s-t (1989) [FLAC]\05 - Blue Murder.wav

Pre-gap length 0:00:00.96

Peak level 98.3 %
Track quality 100.0 %
Test CRC C8BCB428
Copy CRC C8BCB428
Copy OK

Track 6
Filename D:\FLAC\Blue Murder - s-t (1989) [FLAC]\06 - Out Of Love.wav

Pre-gap length 0:00:00.70

Peak level 79.8 %
Track quality 100.0 %
Test CRC B7E9778A
Copy CRC B7E9778A
Copy OK

Track 7
Filename D:\FLAC\Blue Murder - s-t (1989) [FLAC]\07 - Billy.wav

Peak level 92.2 %
Track quality 100.0 %
Test CRC D44CAE73
Copy CRC D44CAE73
Copy OK

Track 8
Filename D:\FLAC\Blue Murder - s-t (1989) [FLAC]\08 - Ptolemy.wav

Peak level 93.8 %
Track quality 100.0 %
Test CRC 235C8099
Copy CRC 235C8099
Copy OK

Track 9
Filename D:\FLAC\Blue Murder - s-t (1989) [FLAC]\09 - Black Hearted Woman.wav

Peak level 100.0 %
Track quality 100.0 %
Test CRC 6B9BEEA9
Copy CRC 6B9BEEA9
Copy OK

No errors occured


End of status report


Blue Murder - s/t (1989) {Geffen} **[RE-UP]**