Subcategories

Brigitte Bardot - s/t (1986) {PolyGram}

Posted By: TestTickles
Brigitte Bardot - s/t (1986) {PolyGram}

Brigitte Bardot - s/t (1986) {PolyGram}
EAC Rip | FLAC with CUE and log | scans | 223 mb
MP3 CBR 320kbps | RAR | 90 mb
Genre: Chanson, pop

Brigitte Bardot is a self-titled compilation album released by PolyGram Records in 1986. The majority of the songs are in French but a small handful are in English.

Brigitte Bardot - s/t (1986) {PolyGram}

1. Je T'Aime Moi Non Plus (Remix 86) (4:32)
2. Je Me Donne À Qui Me Plait (2:00)
3. Nue Au Soleil (2:20)
4. Moi Je Joue (1:43)
5. Sidonie (2:50)
6. Tu Veux, Tu Veux Pas (2:30)
7. Invitango (2:32)
8. L'Appareil À Sous (2:25)
9. La Madrague (2:35)
10. C'Est Rigolo (2:53)
11. Noir Et Blanc (1:43)
12. Je Danse Donc Je Suis (1:52)
13. Bubble Gum (1:45)
14. Maria Ninguem (2:32)
15. Everybody Loves My Baby (2:12)
16. Bonnie And Clyde (Remix 86) (4:12)

Tracks 1 and 16 with Serge Gainsbourg

Exact Audio Copy V1.1 from 23. June 2015

EAC extraction logfile from 5. November 2016, 9:36

Brigitte Bardot / Brigitte Bardot

Used drive : TEAC DVD-ROM DV-28SW Adapter: 1 ID: 0

Read mode : Secure
Utilize accurate stream : Yes
Defeat audio cache : Yes
Make use of C2 pointers : No

Read offset correction : 6
Overread into Lead-In and Lead-Out : No
Fill up missing offset samples with silence : Yes
Delete leading and trailing silent blocks : No
Null samples used in CRC calculations : Yes
Used interface : Native Win32 interface for Win NT & 2000
Gap handling : Appended to previous track

Used output format : Internal WAV Routines
Sample format : 44.100 Hz; 16 Bit; Stereo


TOC of the extracted CD

Track | Start | Length | Start sector | End sector
––––––––––––––––––––––––––––-
1 | 0:00.33 | 4:32.17 | 33 | 20449
2 | 4:32.50 | 2:00.63 | 20450 | 29512
3 | 6:33.38 | 2:21.57 | 29513 | 40144
4 | 8:55.20 | 1:40.00 | 40145 | 47644
5 | 10:35.20 | 2:53.23 | 47645 | 60642
6 | 13:28.43 | 2:32.22 | 60643 | 72064
7 | 16:00.65 | 2:33.35 | 72065 | 83574
8 | 18:34.25 | 1:28.40 | 83575 | 90214
9 | 20:02.65 | 2:34.30 | 90215 | 101794
10 | 22:37.20 | 2:52.35 | 101795 | 114729
11 | 25:29.55 | 1:45.33 | 114730 | 122637
12 | 27:15.13 | 1:55.52 | 122638 | 131314
13 | 29:10.65 | 1:46.05 | 131315 | 139269
14 | 30:56.70 | 2:39.63 | 139270 | 151257
15 | 33:36.58 | 2:12.02 | 151258 | 161159
16 | 35:48.60 | 4:11.15 | 161160 | 179999


Track 1

Filename C:\My Documents\My FLAC\Brigitte Bardot - s-t (1986) [FLAC] {PolyGram}\01 - Je t'aime moi non plus.wav

Pre-gap length 0:00:02.33

Peak level 96.3 %
Extraction speed 1.1 X
Track quality 99.9 %
Test CRC 6B5AD12C
Copy CRC 6B5AD12C
Accurately ripped (confidence 5) [05B69B03] (AR v2)
Copy OK

Track 2

Filename C:\My Documents\My FLAC\Brigitte Bardot - s-t (1986) [FLAC] {PolyGram}\02 - Je me donne à qui me plaît.wav

Pre-gap length 0:00:02.09

Peak level 87.4 %
Extraction speed 0.9 X
Track quality 99.9 %
Test CRC 4E4F7D5F
Copy CRC 4E4F7D5F
Accurately ripped (confidence 5) [A92652D0] (AR v2)
Copy OK

Track 3

Filename C:\My Documents\My FLAC\Brigitte Bardot - s-t (1986) [FLAC] {PolyGram}\03 - Nue au soleil.wav

Pre-gap length 0:00:02.20

Peak level 93.6 %
Extraction speed 1.0 X
Track quality 99.9 %
Test CRC 0D1D410B
Copy CRC 0D1D410B
Accurately ripped (confidence 5) [983C2E84] (AR v2)
Copy OK

Track 4

Filename C:\My Documents\My FLAC\Brigitte Bardot - s-t (1986) [FLAC] {PolyGram}\04 - Moi je joue.wav

Pre-gap length 0:00:00.69

Peak level 90.2 %
Extraction speed 1.2 X
Track quality 100.0 %
Test CRC 9ECFCCB7
Copy CRC 9ECFCCB7
Accurately ripped (confidence 6) [53500A23] (AR v2)
Copy OK

Track 5

Filename C:\My Documents\My FLAC\Brigitte Bardot - s-t (1986) [FLAC] {PolyGram}\05 - Sidonie.wav

Pre-gap length 0:00:01.67

Peak level 82.1 %
Extraction speed 1.2 X
Track quality 99.9 %
Test CRC 1021F759
Copy CRC 1021F759
Accurately ripped (confidence 5) [26B62F14] (AR v2)
Copy OK

Track 6

Filename C:\My Documents\My FLAC\Brigitte Bardot - s-t (1986) [FLAC] {PolyGram}\06 - Tu veux, tu veux pas.wav

Pre-gap length 0:00:02.25

Peak level 86.4 %
Extraction speed 1.5 X
Track quality 100.0 %
Test CRC 6EC487F0
Copy CRC 6EC487F0
Accurately ripped (confidence 6) [B21FB123] (AR v2)
Copy OK

Track 7

Filename C:\My Documents\My FLAC\Brigitte Bardot - s-t (1986) [FLAC] {PolyGram}\07 - Invitango.wav

Pre-gap length 0:00:01.22

Peak level 89.5 %
Extraction speed 0.3 X
Track quality 100.0 %
Test CRC B599C681
Copy CRC B599C681
Accurately ripped (confidence 6) [521BA773] (AR v2)
Copy OK

Track 8

Filename C:\My Documents\My FLAC\Brigitte Bardot - s-t (1986) [FLAC] {PolyGram}\08 - L'appareil à sous.wav

Pre-gap length 0:00:01.47

Peak level 80.3 %
Extraction speed 1.3 X
Track quality 100.0 %
Test CRC A3038433
Copy CRC A3038433
Accurately ripped (confidence 6) [10760426] (AR v2)
Copy OK

Track 9

Filename C:\My Documents\My FLAC\Brigitte Bardot - s-t (1986) [FLAC] {PolyGram}\09 - La madrague.wav

Pre-gap length 0:00:02.57

Peak level 78.8 %
Extraction speed 1.6 X
Track quality 100.0 %
Test CRC 780C6FB9
Copy CRC 780C6FB9
Accurately ripped (confidence 6) [CC457238] (AR v2)
Copy OK

Track 10

Filename C:\My Documents\My FLAC\Brigitte Bardot - s-t (1986) [FLAC] {PolyGram}\10 - C'est rigolo.wav

Pre-gap length 0:00:02.02

Peak level 95.8 %
Extraction speed 1.7 X
Track quality 100.0 %
Test CRC 88A2595A
Copy CRC 88A2595A
Accurately ripped (confidence 5) [CF5DCE12] (AR v2)
Copy OK

Track 11

Filename C:\My Documents\My FLAC\Brigitte Bardot - s-t (1986) [FLAC] {PolyGram}\11 - Noir et Blanc.wav

Pre-gap length 0:00:01.42

Peak level 78.8 %
Extraction speed 1.6 X
Track quality 100.0 %
Test CRC 06250722
Copy CRC 06250722
Accurately ripped (confidence 4) [20FBEDC4] (AR v2)
Copy OK

Track 12

Filename C:\My Documents\My FLAC\Brigitte Bardot - s-t (1986) [FLAC] {PolyGram}\12 - Je danse donc je suis.wav

Pre-gap length 0:00:03.17

Peak level 84.7 %
Extraction speed 1.6 X
Track quality 100.0 %
Test CRC C5E59752
Copy CRC C5E59752
Accurately ripped (confidence 5) [2D948081] (AR v2)
Copy OK

Track 13

Filename C:\My Documents\My FLAC\Brigitte Bardot - s-t (1986) [FLAC] {PolyGram}\13 - Bubble gum.wav

Pre-gap length 0:00:02.74

Peak level 75.3 %
Extraction speed 1.6 X
Track quality 100.0 %
Test CRC 3618E89B
Copy CRC 3618E89B
Accurately ripped (confidence 5) [DDF530C6] (AR v2)
Copy OK

Track 14

Filename C:\My Documents\My FLAC\Brigitte Bardot - s-t (1986) [FLAC] {PolyGram}\14 - Maria Ninguem.wav

Pre-gap length 0:00:01.67

Peak level 80.7 %
Extraction speed 1.8 X
Track quality 100.0 %
Test CRC E57A3107
Copy CRC E57A3107
Accurately ripped (confidence 5) [B3237562] (AR v2)
Copy OK

Track 15

Filename C:\My Documents\My FLAC\Brigitte Bardot - s-t (1986) [FLAC] {PolyGram}\15 - Everybody Loves My Baby.wav

Pre-gap length 0:00:01.65

Peak level 73.3 %
Extraction speed 1.8 X
Track quality 100.0 %
Test CRC 13A75D62
Copy CRC 13A75D62
Accurately ripped (confidence 4) [05BA1C09] (AR v2)
Copy OK

Track 16

Filename C:\My Documents\My FLAC\Brigitte Bardot - s-t (1986) [FLAC] {PolyGram}\16 - Bonnie And Clyde.wav

Pre-gap length 0:00:01.62

Peak level 90.2 %
Extraction speed 2.0 X
Track quality 100.0 %
Test CRC 8D977572
Copy CRC 8D977572
Accurately ripped (confidence 5) [133F02A7] (AR v2)
Copy OK


All tracks accurately ripped

No errors occurred

End of status report

–– CUETools DB Plugin V2.1.6

[CTDB TOCID: 5Mk7EAhXUHiYx1Wdv8KjxXBzxPc-] found
Submit result: 5Mk7EAhXUHiYx1Wdv8KjxXBzxPc- has been confirmed
Track | CTDB Status
1 | (4/4) Accurately ripped
2 | (4/4) Accurately ripped
3 | (4/4) Accurately ripped
4 | (4/4) Accurately ripped
5 | (4/4) Accurately ripped
6 | (4/4) Accurately ripped
7 | (4/4) Accurately ripped
8 | (4/4) Accurately ripped
9 | (4/4) Accurately ripped
10 | (4/4) Accurately ripped
11 | (4/4) Accurately ripped
12 | (4/4) Accurately ripped
13 | (4/4) Accurately ripped
14 | (4/4) Accurately ripped
15 | (4/4) Accurately ripped
16 | (4/4) Accurately ripped


==== Log checksum 6245450A781935CA0E8912A866B69EBE69565BDA702FBED08CA3B4E9E811B3B1 ====


Brigitte Bardot - s/t (1986) {PolyGram}
NITROFLARE (FLAC)
NITROFLARE (MP3)