Subcategories

VA - The Roxy London WC2: A Live Punk Box Set (2005) Repost

Posted By: v3122
VA - The Roxy London WC2: A Live Punk Box Set (2005) Repost

VA - The Roxy London WC2: A Live Punk Box Set (2005)
EAC | Flac(Image) + Cue + Log & MP3 CBR 320Kbps
6CD | Castle Music, CMXBX1066 | ~ 1302 or 521 Mb | Scans(jpg) -> 57 Mb
Punk

Residing on Neal Street, Covent Garden this Rather Dingy Gay Club's One Year Sacrifice to the Emerging Punk Scene and the Contribution it Made as a Launch Pad Cannot Be Overstated. From Late '76 Up Until January 1978, the Roxy Club Played Host to Many Bands that to this Day, have a Lasting Influence Upon the Punk Scene. First to (Dis)grace the Stage were Generation X on 21st December 1976 Supported by Siouxsie and the Banshees. Gene October's, Chelsea, Closely Followed. From Here, the Flood Gates Opened and Along with Other London Bands Like the Damned, Bands from as Far as Manchester, Newcastle and Bristol Queued Up. Resident Rastafarian D.j., Don Letts Played Mostly Reggae and Dub Music Fuelling a Significant Appreciation of Jamaican Music which Bands Like the Clash Used to Great Affect. This 6-CD Box Set Asembles Performances from a Number of Key Bands Such As, Buzzcocks, the Adverts, X-ray Spex and UK Subs.
VA - The Roxy London WC2: A Live Punk Box Set (2005):

VA - The Roxy London WC2: A Live Punk Box Set (2005) Repost

Tracklist CD1 - The Roxy London WC2 (Jan-Apr 77):

01.Slaughter And The Dogs - Runaway
02.Slaughter And The Dogs - Boston Babies
03.The Unwanted - Freedom
04.Wire - Lowdown
05.Wire - 1.2.X.U.
06.The Adverts - Bored Teenagers
07.Johnny Moped - Hard Lovin' Man
08.Eater - Don't Need It
09.Eater - 15
10.X-Ray Spex - Oh Bondage! Up Yours
11.Buzzcocks - Breakdown
12.Buzzcocks - Love Battery

Exact Audio Copy V1.0 beta 3 from 29. August 2011

EAC extraction logfile from 29. January 2013, 9:50

Various / The Roxy London WC2 (Jan - Apr 77)

Used drive : Optiarc DVD RW AD-5170A Adapter: 0 ID: 0

Read mode : Secure
Utilize accurate stream : Yes
Defeat audio cache : Yes
Make use of C2 pointers : No

Read offset correction : 48
Overread into Lead-In and Lead-Out : No
Fill up missing offset samples with silence : Yes
Delete leading and trailing silent blocks : No
Null samples used in CRC calculations : Yes
Used interface : Native Win32 interface for Win NT & 2000

Used output format : User Defined Encoder
Selected bitrate : 128 kBit/s
Quality : High
Add ID3 tag : No
Command line compressor : C:\Program Files\Exact Audio Copy\Flac\flac.exe
Additional command line options : -V -8 -T "Date=%year%" -T "Genre=%genre%" %source%


TOC of the extracted CD

Track | Start | Length | Start sector | End sector
––––––––––––––––––––––––––––-
1 | 0:00.00 | 4:35.27 | 0 | 20651
2 | 4:35.27 | 3:59.30 | 20652 | 38606
3 | 8:34.57 | 2:45.15 | 38607 | 50996
4 | 11:19.72 | 2:52.05 | 50997 | 63901
5 | 14:12.02 | 2:08.00 | 63902 | 73501
6 | 16:20.02 | 2:13.73 | 73502 | 83549
7 | 18:34.00 | 3:48.22 | 83550 | 100671
8 | 22:22.22 | 2:24.68 | 100672 | 111539
9 | 24:47.15 | 1:56.72 | 111540 | 120311
10 | 26:44.12 | 3:13.00 | 120312 | 134786
11 | 29:57.12 | 2:20.55 | 134787 | 145341
12 | 32:17.67 | 2:49.50 | 145342 | 158066


Range status and errors

Selected range

Filename C:\Documents and Settings\Пользователь\Рабочий стол\The Roxy London WC2 - A Live Punk Box Set\CD1 - The Roxy London WC2 (Jan - Apr 77)\Various - The Roxy London WC2 (Jan - Apr 77).wav

Peak level 98.1 %
Extraction speed 1.7 X
Range quality 99.9 %
Test CRC E4945BCE
Copy CRC E4945BCE
Copy OK

No errors occurred


AccurateRip summary

Track 1 accurately ripped (confidence 1) [3BBB5A19] (AR v1)
Track 2 accurately ripped (confidence 1) [E895EE9D] (AR v1)
Track 3 accurately ripped (confidence 1) [FCFB2FF7] (AR v1)
Track 4 accurately ripped (confidence 1) [EAF97345] (AR v1)
Track 5 accurately ripped (confidence 1) [1C6F9142] (AR v1)
Track 6 accurately ripped (confidence 1) [219EF7D5] (AR v1)
Track 7 accurately ripped (confidence 1) [F4A5D0D3] (AR v1)
Track 8 accurately ripped (confidence 1) [C6216021] (AR v1)
Track 9 accurately ripped (confidence 1) [458CB7FD] (AR v1)
Track 10 accurately ripped (confidence 1) [15FFE5E3] (AR v1)
Track 11 accurately ripped (confidence 1) [D7CBD44A] (AR v1)
Track 12 accurately ripped (confidence 1) [18061728] (AR v1)

All tracks accurately ripped

End of status report

==== Log checksum 2D1121FBF68D87FFBEE03789E398287D575BB64C45799BBB35FB0E04338802C2 ====


VA - The Roxy London WC2: A Live Punk Box Set (2005) Repost

Tracklist CD2 - Buzzcocks:

01.Buzzcocks - Orgasm Addict
02.Buzzcocks - No Reply
03.Buzzcocks - Get On Your Own
04.Buzzcocks - Fast Cars
05.Buzzcocks - What Do I Get
06.Buzzcocks - Friends Of Mine
07.Buzzcocks - Sixteen
08.Buzzcocks - Time's Up
09.Buzzcocks - Oh Shit
10.Buzzcocks - Boredom
11.Buzzcocks - Love Battery
12.Buzzcocks - Breakdown
13.Buzzcocks - Love Battery

Exact Audio Copy V1.0 beta 3 from 29. August 2011

EAC extraction logfile from 29. January 2013, 8:56

BUZZCOCKS / Live At The Roxy

Used drive : Optiarc DVD RW AD-5170A Adapter: 0 ID: 0

Read mode : Secure
Utilize accurate stream : Yes
Defeat audio cache : Yes
Make use of C2 pointers : No

Read offset correction : 48
Overread into Lead-In and Lead-Out : No
Fill up missing offset samples with silence : Yes
Delete leading and trailing silent blocks : No
Null samples used in CRC calculations : Yes
Used interface : Native Win32 interface for Win NT & 2000

Used output format : User Defined Encoder
Selected bitrate : 128 kBit/s
Quality : High
Add ID3 tag : No
Command line compressor : C:\Program Files\Exact Audio Copy\Flac\flac.exe
Additional command line options : -V -8 -T "Date=%year%" -T "Genre=%genre%" %source%


TOC of the extracted CD

Track | Start | Length | Start sector | End sector
––––––––––––––––––––––––––––-
1 | 0:00.00 | 3:08.20 | 0 | 14119
2 | 3:08.20 | 2:40.72 | 14120 | 26191
3 | 5:49.17 | 2:01.50 | 26192 | 35316
4 | 7:50.67 | 2:28.48 | 35317 | 46464
5 | 10:19.40 | 3:30.52 | 46465 | 62266
6 | 13:50.17 | 2:46.63 | 62267 | 74779
7 | 16:37.05 | 3:22.12 | 74780 | 89941
8 | 19:59.17 | 3:34.33 | 89942 | 106024
9 | 23:33.50 | 1:58.12 | 106025 | 114886
10 | 25:31.62 | 3:55.40 | 114887 | 132551
11 | 29:27.27 | 2:43.38 | 132552 | 144814
12 | 32:10.65 | 2:23.55 | 144815 | 155594
13 | 34:34.45 | 2:25.05 | 155595 | 166474


Range status and errors

Selected range

Filename C:\Documents and Settings\Пользователь\Рабочий стол\The Roxy London WC2 - A Live Punk Box Set\CD2 - BUZZCOCKS\BUZZCOCKS - Live At The Roxy.wav

Peak level 98.2 %
Extraction speed 1.8 X
Range quality 100.0 %
Test CRC 93137E31
Copy CRC 93137E31
Copy OK

No errors occurred


AccurateRip summary

Track 1 accurately ripped (confidence 1) [742FF95D] (AR v1)
Track 2 accurately ripped (confidence 1) [3394A4BC] (AR v1)
Track 3 accurately ripped (confidence 1) [3D7C0676] (AR v1)
Track 4 accurately ripped (confidence 1) [D04012FB] (AR v1)
Track 5 accurately ripped (confidence 1) [67A301CC] (AR v1)
Track 6 accurately ripped (confidence 1) [633360AB] (AR v1)
Track 7 accurately ripped (confidence 1) [47707D39] (AR v1)
Track 8 accurately ripped (confidence 1) [389A2B75] (AR v1)
Track 9 accurately ripped (confidence 1) [99CFC708] (AR v1)
Track 10 accurately ripped (confidence 1) [2B20B37E] (AR v1)
Track 11 accurately ripped (confidence 1) [F0A61AE5] (AR v1)
Track 12 accurately ripped (confidence 1) [C24007C3] (AR v1)
Track 13 accurately ripped (confidence 1) [63ED9B62] (AR v1)

All tracks accurately ripped

End of status report

==== Log checksum 0267CBE04CFA65265F81544C820E9C4C0A1B6FD6369B2E12320CA5CA6E16B6C9 ====


VA - The Roxy London WC2: A Live Punk Box Set (2005) Repost

Tracklist CD3 - The Adverts:

01.The Adverts - Safety In Numbers
02.The Adverts - New Boys
03.The Adverts - One Chord Wonders
04.The Adverts - On The Roof
05.The Adverts - New Day Dawning
06.The Adverts - Great British Mistake
07.The Adverts - Bombsite Boys
08.The Adverts - No Time To Be 21
09.The Adverts - Quickstep
10.The Adverts - New Church
11.The Adverts - Bored Teenagers
12.The Adverts - Gary Gilmore's Eyes

Exact Audio Copy V1.0 beta 3 from 29. August 2011

EAC extraction logfile from 29. January 2013, 8:08

The ADVERTS / Live At The Roxy

Used drive : Optiarc DVD RW AD-5170A Adapter: 0 ID: 0

Read mode : Secure
Utilize accurate stream : Yes
Defeat audio cache : Yes
Make use of C2 pointers : No

Read offset correction : 48
Overread into Lead-In and Lead-Out : No
Fill up missing offset samples with silence : Yes
Delete leading and trailing silent blocks : No
Null samples used in CRC calculations : Yes
Used interface : Native Win32 interface for Win NT & 2000

Used output format : User Defined Encoder
Selected bitrate : 128 kBit/s
Quality : High
Add ID3 tag : No
Command line compressor : C:\Program Files\Exact Audio Copy\Flac\flac.exe
Additional command line options : -V -8 -T "Date=%year%" -T "Genre=%genre%" %source%


TOC of the extracted CD

Track | Start | Length | Start sector | End sector
––––––––––––––––––––––––––––-
1 | 0:00.00 | 3:48.22 | 0 | 17121
2 | 3:48.22 | 3:34.10 | 17122 | 33181
3 | 7:22.32 | 2:41.38 | 33182 | 45294
4 | 10:03.70 | 3:06.25 | 45295 | 59269
5 | 13:10.20 | 2:35.67 | 59270 | 70961
6 | 15:46.12 | 3:26.03 | 70962 | 86414
7 | 19:12.15 | 3:22.65 | 86415 | 101629
8 | 22:35.05 | 2:47.60 | 101630 | 114214
9 | 25:22.65 | 3:19.05 | 114215 | 129144
10 | 28:41.70 | 2:34.62 | 129145 | 140756
11 | 31:16.57 | 2:10.58 | 140757 | 150564
12 | 33:27.40 | 2:40.37 | 150565 | 162601


Range status and errors

Selected range

Filename C:\Documents and Settings\Пользователь\Рабочий стол\The Roxy London WC2 - A Live Punk Box Set\CD3 - The ADVERTS\The ADVERTS - Live At The Roxy.wav

Peak level 100.0 %
Extraction speed 1.7 X
Range quality 100.0 %
Test CRC BE331944
Copy CRC BE331944
Copy OK

No errors occurred


AccurateRip summary

Track 1 accurately ripped (confidence 1) [0DEB8113] (AR v1)
Track 2 accurately ripped (confidence 1) [A2FCBA6E] (AR v1)
Track 3 accurately ripped (confidence 1) [1B7D2478] (AR v1)
Track 4 accurately ripped (confidence 1) [9CF7B1E6] (AR v1)
Track 5 accurately ripped (confidence 1) [2EF98320] (AR v1)
Track 6 accurately ripped (confidence 1) [70F03A66] (AR v1)
Track 7 accurately ripped (confidence 1) [80241335] (AR v1)
Track 8 accurately ripped (confidence 1) [371408F0] (AR v1)
Track 9 accurately ripped (confidence 1) [FE1F181D] (AR v1)
Track 10 accurately ripped (confidence 1) [CD8FF23C] (AR v1)
Track 11 accurately ripped (confidence 1) [7481AD0E] (AR v1)
Track 12 accurately ripped (confidence 1) [BC795E8D] (AR v1)

All tracks accurately ripped

End of status report

==== Log checksum 8224785B6329CB8321C5846967ADA4F982BADAA7EA23BAF8E6EAB2E0A827FD34 ====


VA - The Roxy London WC2: A Live Punk Box Set (2005) Repost

Tracklist CD4 - X-Ray Spex:

01.X-Ray Spex - Oh Bondage! Up Yours!
02.X-Ray Spex - Identity
03.X-Ray Spex - Let's Submerge
04.X-Ray Spex - Plastic Bag
05.X-Ray Spex - I Live Off You
06.X-Ray Spex - I Am A Cliché
07.X-Ray Spex - I Can't Do Anything
08.X-Ray Spex - Oh Bondage! Up Yours!

Exact Audio Copy V1.0 beta 3 from 29. August 2011

EAC extraction logfile from 29. January 2013, 7:20

X-RAY SPEX / Live At The Roxy

Used drive : Optiarc DVD RW AD-5170A Adapter: 0 ID: 0

Read mode : Secure
Utilize accurate stream : Yes
Defeat audio cache : Yes
Make use of C2 pointers : No

Read offset correction : 48
Overread into Lead-In and Lead-Out : No
Fill up missing offset samples with silence : Yes
Delete leading and trailing silent blocks : No
Null samples used in CRC calculations : Yes
Used interface : Native Win32 interface for Win NT & 2000

Used output format : User Defined Encoder
Selected bitrate : 128 kBit/s
Quality : High
Add ID3 tag : No
Command line compressor : C:\Program Files\Exact Audio Copy\Flac\flac.exe
Additional command line options : -V -8 -T "Date=%year%" -T "Genre=%genre%" %source%


TOC of the extracted CD

Track | Start | Length | Start sector | End sector
––––––––––––––––––––––––––––-
1 | 0:00.00 | 2:41.60 | 0 | 12134
2 | 2:41.60 | 2:25.12 | 12135 | 23021
3 | 5:06.72 | 3:05.38 | 23022 | 36934
4 | 8:12.35 | 4:12.02 | 36935 | 55836
5 | 12:24.37 | 2:17.60 | 55837 | 66171
6 | 14:42.22 | 1:48.60 | 66172 | 74331
7 | 16:31.07 | 3:00.33 | 74332 | 87864
8 | 19:31.40 | 2:59.55 | 87865 | 101344


Range status and errors

Selected range

Filename C:\Documents and Settings\Пользователь\Рабочий стол\The Roxy London WC2 - A Live Punk Box Set\CD4 - X-RAY SPEX\X-RAY SPEX - Live At The Roxy.wav

Peak level 98.1 %
Extraction speed 1.5 X
Range quality 99.9 %
Test CRC F923D19F
Copy CRC F923D19F
Copy OK

No errors occurred


AccurateRip summary

Track 1 accurately ripped (confidence 1) [F8B5C888] (AR v1)
Track 2 accurately ripped (confidence 1) [CA49530A] (AR v1)
Track 3 accurately ripped (confidence 1) [EAF57848] (AR v1)
Track 4 accurately ripped (confidence 1) [7F117BDC] (AR v1)
Track 5 accurately ripped (confidence 1) [C368727F] (AR v1)
Track 6 accurately ripped (confidence 1) [3A54FBB4] (AR v1)
Track 7 accurately ripped (confidence 1) [71527270] (AR v1)
Track 8 accurately ripped (confidence 1) [030E41C8] (AR v1)

All tracks accurately ripped

End of status report

==== Log checksum 709B29A88B8E32FCEF7D519FB7E374AF81427199AA7691D447C5397607D51D31 ====


VA - The Roxy London WC2: A Live Punk Box Set (2005) Repost

Tracklist CD5 - UK Subs:

01.U.K. Subs - B.I.C.
02.U.K. Subs - I Couldn't Be You
03.U.K. Subs - I Live In A Car
04.U.K. Subs - Tomorrow's Girls
05.U.K. Subs - Stranglehold
06.U.K. Subs - Illegal 15
07.U.K. Subs - C.I.D.
08.U.K. Subs - No Rules (Victim)
09.U.K. Subs - Lady Esquire
10.U.K. Subs - Telephone Numbers
11.U.K. Subs - World War
12.U.K. Subs - Disease

Exact Audio Copy V1.0 beta 3 from 29. August 2011

EAC extraction logfile from 28. January 2013, 23:34

U.K. SUBS / Live At The Roxy

Used drive : Optiarc DVD RW AD-5170A Adapter: 0 ID: 0

Read mode : Secure
Utilize accurate stream : Yes
Defeat audio cache : Yes
Make use of C2 pointers : No

Read offset correction : 48
Overread into Lead-In and Lead-Out : No
Fill up missing offset samples with silence : Yes
Delete leading and trailing silent blocks : No
Null samples used in CRC calculations : Yes
Used interface : Native Win32 interface for Win NT & 2000

Used output format : User Defined Encoder
Selected bitrate : 128 kBit/s
Quality : High
Add ID3 tag : No
Command line compressor : C:\Program Files\Exact Audio Copy\Flac\flac.exe
Additional command line options : -V -8 -T "Date=%year%" -T "Genre=%genre%" %source%


TOC of the extracted CD

Track | Start | Length | Start sector | End sector
––––––––––––––––––––––––––––-
1 | 0:00.00 | 2:01.72 | 0 | 9146
2 | 2:01.72 | 2:06.38 | 9147 | 18634
3 | 4:08.35 | 1:14.35 | 18635 | 24219
4 | 5:22.70 | 2:23.72 | 24220 | 35016
5 | 7:46.67 | 2:18.28 | 35017 | 45394
6 | 10:05.20 | 1:07.57 | 45395 | 50476
7 | 11:13.02 | 2:25.68 | 50477 | 61419
8 | 13:38.70 | 1:24.55 | 61420 | 67774
9 | 15:03.50 | 1:55.72 | 67775 | 76471
10 | 16:59.47 | 1:26.15 | 76472 | 82936
11 | 18:25.62 | 2:06.68 | 82937 | 92454
12 | 20:32.55 | 1:23.10 | 92455 | 98689


Range status and errors

Selected range

Filename C:\Documents and Settings\Пользователь\Рабочий стол\The Roxy London WC2 - A Live Punk Box Set\CD5 - U.K. SUBS\U.K. SUBS - Live At The Roxy.wav

Peak level 99.9 %
Extraction speed 1.5 X
Range quality 100.0 %
Test CRC 364269AD
Copy CRC 364269AD
Copy OK

No errors occurred


AccurateRip summary

Track 1 accurately ripped (confidence 2) [1A644720] (AR v1)
Track 2 accurately ripped (confidence 2) [41CCEE91] (AR v1)
Track 3 accurately ripped (confidence 2) [40D127EF] (AR v1)
Track 4 accurately ripped (confidence 2) [1DFACC01] (AR v1)
Track 5 accurately ripped (confidence 2) [1E977CED] (AR v1)
Track 6 accurately ripped (confidence 2) [C10B7A7E] (AR v1)
Track 7 accurately ripped (confidence 2) [5630EABA] (AR v1)
Track 8 accurately ripped (confidence 2) [FE9B0396] (AR v1)
Track 9 accurately ripped (confidence 2) [53F239B6] (AR v1)
Track 10 accurately ripped (confidence 2) [D4535901] (AR v1)
Track 11 accurately ripped (confidence 2) [56E56680] (AR v1)
Track 12 accurately ripped (confidence 2) [69E7FA02] (AR v1)

All tracks accurately ripped

End of status report

==== Log checksum E1FFA475A60BCAE5A78EC32DA748504A03EE8FA12CF784305DFCB7254E37A628 ====


VA - The Roxy London WC2: A Live Punk Box Set (2005) Repost

Tracklist CD6 - Farewell to the Roxy:

01.Blitz - Strange Boy
02.Acme Sewage Co. - Smile And Wave Goodbye
03.Billy Karloff & The Goats - Relics From The Past
04.U.K. Subs - I Live In A Car
05.U.K. Subs - Telephone Numbers
06.The Tickets - Get Yourself Killed
07.The Red Lights - Never Wanna Leave
08.XL5 - Here Comes The Knife
09.The Jets - TV Drink
10.The Streets - Sniper
11.Plastix - Tough On You
12.The Bears - Fun Fun Fun
13.Open Sore - Vertigo
14.The Crabs - Lullabies Lie

Exact Audio Copy V1.0 beta 3 from 29. August 2011

EAC extraction logfile from 29. January 2013, 10:43

Various Artists / Farewell to the Roxy

Used drive : Optiarc DVD RW AD-5170A Adapter: 0 ID: 0

Read mode : Secure
Utilize accurate stream : Yes
Defeat audio cache : Yes
Make use of C2 pointers : No

Read offset correction : 48
Overread into Lead-In and Lead-Out : No
Fill up missing offset samples with silence : Yes
Delete leading and trailing silent blocks : No
Null samples used in CRC calculations : Yes
Used interface : Native Win32 interface for Win NT & 2000

Used output format : User Defined Encoder
Selected bitrate : 128 kBit/s
Quality : High
Add ID3 tag : No
Command line compressor : C:\Program Files\Exact Audio Copy\Flac\flac.exe
Additional command line options : -V -8 -T "Date=%year%" -T "Genre=%genre%" %source%


TOC of the extracted CD

Track | Start | Length | Start sector | End sector
––––––––––––––––––––––––––––-
1 | 0:00.00 | 3:12.17 | 0 | 14416
2 | 3:12.17 | 3:54.20 | 14417 | 31986
3 | 7:06.37 | 2:29.50 | 31987 | 43211
4 | 9:36.12 | 1:13.38 | 43212 | 48724
5 | 10:49.50 | 1:26.07 | 48725 | 55181
6 | 12:15.57 | 2:17.10 | 55182 | 65466
7 | 14:32.67 | 3:30.45 | 65467 | 81261
8 | 18:03.37 | 3:22.68 | 81262 | 96479
9 | 21:26.30 | 2:52.47 | 96480 | 109426
10 | 24:19.02 | 2:55.48 | 109427 | 122599
11 | 27:14.50 | 2:54.40 | 122600 | 135689
12 | 30:09.15 | 2:20.52 | 135690 | 146241
13 | 32:29.67 | 2:29.20 | 146242 | 157436
14 | 34:59.12 | 3:20.33 | 157437 | 172469


Range status and errors

Selected range

Filename C:\Documents and Settings\Пользователь\Рабочий стол\The Roxy London WC2 - A Live Punk Box Set\CD6 - Farewell To The Roxy\Various Artists - Farewell to the Roxy.wav

Peak level 99.9 %
Extraction speed 1.8 X
Range quality 100.0 %
Test CRC 8476DAEE
Copy CRC 8476DAEE
Copy OK

No errors occurred


AccurateRip summary

Track 1 accurately ripped (confidence 1) [4356AF4F] (AR v1)
Track 2 accurately ripped (confidence 1) [02A6F5C0] (AR v1)
Track 3 accurately ripped (confidence 1) [B4C1F9E5] (AR v1)
Track 4 accurately ripped (confidence 1) [A7973E99] (AR v1)
Track 5 accurately ripped (confidence 1) [C510F875] (AR v1)
Track 6 accurately ripped (confidence 1) [0533527A] (AR v1)
Track 7 accurately ripped (confidence 1) [90D34D43] (AR v1)
Track 8 accurately ripped (confidence 1) [85A4E81E] (AR v1)
Track 9 accurately ripped (confidence 1) [C2A81DD8] (AR v1)
Track 10 accurately ripped (confidence 1) [7F8FFE56] (AR v1)
Track 11 accurately ripped (confidence 1) [86AAF562] (AR v1)
Track 12 accurately ripped (confidence 1) [4257048A] (AR v1)
Track 13 accurately ripped (confidence 1) [34C9F4B8] (AR v1)
Track 14 accurately ripped (confidence 1) [496BFDFB] (AR v1)

All tracks accurately ripped

End of status report

==== Log checksum A624F575F4FC713EE6C5B71B4142270804ACDAD141F9B4C237EA3E3F3D55A5C0 ====


VA - The Roxy London WC2: A Live Punk Box Set (2005) Repost

All thanks go to R.Schmadtker

Download VA - The Roxy London WC2: A Live Punk Box Set (2005):