Subcategories

VA - A Tribute To Accept Vol. II (2001)

Posted By: v3122
VA - A Tribute To Accept Vol. II (2001)

VA - A Tribute To Accept Vol. II (2001)
EAC | Flac(Image) + Cue + Log & MP3 CBR 320Kbps
Nuclear Blast, NB 544-2 | ~ 549 or 172 Mb | Scans(jpg) -> 2.57 Mb
Heavy Metal, Hard Rock

~ Witchery, Raise Hell, U.D.O., Disbelief, Breaker, Godgory, Tad Morose, Therion, Agent Steel, Darkane, Rough Silk, Vanize, Custard, Darkseed, Spiral Tower, Rock'n'roll Stormtroopers. ~

VA - A Tribute To Accept Vol. II (2001):

VA - A Tribute To Accept Vol. II (2001)

Tracklist:

01. «WITCHERY» Fast As A Shark [04:33]
02. «RAISE HELL» Slaves To Metal [04:54]
03. «U.D.O.» XTC [03:53]
04. «DISBELIFF» Dogs On Leads [04:37]
05. «BREAKER» Breaker [05:44]
06. «GODGORY» Princess Of The Dawn [06:52]
07. «TAD MOROSE» Losing More Than You've Ever Had [05:19]
08. «THERION» Seawinds [04:21]
09. «AGENT STEE» Demon's Night [03:04]
10. «DARKANE» Restless & Wild [04:09]
11. «ROUGH SILK» Sreaming For A Lovebite [04:35]
12. «VANIZE» Predator [03:58]
13. «CUSTARD» Aiming High [04:10]
14. «DARKSEED» Midnight Mover [03:07]
15. «SPIRAL TOWER» T.V. War [04:09]
16. «ROCK'N'ROLL STORMTROOPERS» I'm A Rebel [03:20]

Exact Audio Copy V0.99 prebeta 5 from 4. May 2009

EAC extraction logfile from 30. May 2012, 13:12

Various / A Tribute To Accept Vol. II

Used drive : ASUS DRW-24B3ST Adapter: 0 ID: 0

Read mode : Secure
Utilize accurate stream : Yes
Defeat audio cache : Yes
Make use of C2 pointers : No

Read offset correction : 6
Overread into Lead-In and Lead-Out : No
Fill up missing offset samples with silence : Yes
Delete leading and trailing silent blocks : No
Null samples used in CRC calculations : Yes
Used interface : Native Win32 interface for Win NT & 2000

Used output format : User Defined Encoder
Selected bitrate : 1024 kBit/s
Quality : High
Add ID3 tag : No
Command line compressor : C:\Program Files (x86)\EAC\WV\wavpack.exe
Additional command line options : -h -hh -m %s %d


TOC of the extracted CD

Track | Start | Length | Start sector | End sector
––––––––––––––––––––––––––––-
1 | 0:00.00 | 4:35.23 | 0 | 20647
2 | 4:35.23 | 4:55.72 | 20648 | 42844
3 | 9:31.20 | 3:53.66 | 42845 | 60385
4 | 13:25.11 | 4:38.69 | 60386 | 81304
5 | 18:04.05 | 5:45.55 | 81305 | 107234
6 | 23:49.60 | 6:52.44 | 107235 | 138178
7 | 30:42.29 | 5:20.28 | 138179 | 162206
8 | 36:02.57 | 4:24.20 | 162207 | 182026
9 | 40:27.02 | 3:05.02 | 182027 | 195903
10 | 43:32.04 | 4:10.61 | 195904 | 214714
11 | 47:42.65 | 4:35.40 | 214715 | 235379
12 | 52:18.30 | 3:59.35 | 235380 | 253339
13 | 56:17.65 | 4:12.20 | 253340 | 272259
14 | 60:30.10 | 3:08.45 | 272260 | 286404
15 | 63:38.55 | 4:11.18 | 286405 | 305247
16 | 67:49.73 | 3:20.13 | 305248 | 320260


Range status and errors

Selected range

Filename G:\TRIBUTE\A Tribute To Accept Vol. II (DE 2001 Nuclear Blast • NB 544-2)\Various - A Tribute To Accept Vol. II.wav

Peak level 100.0 %
Range quality 100.0 %
Test CRC 73236EE0
Copy CRC 73236EE0
Copy OK

No errors occurred


AccurateRip summary

Track 1 not present in database
Track 2 not present in database
Track 3 not present in database
Track 4 not present in database
Track 5 not present in database
Track 6 not present in database
Track 7 not present in database
Track 8 not present in database
Track 9 not present in database
Track 10 not present in database
Track 11 not present in database
Track 12 not present in database
Track 13 not present in database
Track 14 not present in database
Track 15 not present in database
Track 16 not present in database

None of the tracks are present in the AccurateRip database

End of status report


[CUETools log; Date: 01.11.2017 17:41:47; Version: 2.1.5]
[AccurateRip ID: 002beb89-020a73ec-dd10ae10] found.
Track [ CRC | V2 ] Status
01 [14af7545|72894fcd] (0+0/6) No match
02 [363d8708|75db5d23] (0+0/6) No match
03 [080afd61|90c41a80] (0+0/6) No match
04 [273a3a18|f6d8b747] (0+0/6) No match
05 [4448e112|e4c17349] (0+0/6) No match
06 [b6ecb805|398065a8] (0+0/6) No match
07 [010195ef|23fafa59] (0+0/6) No match
08 [7e4f1859|04985447] (0+0/6) No match
09 [79d00a19|065c81c9] (0+0/6) No match
10 [67dc702a|efd07116] (0+0/6) No match
11 [b5ac0f9d|17c47697] (0+0/6) No match
12 [3cca9464|ff4395b9] (0+0/6) No match
13 [82f21777|6306fba7] (0+0/6) No match
14 [e6e14e9f|15c7f3b4] (0+0/6) No match
15 [14909678|26c01770] (0+0/6) No match
16 [7ea22dcc|74cc0215] (0+0/6) No match
Offsetted by 30:
01 [7885f1bb] (0/6) No match (V2 was not tested)
02 [b42998e1] (0/6) No match (V2 was not tested)
03 [d31c4e82] (0/6) No match (V2 was not tested)
04 [1561c86d] (0/6) No match (V2 was not tested)
05 [0cb34605] (0/6) No match (V2 was not tested)
06 [4509d11a] (0/6) No match (V2 was not tested)
07 [35dfee7b] (0/6) No match (V2 was not tested)
08 [1fcbecef] (0/6) No match (V2 was not tested)
09 [27b2cfe5] (0/6) No match (V2 was not tested)
10 [b77f5bac] (0/6) No match (V2 was not tested)
11 [4a5a528f] (0/6) No match (V2 was not tested)
12 [4f93a6fb] (0/6) No match (V2 was not tested)
13 [5d4680c3] (0/6) No match (V2 was not tested)
14 [f35937d3] (0/6) No match (V2 was not tested)
15 [a095b6bf] (0/6) No match (V2 was not tested)
16 [6ac4b725] (0/6) No match (V2 was not tested)
Offsetted by 101:
01 [637c7c1f] (0/6) No match (V2 was not tested)
02 [c8998fbb] (0/6) No match (V2 was not tested)
03 [b8f0d753] (0/6) No match (V2 was not tested)
04 [38dbb69c] (0/6) No match (V2 was not tested)
05 [bceb98bd] (0/6) No match (V2 was not tested)
06 [4ec51d3f] (0/6) No match (V2 was not tested)
07 [7d3ac14b] (0/6) No match (V2 was not tested)
08 [5b5d83e4] (0/6) No match (V2 was not tested)
09 [a135dac2] (0/6) No match (V2 was not tested)
10 [c8beb631] (0/6) No match (V2 was not tested)
11 [68f512b1] (0/6) No match (V2 was not tested)
12 [8efcf7b7] (0/6) No match (V2 was not tested)
13 [30c1f01c] (0/6) No match (V2 was not tested)
14 [5e416635] (0/6) No match (V2 was not tested)
15 [44140533] (0/6) No match (V2 was not tested)
16 [48f568fd] (0/6) No match (V2 was not tested)

Track Peak [ CRC32 ] [W/O NULL] [ LOG ]
– 100,0 [73236EE0] [A781444A] CRC32
01 96,3 [3C115FAD] [B3D2B975]
02 98,8 [39F565C5] [532A7539]
03 96,6 [6566F401] [9F077B4A]
04 98,8 [A6FC2BB5] [CECA0E86]
05 98,8 [344B3876] [7CE5B8DD]
06 95,5 [1D3EA1C0] [F522DD0A]
07 99,1 [7ACE4628] [6550AAD5]
08 91,4 [6DDB6E5A] [C979F338]
09 93,3 [B99A4262] [8226EF82]
10 98,8 [0A534ACE] [F2767C58]
11 95,4 [B6FF5FC7] [D85D503C]
12 98,8 [723A98C5] [3E12B82F]
13 91,8 [B8227516] [A21A5BD1]
14 98,8 [7E2A3E69] [15656F7A]
15 100,0 [94DB04AC] [972843C7]
16 98,8 [2398A83D] [3170FA42]


VA - A Tribute To Accept Vol. II (2001)

All thanks go to the original releaser

Accept or Accept in my Blog

Download VA - A Tribute To Accept Vol. II (2001):