Subcategories

ABBA - The Albums (2008) {9CD Box Set, Remastered} Re-Up

Posted By: popsakov
ABBA - The Albums (2008) {9CD Box Set, Remastered} Re-Up

ABBA - The Albums (2008) {9CD Box Set, Remastered}
EAC Rip | FLAC (Img) + Cue + Log ~ 2,77 Gb | MP3 CBR320 ~ 985 Mb | Covers Included
Scans (Box & Booklet) ~ 92 Mb | RAR 5% Recovery
Pop / Europop / Synth-Pop / Disco / Pop Rock / Soft Rock
Polar Music International AB. #060251774852

The 2008 nine-disc box Albums is neither the first ABBA multi-disc set nor the first time the pop group's albums have been collected and housed in a box set, but it is the first time a set of their complete recordings has been widely disseminated (such are the perks of being a companion to an international blockbuster) and it's the best of the lot, containing all eight of the group's albums (for the record: Ring Ring, Waterloo, ABBA, Arrival, The Album, Voulez-Vous, Super Trouper, The Visitors), plus a 17-track rarities disc that rounds up non-LP singles (including "Fernando" and "Gimme! Gimme! Gimme! (A Man After Midnight)"), songs sung in Swedish, and plain oddities like a medley of the American folk songs "Pick a Bale of Cotton," "On Top of Old Smokey," and "Midnight Special." There's only one hitch: all of ABBA's albums were remastered and reissued with bonus tracks in 2001, bonus tracks that essentially cover all the songs on the rarities disc, and the remastering is not notably different, if it is different at all, so fans who already replaced their initial CDs may not have a need to get this new box – but anybody who hasn't gotten around to either upgrading their ABBA collection, or has never had one to begin with, can get it all here.

~ Stephen Thomas Erlewine, All Music
ABBA - The Albums (2008) {9CD Box Set, Remastered} Re-Up


***************

ABBA - The Albums (2008) {9CD Box Set, Remastered} Re-Up

Disc 1 - Ring Ring (1973)

ABBA - The Albums (2008) {9CD Box Set, Remastered} Re-Up

Track List:

01. Ring Ring [3:06]
02. Another Town, Another Train [3:14]
03. Disillusion [3:06]
04. People Need Love [2:46]
05. I Saw It In The Mirror [2:36]
06. Nina, Pretty Ballerina [2:54]
07. Love Isn't Easy (But It Sure Is Hard Enough) [2:56]
08. Me And Bobby And Bobby's Brother [2:53]
09. He Is Your Brother [3:19]
10. She's My Kind Of Girl [2:46]
11. I Am Just A Girl [3:04]
12. Rock'n Roll Band [3:09]

Exact Audio Copy V1.2 from 12. August 2016

EAC extraction logfile from 4. March 2017, 15:07

ABBA / The Albums [Disc 1 - Ring Ring, 1973]

Used drive : MATSHITADVD-RAM UJ8A0AS Adapter: 1 ID: 0

Read mode : Secure
Utilize accurate stream : Yes
Defeat audio cache : Yes
Make use of C2 pointers : No

Read offset correction : 102
Overread into Lead-In and Lead-Out : No
Fill up missing offset samples with silence : Yes
Delete leading and trailing silent blocks : No
Null samples used in CRC calculations : Yes
Used interface : Native Win32 interface for Win NT & 2000

Used output format : Internal WAV Routines
Sample format : 44.100 Hz; 16 Bit; Stereo


TOC of the extracted CD

Track | Start | Length | Start sector | End sector
––––––––––––––––––––––––––––-
1 | 0:00.00 | 3:06.00 | 0 | 13949
2 | 3:06.00 | 3:13.45 | 13950 | 28469
3 | 6:19.45 | 3:06.07 | 28470 | 42426
4 | 9:25.52 | 2:45.48 | 42427 | 54849
5 | 12:11.25 | 2:35.62 | 54850 | 66536
6 | 14:47.12 | 2:53.40 | 66537 | 79551
7 | 17:40.52 | 2:56.10 | 79552 | 92761
8 | 20:36.62 | 2:52.53 | 92762 | 105714
9 | 23:29.40 | 3:19.35 | 105715 | 120674
10 | 26:49.00 | 2:46.15 | 120675 | 133139
11 | 29:35.15 | 3:03.40 | 133140 | 146904
12 | 32:38.55 | 3:09.05 | 146905 | 161084


Range status and errors

Selected range

Filename F:\Alexharvey\ABBA - The Albums [Disc 1 - Ring Ring, 1973].wav

Peak level 99.9 %
Extraction speed 2.2 X
Range quality 100.0 %
Test CRC 977A45C5
Copy CRC 977A45C5
Copy OK

No errors occurred


AccurateRip summary

Track 1 accurately ripped (confidence 200) [2A409065] (AR v2)
Track 2 accurately ripped (confidence 200) [1A1C26C0] (AR v2)
Track 3 accurately ripped (confidence 200) [D0B7A400] (AR v2)
Track 4 accurately ripped (confidence 200) [BA29DC27] (AR v2)
Track 5 accurately ripped (confidence 200) [635C62CB] (AR v2)
Track 6 accurately ripped (confidence 200) [7181D774] (AR v2)
Track 7 accurately ripped (confidence 200) [59419926] (AR v2)
Track 8 accurately ripped (confidence 200) [EA6A8EA2] (AR v2)
Track 9 accurately ripped (confidence 200) [5648D1B9] (AR v2)
Track 10 accurately ripped (confidence 200) [07F9D4E8] (AR v2)
Track 11 accurately ripped (confidence 200) [BEA3ACF0] (AR v2)
Track 12 accurately ripped (confidence 200) [DAB523BD] (AR v2)

All tracks accurately ripped

End of status report

–– CUETools DB Plugin V2.1.6

[CTDB TOCID: HaGxSHY6VyzI6JmH494b4sf.LzI-] found
Submit result: HaGxSHY6VyzI6JmH494b4sf.LzI- has been confirmed
Track | CTDB Status
1 | (360/362) Accurately ripped
2 | (360/362) Accurately ripped
3 | (360/362) Accurately ripped
4 | (359/362) Accurately ripped
5 | (358/362) Accurately ripped
6 | (359/362) Accurately ripped
7 | (359/362) Accurately ripped
8 | (359/362) Accurately ripped
9 | (359/362) Accurately ripped
10 | (358/362) Accurately ripped
11 | (358/362) Accurately ripped
12 | (357/362) Accurately ripped


==== Log checksum 295C6B1EF4A0958BD69675ABE50DC6BD6E6F94DD90B91CFBC00DB510F236B6B5 ====

foobar2000 1.3.14 / Dynamic Range Meter 1.1.1
log date: 2017-03-04 15:10:08

––––––––––––––––––––––––––––––––––––––––
Analyzed: ABBA / The Albums [Disc 1 - Ring Ring, 1973]
––––––––––––––––––––––––––––––––––––––––

DR Peak RMS Duration Track
––––––––––––––––––––––––––––––––––––––––
DR7 -0.01 dB -8.02 dB 3:06 01-Ring Ring
DR7 -0.09 dB -8.86 dB 3:14 02-Another Town, Another Train
DR7 -0.09 dB -9.04 dB 3:06 03-Disillusion
DR7 -0.09 dB -8.54 dB 2:46 04-People Need Love
DR9 -0.09 dB -10.52 dB 2:36 05-I Saw It In The Mirror
DR8 -0.09 dB -9.77 dB 2:54 06-Nina, Pretty Ballerina
DR8 -0.09 dB -9.76 dB 2:56 07-Love Isn't Easy (But It Sure Is Hard Enough)
DR7 -0.09 dB -8.60 dB 2:53 08-Me And Bobby And Bobby's Brother
DR7 -0.09 dB -8.41 dB 3:19 09-He Is Your Brother
DR8 -0.09 dB -9.62 dB 2:46 10-She's My Kind Of Girl
DR9 -0.09 dB -10.54 dB 3:04 11-I Am Just A Girl
DR7 -0.09 dB -8.26 dB 3:09 12-Rock'n Roll Band
––––––––––––––––––––––––––––––––––––––––

Number of tracks: 12
Official DR value: DR8

Samplerate: 44100 Hz
Channels: 2
Bits per sample: 16
Bitrate: 970 kbps
Codec: FLAC
================================================================================

[CUETools log; Date: 04.03.2017 15:11:03; Version: 2.1.6]
[CTDB TOCID: HaGxSHY6VyzI6JmH494b4sf.LzI-] found.
Track | CTDB Status
1 | (361/363) Accurately ripped
2 | (361/363) Accurately ripped
3 | (361/363) Accurately ripped
4 | (360/363) Accurately ripped
5 | (359/363) Accurately ripped
6 | (360/363) Accurately ripped
7 | (360/363) Accurately ripped
8 | (360/363) Accurately ripped
9 | (360/363) Accurately ripped
10 | (359/363) Accurately ripped
11 | (359/363) Accurately ripped
12 | (358/363) Accurately ripped
[AccurateRip ID: 000ff634-00948be5-a408630c] found.
Track [ CRC | V2 ] Status
01 [69c6fa0f|2a409065] (130+200/330) Accurately ripped
02 [c5e8dfa8|1a1c26c0] (129+200/331) Accurately ripped
03 [0f0d5a20|d0b7a400] (129+200/331) Accurately ripped
04 [6c122da5|ba29dc27] (129+200/329) Accurately ripped
05 [a860d234|635c62cb] (127+200/331) Accurately ripped
06 [a4a1f144|7181d774] (129+200/331) Accurately ripped
07 [e1e9fc56|59419926] (129+200/331) Accurately ripped
08 [9cc437ce|ea6a8ea2] (129+200/329) Accurately ripped
09 [49706066|5648d1b9] (129+200/329) Accurately ripped
10 [af56a7d6|07f9d4e8] (129+200/329) Accurately ripped
11 [66d5f1b9|bea3acf0] (130+200/330) Accurately ripped
12 [7151254e|dab523bd] (126+200/326) Accurately ripped
Offsetted by -676:
01 [0653d6df] (000/330) No match (V2 was not tested)
02 [ffe3239b] (000/331) No match (V2 was not tested)
03 [c8e8785e] (000/331) No match (V2 was not tested)
04 [338aedd8] (000/329) No match (V2 was not tested)
05 [5285492b] (000/331) No match (V2 was not tested)
06 [dc98df2e] (000/331) No match (V2 was not tested)
07 [08a86e07] (000/331) No match (V2 was not tested)
08 [fb4c53dc] (000/329) No match (V2 was not tested)
09 [8d8cd72d] (000/329) No match (V2 was not tested)
10 [e739135e] (000/329) No match (V2 was not tested)
11 [bb094e10] (000/330) No match (V2 was not tested)
12 [26d00123] (000/326) No match (V2 was not tested)
Offsetted by -6:
01 [ddaf3eb8] (000/330) No match (V2 was not tested)
02 [6739f461] (000/331) No match (V2 was not tested)
03 [dfed24c8] (000/331) No match (V2 was not tested)
04 [f4820fe4] (000/329) No match (V2 was not tested)
05 [076ca1f6] (000/331) No match (V2 was not tested)
06 [61cef2cb] (000/331) No match (V2 was not tested)
07 [836772ae] (000/331) No match (V2 was not tested)
08 [e746dd88] (000/329) No match (V2 was not tested)
09 [01edefaf] (000/329) No match
10 [deb6f524] (000/329) No match
11 [3a61d2a4] (000/330) No match
12 [e2dc5055] (000/326) No match

Track Peak [ CRC32 ] [W/O NULL] [ LOG ]
– 99,9 [977A45C5] [03064071] CRC32
01 99,9 [A624F6E8] [B1DC88C7]
02 98,9 [408686B9] [2C37DAB0]
03 98,9 [0B4BF7CC] [86AC1BA3]
04 98,9 [FAB46737] [9E842A5E]
05 98,9 [3479236C] [D6771447]
06 98,9 [576F4B51] [66BABB54]
07 98,9 [893D0D51] [8D62A165]
08 98,9 [41CD78B3] [459D7FA3]
09 98,9 [5EB72D86] [76F64D64]
10 98,9 [FF6A924C] [950C3782]
11 98,9 [C5D62022] [605ACBFA]
12 98,9 [030C1895] [6FF9310D]

***************

ABBA - The Albums (2008) {9CD Box Set, Remastered} Re-Up

Disc 2 - Waterloo (1974)

Track List:

01. Waterloo [2:46]
02. Sitting In The Palmtree [3:40]
03. King Kong Song [3:14]
04. Hasta Manana [3:11]
05. My Mama Said [3:14]
06. Dance (While The Music Still Goes On) [3:13]
07. Honey, Honey [2:56]
08. Watch Out [3:49]
09. What About Livingstone [2:57]
10. Gonna Sing You My Lovesong [3:39]
11. Suzy-Hang-Around [3:16]

Exact Audio Copy V1.2 from 12. August 2016

EAC extraction logfile from 4. March 2017, 15:54

ABBA / The Albums [Disc 2 - Waterloo, 1974]

Used drive : MATSHITADVD-RAM UJ8A0AS Adapter: 1 ID: 0

Read mode : Secure
Utilize accurate stream : Yes
Defeat audio cache : Yes
Make use of C2 pointers : No

Read offset correction : 102
Overread into Lead-In and Lead-Out : No
Fill up missing offset samples with silence : Yes
Delete leading and trailing silent blocks : No
Null samples used in CRC calculations : Yes
Used interface : Native Win32 interface for Win NT & 2000

Used output format : Internal WAV Routines
Sample format : 44.100 Hz; 16 Bit; Stereo


TOC of the extracted CD

Track | Start | Length | Start sector | End sector
––––––––––––––––––––––––––––-
1 | 0:00.00 | 2:45.50 | 0 | 12424
2 | 2:45.50 | 3:39.57 | 12425 | 28906
3 | 6:25.32 | 3:14.13 | 28907 | 43469
4 | 9:39.45 | 3:11.35 | 43470 | 57829
5 | 12:51.05 | 3:13.67 | 57830 | 72371
6 | 16:04.72 | 3:13.35 | 72372 | 86881
7 | 19:18.32 | 2:56.20 | 86882 | 100101
8 | 22:14.52 | 3:48.70 | 100102 | 117271
9 | 26:03.47 | 2:56.73 | 117272 | 130544
10 | 29:00.45 | 3:39.25 | 130545 | 146994
11 | 32:39.70 | 3:16.17 | 146995 | 161711


Range status and errors

Selected range

Filename F:\Alexharvey\ABBA - The Albums [Disc 2 - Waterloo, 1974].wav

Peak level 99.8 %
Extraction speed 2.2 X
Range quality 100.0 %
Test CRC 41432B39
Copy CRC 41432B39
Copy OK

No errors occurred


AccurateRip summary

Track 1 accurately ripped (confidence 200) [F02D5101] (AR v2)
Track 2 accurately ripped (confidence 200) [493399AC] (AR v2)
Track 3 accurately ripped (confidence 200) [C5F005B8] (AR v2)
Track 4 accurately ripped (confidence 200) [785CC128] (AR v2)
Track 5 accurately ripped (confidence 200) [AA95F218] (AR v2)
Track 6 accurately ripped (confidence 200) [216ED0A3] (AR v2)
Track 7 accurately ripped (confidence 200) [6910F623] (AR v2)
Track 8 accurately ripped (confidence 200) [D7A9895A] (AR v2)
Track 9 accurately ripped (confidence 200) [DD6DF6D3] (AR v2)
Track 10 accurately ripped (confidence 200) [7C4C7BC5] (AR v2)
Track 11 accurately ripped (confidence 200) [21F58EAB] (AR v2)

All tracks accurately ripped

End of status report

–– CUETools DB Plugin V2.1.6

[CTDB TOCID: Rk3eUpqI6wV70fXJZEW_5DQM.bU-] found
Submit result: Rk3eUpqI6wV70fXJZEW_5DQM.bU- has been confirmed
Track | CTDB Status
1 | (372/373) Accurately ripped
2 | (372/373) Accurately ripped
3 | (371/373) Accurately ripped
4 | (372/373) Accurately ripped
5 | (371/373) Accurately ripped
6 | (372/373) Accurately ripped
7 | (371/373) Accurately ripped
8 | (372/373) Accurately ripped
9 | (372/373) Accurately ripped
10 | (372/373) Accurately ripped
11 | (371/373) Accurately ripped


==== Log checksum 5234CC459B5C7B1D8E2F98BB1651D608FE9B3BAE91CD68DF430361207CBDFDFA ====

foobar2000 1.3.14 / Dynamic Range Meter 1.1.1
log date: 2017-03-04 15:55:08

––––––––––––––––––––––––––––––––––––––––
Analyzed: ABBA / The Albums [Disc 2 - Waterloo, 1974]
––––––––––––––––––––––––––––––––––––––––

DR Peak RMS Duration Track
––––––––––––––––––––––––––––––––––––––––
DR7 -0.19 dB -7.62 dB 2:46 01-Waterloo
DR11 -0.09 dB -12.64 dB 3:40 02-Sitting In The Palmtree
DR8 -0.09 dB -8.87 dB 3:14 03-King Kong Song
DR7 -0.09 dB -8.82 dB 3:11 04-Hasta Manana
DR9 -0.09 dB -9.57 dB 3:14 05-My Mama Said
DR7 -0.09 dB -8.77 dB 3:13 06-Dance (While The Music Still Goes On)
DR7 -0.09 dB -8.07 dB 2:56 07-Honey, Honey
DR7 -0.01 dB -9.26 dB 3:49 08-Watch Out
DR8 -0.09 dB -9.11 dB 2:57 09-What About Livingstone
DR7 -0.09 dB -10.49 dB 3:39 10-Gonna Sing You My Lovesong
DR8 -0.09 dB -9.92 dB 3:16 11-Suzy-Hang-Around
––––––––––––––––––––––––––––––––––––––––

Number of tracks: 11
Official DR value: DR8

Samplerate: 44100 Hz
Channels: 2
Bits per sample: 16
Bitrate: 973 kbps
Codec: FLAC
================================================================================

[CUETools log; Date: 04.03.2017 15:55:37; Version: 2.1.6]
[CTDB TOCID: Rk3eUpqI6wV70fXJZEW_5DQM.bU-] found.
Track | CTDB Status
1 | (373/374) Accurately ripped
2 | (373/374) Accurately ripped
3 | (372/374) Accurately ripped
4 | (373/374) Accurately ripped
5 | (372/374) Accurately ripped
6 | (373/374) Accurately ripped
7 | (372/374) Accurately ripped
8 | (373/374) Accurately ripped
9 | (373/374) Accurately ripped
10 | (373/374) Accurately ripped
11 | (372/374) Accurately ripped
[AccurateRip ID: 000ea030-007f3353-9b086c0b] found.
Track [ CRC | V2 ] Status
01 [7ac68f1e|f02d5101] (122+200/324) Accurately ripped
02 [61e24bd6|493399ac] (123+200/323) Accurately ripped
03 [29115642|c5f005b8] (123+200/325) Accurately ripped
04 [7acff715|785cc128] (124+200/326) Accurately ripped
05 [d43f532c|aa95f218] (121+200/325) Accurately ripped
06 [fe3d5c0f|216ed0a3] (125+200/327) Accurately ripped
07 [96d3c1dc|6910f623] (125+200/327) Accurately ripped
08 [86be3769|d7a9895a] (124+200/326) Accurately ripped
09 [9cc9e490|dd6df6d3] (121+200/323) Accurately ripped
10 [5a80e889|7c4c7bc5] (122+200/324) Accurately ripped
11 [c46bf403|21f58eab] (118+200/320) Accurately ripped

Track Peak [ CRC32 ] [W/O NULL] [ LOG ]
– 99,8 [41432B39] [90AD7688] CRC32
01 97,8 [E3B90653] [48AC253B]
02 98,9 [39DEDB98] [2DFA496F]
03 98,9 [270B8E5C] [191AE31A]
04 98,9 [B9855CF3] [CD125D98]
05 98,9 [D02B1A58] [A941102C]
06 98,9 [361BE1DF] [3DAEDDA6]
07 98,9 [46CA0D95] [A13A9413]
08 99,8 [CD5C33E1] [82DDB115]
09 98,9 [5D937446] [C10FAAA7]
10 98,9 [08A2F2EA] [335090DC]
11 98,9 [E799490D] [C41828A1]

***************

ABBA - The Albums (2008) {9CD Box Set, Remastered} Re-Up

Disc 3 - ABBA (1975)

Track List:

01. Mamma Mia [3:33]
02. Hey, Hey Helen [3:18]
03. Tropical Loveland [3:06]
04. SOS [3:23]
05. Man In The Middle [3:04]
06. Bang-A-Boomerang [3:05]
07. I Do, I Do, I Do, I Do, I Do [3:17]
08. Rock Me [3:06]
09. Intermezzo No. 1 [3:49]
10. I've Been Waiting For You [3:42]
11. So Long [3:11]

Exact Audio Copy V1.2 from 12. August 2016

EAC extraction logfile from 4. March 2017, 14:24

ABBA / The Albums [Disc 3 - ABBA, 1975]

Used drive : MATSHITADVD-RAM UJ8A0AS Adapter: 1 ID: 0

Read mode : Secure
Utilize accurate stream : Yes
Defeat audio cache : Yes
Make use of C2 pointers : No

Read offset correction : 102
Overread into Lead-In and Lead-Out : No
Fill up missing offset samples with silence : Yes
Delete leading and trailing silent blocks : No
Null samples used in CRC calculations : Yes
Used interface : Native Win32 interface for Win NT & 2000

Used output format : Internal WAV Routines
Sample format : 44.100 Hz; 16 Bit; Stereo


TOC of the extracted CD

Track | Start | Length | Start sector | End sector
––––––––––––––––––––––––––––-
1 | 0:00.00 | 3:32.65 | 0 | 15964
2 | 3:32.65 | 3:17.40 | 15965 | 30779
3 | 6:50.30 | 3:06.07 | 30780 | 44736
4 | 9:56.37 | 3:23.20 | 44737 | 59981
5 | 13:19.57 | 3:03.38 | 59982 | 73744
6 | 16:23.20 | 3:04.57 | 73745 | 87601
7 | 19:28.02 | 3:17.20 | 87602 | 102396
8 | 22:45.22 | 3:06.28 | 102397 | 116374
9 | 25:51.50 | 3:48.50 | 116375 | 133524
10 | 29:40.25 | 3:41.40 | 133525 | 150139
11 | 33:21.65 | 3:10.60 | 150140 | 164449


Range status and errors

Selected range

Filename F:\Alexharvey\ABBA - The Albums [Disc 3 - ABBA, 1975].wav

Peak level 98.9 %
Extraction speed 2.2 X
Range quality 100.0 %
Test CRC 488D4AF3
Copy CRC 488D4AF3
Copy OK

No errors occurred


AccurateRip summary

Track 1 accurately ripped (confidence 200) [30796A72] (AR v2)
Track 2 accurately ripped (confidence 200) [CD460FEF] (AR v2)
Track 3 accurately ripped (confidence 200) [D2834BBA] (AR v2)
Track 4 accurately ripped (confidence 200) [56B8E9AC] (AR v2)
Track 5 accurately ripped (confidence 200) [2A934A5B] (AR v2)
Track 6 accurately ripped (confidence 200) [C6A111B5] (AR v2)
Track 7 accurately ripped (confidence 185) [17082B58] (AR v2)
Track 8 accurately ripped (confidence 200) [F0DB988B] (AR v2)
Track 9 accurately ripped (confidence 200) [DED2BD42] (AR v2)
Track 10 accurately ripped (confidence 200) [F93EEB5E] (AR v2)
Track 11 accurately ripped (confidence 200) [CFF933C0] (AR v2)

All tracks accurately ripped

End of status report

–– CUETools DB Plugin V2.1.6

[CTDB TOCID: bEsE2PM1cJqtD1.iY8CLy9kwqes-] found
Submit result: bEsE2PM1cJqtD1.iY8CLy9kwqes- has been confirmed
Track | CTDB Status
1 | (314/369) Accurately ripped, or (2/369) differs in 56 samples @01:39:36-01:39:37
2 | (360/369) Accurately ripped
3 | (358/369) Accurately ripped
4 | (361/369) Accurately ripped
5 | (361/369) Accurately ripped
6 | (334/369) Accurately ripped
7 | (273/369) Accurately ripped, or (3/369) differs in 38 samples @01:03:64, or (2/369) differs in 17 samples @01:03:64
8 | (347/369) Accurately ripped
9 | (348/369) Accurately ripped
10 | (340/369) Accurately ripped
11 | (356/369) Accurately ripped


==== Log checksum 39A3D5B5ADE3F447EE823D6ACED354642A47619E6A8C4F0A927E58A569E36421 ====

foobar2000 1.3.14 / Dynamic Range Meter 1.1.1
log date: 2017-03-04 14:26:12

––––––––––––––––––––––––––––––––––––––––
Analyzed: ABBA / The Albums [Disc 3 - ABBA, 1975]
––––––––––––––––––––––––––––––––––––––––

DR Peak RMS Duration Track
––––––––––––––––––––––––––––––––––––––––
DR8 -0.19 dB -9.81 dB 3:33 01-Mamma Mia
DR8 -0.09 dB -9.47 dB 3:18 02-Hey, Hey Helen
DR8 -0.09 dB -10.41 dB 3:06 03-Tropical Loveland
DR7 -0.29 dB -9.47 dB 3:23 04-SOS
DR9 -0.09 dB -11.24 dB 3:04 05-Man In The Middle
DR7 -0.19 dB -8.16 dB 3:05 06-Bang-A-Boomerang
DR7 -0.19 dB -8.35 dB 3:17 07-I Do, I Do, I Do, I Do, I Do
DR7 -0.19 dB -8.98 dB 3:06 08-Rock Me
DR8 -0.09 dB -9.17 dB 3:49 09-Intermezzo No. 1
DR7 -0.09 dB -9.68 dB 3:42 10-I've Been Waiting For You
DR7 -0.09 dB -8.22 dB 3:11 11-So Long
––––––––––––––––––––––––––––––––––––––––

Number of tracks: 11
Official DR value: DR8

Samplerate: 44100 Hz
Channels: 2
Bits per sample: 16
Bitrate: 978 kbps
Codec: FLAC
================================================================================

[CUETools log; Date: 04.03.2017 14:30:16; Version: 2.1.6]
[CTDB TOCID: bEsE2PM1cJqtD1.iY8CLy9kwqes-] found.
Track | CTDB Status
1 | (315/370) Accurately ripped, or (2/370) differs in 56 samples @01:39:36-01:39:37
2 | (361/370) Accurately ripped
3 | (359/370) Accurately ripped
4 | (362/370) Accurately ripped
5 | (362/370) Accurately ripped
6 | (335/370) Accurately ripped
7 | (274/370) Accurately ripped, or (3/370) differs in 38 samples @01:03:64, or (2/370) differs in 17 samples @01:03:64
8 | (348/370) Accurately ripped
9 | (349/370) Accurately ripped
10 | (341/370) Accurately ripped
11 | (357/370) Accurately ripped
[AccurateRip ID: 000ef2f2-00817ab2-8408900b] found.
Track [ CRC | V2 ] Status
01 [4252f1be|30796a72] (132+200/337) Accurately ripped
02 [ffc3687b|cd460fef] (126+200/332) Accurately ripped
03 [2ad20f78|d2834bba] (129+200/333) Accurately ripped
04 [d9ad94f6|56b8e9ac] (132+200/334) Accurately ripped
05 [85b9b631|2a934a5b] (129+200/333) Accurately ripped
06 [7a620d82|c6a111b5] (131+200/337) Accurately ripped
07 [7041a2c4|17082b58] (129+185/324) Accurately ripped
08 [b53822d8|f0db988b] (129+200/334) Accurately ripped
09 [29c272d6|ded2bd42] (129+200/331) Accurately ripped
10 [c7b9d27e|f93eeb5e] (130+200/334) Accurately ripped
11 [3354870d|cff933c0] (127+200/331) Accurately ripped
Offsetted by -676:
01 [a92104db] (000/337) No match (V2 was not tested)
02 [81fb6739] (000/332) No match (V2 was not tested)
03 [2ae52d59] (000/333) No match (V2 was not tested)
04 [039932a5] (000/334) No match (V2 was not tested)
05 [26b8b465] (000/333) No match (V2 was not tested)
06 [d347e00e] (000/337) No match (V2 was not tested)
07 [7c6df1c9] (000/324) No match (V2 was not tested)
08 [05b112d9] (000/334) No match (V2 was not tested)
09 [bf6549db] (000/331) No match (V2 was not tested)
10 [c3ca7065] (000/334) No match (V2 was not tested)
11 [5c566835] (000/331) No match (V2 was not tested)
Offsetted by -6:
01 [f314814e] (000/337) No match (V2 was not tested)
02 [33760ed1] (000/332) No match (V2 was not tested)
03 [ada0ceb7] (000/333) No match (V2 was not tested)
04 [d951a29a] (000/334) No match (V2 was not tested)
05 [0c8ce319] (000/333) No match (V2 was not tested)
06 [b4083e8a] (000/337) No match (V2 was not tested)
07 [1020763d] (000/324) No match (V2 was not tested)
08 [f34a6ee9] (000/334) No match
09 [fd6dde80] (000/331) No match
10 [fd173108] (000/334) No match
11 [472880d8] (000/331) No match

Track Peak [ CRC32 ] [W/O NULL] [ LOG ]
– 98,9 [488D4AF3] [4F58B9D7] CRC32
01 97,8 [8A00ADEE] [3AFCC749]
02 98,9 [B4276652] [3F28391F]
03 98,9 [8DACC0D7] [C37604EA]
04 96,6 [517D12F2] [2DC5244C]
05 98,9 [F8750A08] [2E0D4C06]
06 97,8 [1B156DD2] [1F7D9A0C]
07 97,8 [C31A08C8] [B16105A4]
08 97,8 [A8860485] [56526D9E]
09 98,9 [19FBB6AD] [53402EF5]
10 98,9 [FF9EF746] [593E1662]
11 98,9 [00520327] [A145F01D]

***************

ABBA - The Albums (2008) {9CD Box Set, Remastered} Re-Up

Disc 4 - Arrival (1976)

Track List:

01. When I Kissed The Teacher [3:03]
02. Dancing Queen [3:53]
03. My Love, My Life [3:54]
04. Dum Dum Diddle [2:56]
05. Knowing Me, Knowing You [4:03]
06. Money, Money, Money [3:08]
07. That's Me [3:17]
08. Why Did It Have To Be Me [3:22]
09. Tiger [2:57]
10. Arrival [3:07]

Exact Audio Copy V1.2 from 12. August 2016

EAC extraction logfile from 3. March 2017, 19:39

ABBA / The Albums [Disc 4 - Arrival, 1976]

Used drive : MATSHITADVD-RAM UJ8A0AS Adapter: 1 ID: 0

Read mode : Secure
Utilize accurate stream : Yes
Defeat audio cache : Yes
Make use of C2 pointers : No

Read offset correction : 102
Overread into Lead-In and Lead-Out : No
Fill up missing offset samples with silence : Yes
Delete leading and trailing silent blocks : No
Null samples used in CRC calculations : Yes
Used interface : Native Win32 interface for Win NT & 2000

Used output format : Internal WAV Routines
Sample format : 44.100 Hz; 16 Bit; Stereo


TOC of the extracted CD

Track | Start | Length | Start sector | End sector
––––––––––––––––––––––––––––-
1 | 0:00.00 | 3:03.00 | 0 | 13724
2 | 3:03.00 | 3:53.00 | 13725 | 31199
3 | 6:56.00 | 3:54.00 | 31200 | 48749
4 | 10:50.00 | 2:55.62 | 48750 | 61936
5 | 13:45.62 | 4:02.53 | 61937 | 80139
6 | 17:48.40 | 3:07.52 | 80140 | 94216
7 | 20:56.17 | 3:16.73 | 94217 | 108989
8 | 24:13.15 | 3:22.10 | 108990 | 124149
9 | 27:35.25 | 2:56.72 | 124150 | 137421
10 | 30:32.22 | 3:06.55 | 137422 | 151426


Range status and errors

Selected range

Filename F:\Alexharvey\ABBA - The Albums [Disc 4 - Arrival, 1976].wav

Peak level 99.9 %
Extraction speed 2.2 X
Range quality 100.0 %
Test CRC C8BF106F
Copy CRC C8BF106F
Copy OK

No errors occurred


AccurateRip summary

Track 1 accurately ripped (confidence 200) [082DA58F] (AR v2)
Track 2 accurately ripped (confidence 200) [0C2D247B] (AR v2)
Track 3 accurately ripped (confidence 200) [31AE8AB5] (AR v2)
Track 4 accurately ripped (confidence 200) [78C13ED4] (AR v2)
Track 5 accurately ripped (confidence 200) [4BB92AF5] (AR v2)
Track 6 accurately ripped (confidence 200) [15B8B2BE] (AR v2)
Track 7 accurately ripped (confidence 200) [318EC98B] (AR v2)
Track 8 accurately ripped (confidence 200) [39CE2AEA] (AR v2)
Track 9 accurately ripped (confidence 200) [DA432F32] (AR v2)
Track 10 accurately ripped (confidence 200) [47DC1037] (AR v2)

All tracks accurately ripped

End of status report

–– CUETools DB Plugin V2.1.6

[CTDB TOCID: 0H1_d7OMA4f8lLc5Z.882QXgM7w-] found
Submit result: 0H1_d7OMA4f8lLc5Z.882QXgM7w- has been confirmed
Track | CTDB Status
1 | (358/361) Accurately ripped
2 | (354/361) Accurately ripped
3 | (357/361) Accurately ripped
4 | (355/361) Accurately ripped
5 | (346/361) Accurately ripped
6 | (357/361) Accurately ripped
7 | (355/361) Accurately ripped
8 | (359/361) Accurately ripped
9 | (358/361) Accurately ripped
10 | (355/361) Accurately ripped


==== Log checksum 1FB121CD76138493E400FCC2E61ADCFC5F767321EDB08A735993736DC55F7907 ====

foobar2000 1.3.14 / Dynamic Range Meter 1.1.1
log date: 2017-03-03 19:41:18

––––––––––––––––––––––––––––––––––––––––
Analyzed: ABBA / The Albums [Disc 4 - Arrival, 1976]
––––––––––––––––––––––––––––––––––––––––

DR Peak RMS Duration Track
––––––––––––––––––––––––––––––––––––––––
DR6 0.00 dB -8.01 dB 3:03 01-When I Kissed The Teacher
DR7 -0.19 dB -8.51 dB 3:53 02-Dancing Queen
DR7 -0.09 dB -9.84 dB 3:54 03-My Love, My Life
DR7 -0.09 dB -8.98 dB 2:56 04-Dum Dum Diddle
DR7 -0.19 dB -8.69 dB 4:03 05-Knowing Me, Knowing You
DR8 -0.19 dB -11.02 dB 3:08 06-Money, Money, Money
DR7 -0.09 dB -8.60 dB 3:17 07-That's Me
DR8 -0.09 dB -9.86 dB 3:22 08-Why Did It Have To Be Me
DR7 -0.09 dB -8.56 dB 2:57 09-Tiger
DR8 -0.09 dB -11.24 dB 3:07 10-Arrival
––––––––––––––––––––––––––––––––––––––––

Number of tracks: 10
Official DR value: DR7

Samplerate: 44100 Hz
Channels: 2
Bits per sample: 16
Bitrate: 1006 kbps
Codec: FLAC
================================================================================

[CUETools log; Date: 03.03.2017 19:42:13; Version: 2.1.6]
[CTDB TOCID: 0H1_d7OMA4f8lLc5Z.882QXgM7w-] found.
Track | CTDB Status
1 | (359/362) Accurately ripped
2 | (355/362) Accurately ripped
3 | (358/362) Accurately ripped
4 | (356/362) Accurately ripped
5 | (347/362) Accurately ripped
6 | (358/362) Accurately ripped
7 | (356/362) Accurately ripped
8 | (360/362) Accurately ripped
9 | (359/362) Accurately ripped
10 | (356/362) Accurately ripped
[AccurateRip ID: 000cfff6-0067b012-8507e30a] found.
Track [ CRC | V2 ] Status
01 [c0720011|082da58f] (122+200/322) Accurately ripped
02 [3e50aaca|0c2d247b] (126+200/328) Accurately ripped
03 [60da2507|31ae8ab5] (125+200/327) Accurately ripped
04 [c0e77023|78c13ed4] (124+200/326) Accurately ripped
05 [64281ef4|4bb92af5] (125+200/327) Accurately ripped
06 [3b78b384|15b8b2be] (128+200/330) Accurately ripped
07 [b687aaed|318ec98b] (123+200/323) Accurately ripped
08 [454b31c1|39ce2aea] (123+200/323) Accurately ripped
09 [ec480029|da432f32] (123+200/323) Accurately ripped
10 [0c11e3cd|47dc1037] (121+200/321) Accurately ripped
Offsetted by -676:
01 [5d1e46f0] (000/322) No match (V2 was not tested)
02 [4ca164a5] (000/328) No match (V2 was not tested)
03 [5edaa87d] (000/327) No match (V2 was not tested)
04 [98dd2390] (000/326) No match (V2 was not tested)
05 [df27ca36] (000/327) No match (V2 was not tested)
06 [4970f273] (000/330) No match (V2 was not tested)
07 [252eccdd] (000/323) No match (V2 was not tested)
08 [6971375e] (000/323) No match (V2 was not tested)
09 [e3b2d7d5] (000/323) No match (V2 was not tested)
10 [e3a8d908] (000/321) No match (V2 was not tested)
Offsetted by -6:
01 [c6e4734e] (000/322) No match (V2 was not tested)
02 [5e5da22f] (000/328) No match (V2 was not tested)
03 [3b9891f3] (000/327) No match (V2 was not tested)
04 [09df5e01] (000/326) No match (V2 was not tested)
05 [7923620c] (000/327) No match (V2 was not tested)
06 [479942dc] (000/330) No match (V2 was not tested)
07 [483de800] (000/323) No match (V2 was not tested)
08 [2a2a23c5] (000/323) No match
09 [b16bef92] (000/323) No match
10 [8092de99] (000/321) No match

Track Peak [ CRC32 ] [W/O NULL] [ LOG ]
– 99,9 [C8BF106F] [ABC86E17] CRC32
01 99,9 [BD0AA496] [6F4B7FC4]
02 97,8 [688E5D84] [75C26701]
03 98,9 [BCB2B661] [52C5BADA]
04 98,9 [0FCB4EFF] [9D97D660]
05 97,8 [A7BAA77C] [95737E4F]
06 97,7 [CD1DF843] [087F56B4]
07 98,9 [97D3FA17] [6BD22DAD]
08 98,9 [C366A842] [292A66F1]
09 98,9 [04300B23] [A6D1FC5F]
10 98,9 [F80580C1] [9C32DB6E]

***************

ABBA - The Albums (2008) {9CD Box Set, Remastered} Re-Up

Disc 5 - The Album (1977)

Track List:

01. Eagle [5:50]
02. Take A Chance On Me [4:07]
03. One Man, One Woman [4:34]
04. The Name Of The Game [4:54]
05. Move On [4:43]
06. Hole In Your Soul [3:41]
07. Thank You For The Music [3:50]
08. I Wonder (Departure) [4:34]
09. I'm A Marionette [4:09]

Exact Audio Copy V1.2 from 12. August 2016

EAC extraction logfile from 3. March 2017, 18:54

ABBA / The Albums [Disc 5 - The Album, 1977]

Used drive : MATSHITADVD-RAM UJ8A0AS Adapter: 1 ID: 0

Read mode : Secure
Utilize accurate stream : Yes
Defeat audio cache : Yes
Make use of C2 pointers : No

Read offset correction : 102
Overread into Lead-In and Lead-Out : No
Fill up missing offset samples with silence : Yes
Delete leading and trailing silent blocks : No
Null samples used in CRC calculations : Yes
Used interface : Native Win32 interface for Win NT & 2000

Used output format : Internal WAV Routines
Sample format : 44.100 Hz; 16 Bit; Stereo


TOC of the extracted CD

Track | Start | Length | Start sector | End sector
––––––––––––––––––––––––––––-
1 | 0:00.00 | 5:49.70 | 0 | 26244
2 | 5:49.70 | 4:07.07 | 26245 | 44776
3 | 9:57.02 | 4:34.35 | 44777 | 65361
4 | 14:31.37 | 4:54.28 | 65362 | 87439
5 | 19:25.65 | 4:42.57 | 87440 | 108646
6 | 24:08.47 | 3:41.13 | 108647 | 125234
7 | 27:49.60 | 3:49.40 | 125235 | 142449
8 | 31:39.25 | 4:33.47 | 142450 | 162971
9 | 36:12.72 | 4:09.20 | 162972 | 181666


Range status and errors

Selected range

Filename F:\Alexharvey\ABBA - The Albums [Disc 5 - The Album, 1977].wav

Peak level 99.2 %
Extraction speed 2.3 X
Range quality 100.0 %
Test CRC D1DCD3B8
Copy CRC D1DCD3B8
Copy OK

No errors occurred


AccurateRip summary

Track 1 accurately ripped (confidence 200) [CC115E5A] (AR v2)
Track 2 accurately ripped (confidence 200) [51515E86] (AR v2)
Track 3 accurately ripped (confidence 200) [5F5560C8] (AR v2)
Track 4 accurately ripped (confidence 200) [11FF6778] (AR v2)
Track 5 accurately ripped (confidence 200) [839F7305] (AR v2)
Track 6 accurately ripped (confidence 200) [ACB725C6] (AR v2)
Track 7 accurately ripped (confidence 200) [792DB427] (AR v2)
Track 8 accurately ripped (confidence 200) [847F674B] (AR v2)
Track 9 accurately ripped (confidence 200) [E9C3903E] (AR v2)

All tracks accurately ripped

End of status report

–– CUETools DB Plugin V2.1.6

[CTDB TOCID: uYQpqus53T826IBI5.q5wEWJyZk-] found
Submit result: already submitted
Track | CTDB Status
1 | (357/362) Accurately ripped
2 | (359/362) Accurately ripped
3 | (357/362) Accurately ripped
4 | (359/362) Accurately ripped
5 | (359/362) Accurately ripped
6 | (358/362) Accurately ripped
7 | (357/362) Accurately ripped
8 | (356/362) Accurately ripped
9 | (358/362) Accurately ripped


==== Log checksum 5ED32E5E5CF743B563EE11EEF827983B1ABFDCCB91B3A10A2EA7A06A8E664CF9 ====

foobar2000 1.3.14 / Dynamic Range Meter 1.1.1
log date: 2017-03-03 19:04:19

––––––––––––––––––––––––––––––––––––––––
Analyzed: ABBA / The Albums [Disc 5 - The Album, 1977]
––––––––––––––––––––––––––––––––––––––––

DR Peak RMS Duration Track
––––––––––––––––––––––––––––––––––––––––
DR8 -0.09 dB -9.85 dB 5:50 01-Eagle
DR8 -0.06 dB -9.14 dB 4:07 02-Take A Chance On Me
DR8 -0.09 dB -10.10 dB 4:34 03-One Man, One Woman
DR8 -0.19 dB -10.75 dB 4:54 04-The Name Of The Game
DR7 -0.09 dB -9.51 dB 4:43 05-Move On
DR6 -0.09 dB -8.16 dB 3:41 06-Hole In Your Soul
DR8 -0.19 dB -10.80 dB 3:50 07-Thank You For The Music
DR9 -0.09 dB -12.07 dB 4:34 08-I Wonder (Departure)
DR7 -0.09 dB -9.35 dB 4:09 09-I'm A Marionette
––––––––––––––––––––––––––––––––––––––––

Number of tracks: 9
Official DR value: DR8

Samplerate: 44100 Hz
Channels: 2
Bits per sample: 16
Bitrate: 967 kbps
Codec: FLAC
================================================================================

[CUETools log; Date: 03.03.2017 19:05:10; Version: 2.1.6]
[CTDB TOCID: uYQpqus53T826IBI5.q5wEWJyZk-] found.
Track | CTDB Status
1 | (357/362) Accurately ripped
2 | (359/362) Accurately ripped
3 | (357/362) Accurately ripped
4 | (359/362) Accurately ripped
5 | (359/362) Accurately ripped
6 | (358/362) Accurately ripped
7 | (357/362) Accurately ripped
8 | (356/362) Accurately ripped
9 | (358/362) Accurately ripped
[AccurateRip ID: 000e6a9b-00685317-75097609] found.
Track [ CRC | V2 ] Status
01 [33d43148|cc115e5a] (126+200/328) Accurately ripped
02 [1e8176ac|51515e86] (128+200/332) Accurately ripped
03 [fdc1b18c|5f5560c8] (126+200/328) Accurately ripped
04 [d2202878|11ff6778] (127+200/329) Accurately ripped
05 [a7aebbce|839f7305] (125+200/329) Accurately ripped
06 [4a2ad1f5|acb725c6] (124+200/326) Accurately ripped
07 [669cf376|792db427] (128+200/330) Accurately ripped
08 [1fafbd93|847f674b] (127+200/329) Accurately ripped
09 [4aee05ab|e9c3903e] (122+200/324) Accurately ripped
Offsetted by -676:
01 [a3b4680f] (000/328) No match (V2 was not tested)
02 [0da77198] (000/332) No match (V2 was not tested)
03 [2de747b8] (000/328) No match (V2 was not tested)
04 [af1cffa2] (000/329) No match (V2 was not tested)
05 [a65d9214] (000/329) No match (V2 was not tested)
06 [6a6873a1] (000/326) No match (V2 was not tested)
07 [138c1113] (000/330) No match (V2 was not tested)
08 [fd3e74a9] (000/329) No match (V2 was not tested)
09 [b7bde1fe] (000/324) No match (V2 was not tested)
Offsetted by -6:
01 [e0377b00] (000/328) No match (V2 was not tested)
02 [45a02c13] (000/332) No match (V2 was not tested)
03 [98acbc32] (000/328) No match (V2 was not tested)
04 [7b1cd7da] (000/329) No match (V2 was not tested)
05 [56e8b9d2] (000/329) No match (V2 was not tested)
06 [1a1d64d2] (000/326) No match
07 [c27bcb16] (000/330) No match
08 [81952494] (000/329) No match
09 [a6a26eef] (000/324) No match

Track Peak [ CRC32 ] [W/O NULL] [ LOG ]
– 99,2 [D1DCD3B8] [9AFB1F73] CRC32
01 98,9 [2A2CEC49] [74BA423B]
02 99,2 [39FB77F2] [C930B5CD]
03 98,9 [E46401AD] [E718EC73]
04 97,8 [0D5A0425] [E9FAD70E]
05 98,9 [C3E606C5] [B39B5F1B]
06 98,9 [2654083A] [CA2B2AA4]
07 97,8 [E98705DA] [08969C1F]
08 98,9 [0E6B6A9A] [6414C3BD]
09 98,9 [4019BF0A] [1E44CC99]

***************

ABBA - The Albums (2008) {9CD Box Set, Remastered} Re-Up

Disc 6 - Voulez-Vous (1979)

Track List:

01. As Good As New [3:24]
02. Voulez-Vous [5:09]
03. I Have A Dream [4:45]
04. Angel Eyes [4:23]
05. The King Has Lost His Crown [3:34]
06. Does Your Mother Know [3:15]
07. If It Wasn't For The Nights [5:11]
08. Chiquitita [5:27]
09. Lovers (Live A Little Longer) [3:31]
10. Kisses Of Fire [3:22]

Exact Audio Copy V1.2 from 12. August 2016

EAC extraction logfile from 2. March 2017, 20:12

ABBA / The Albums [Disc 6 - Voulez-Vous, 1979]

Used drive : MATSHITADVD-RAM UJ8A0AS Adapter: 1 ID: 0

Read mode : Secure
Utilize accurate stream : Yes
Defeat audio cache : Yes
Make use of C2 pointers : No

Read offset correction : 102
Overread into Lead-In and Lead-Out : No
Fill up missing offset samples with silence : Yes
Delete leading and trailing silent blocks : No
Null samples used in CRC calculations : Yes
Used interface : Native Win32 interface for Win NT & 2000

Used output format : Internal WAV Routines
Sample format : 44.100 Hz; 16 Bit; Stereo


TOC of the extracted CD

Track | Start | Length | Start sector | End sector
––––––––––––––––––––––––––––-
1 | 0:00.00 | 3:23.60 | 0 | 15284
2 | 3:23.60 | 5:08.52 | 15285 | 38436
3 | 8:32.37 | 4:44.45 | 38437 | 59781
4 | 13:17.07 | 4:22.68 | 59782 | 79499
5 | 17:40.00 | 3:34.27 | 79500 | 95576
6 | 21:14.27 | 3:15.35 | 95577 | 110236
7 | 24:29.62 | 5:10.58 | 110237 | 133544
8 | 29:40.45 | 5:26.55 | 133545 | 158049
9 | 35:07.25 | 3:31.00 | 158050 | 173874
10 | 38:38.25 | 3:21.57 | 173875 | 189006


Range status and errors

Selected range

Filename F:\Alexharvey\ABBA - The Albums [Disc 6 - Voulez-Vous, 1979].wav

Peak level 98.0 %
Extraction speed 2.3 X
Range quality 100.0 %
Test CRC 706B31C8
Copy CRC 706B31C8
Copy OK

No errors occurred


AccurateRip summary

Track 1 accurately ripped (confidence 200) [20A6BEFB] (AR v2)
Track 2 accurately ripped (confidence 200) [1E3B13DA] (AR v2)
Track 3 accurately ripped (confidence 200) [B35385ED] (AR v2)
Track 4 accurately ripped (confidence 200) [C3F37104] (AR v2)
Track 5 accurately ripped (confidence 200) [8992EDDC] (AR v2)
Track 6 accurately ripped (confidence 200) [4170DB87] (AR v2)
Track 7 accurately ripped (confidence 200) [71A9E72D] (AR v2)
Track 8 accurately ripped (confidence 200) [DBF283F5] (AR v2)
Track 9 accurately ripped (confidence 200) [40B0D897] (AR v2)
Track 10 accurately ripped (confidence 200) [09A8BEA9] (AR v2)

All tracks accurately ripped

End of status report

–– CUETools DB Plugin V2.1.6

[CTDB TOCID: RQoehdH_rR1JnF7_8zY47wA2hHs-] found
Submit result: RQoehdH_rR1JnF7_8zY47wA2hHs- has been confirmed
Track | CTDB Status
1 | (361/367) Accurately ripped
2 | (363/367) Accurately ripped
3 | (359/367) Accurately ripped
4 | (357/367) Accurately ripped
5 | (362/367) Accurately ripped
6 | (363/367) Accurately ripped
7 | (362/367) Accurately ripped
8 | (362/367) Accurately ripped
9 | (363/367) Accurately ripped
10 | (362/367) Accurately ripped


==== Log checksum 758E97A701C82961C7ABC52885129918BB6E5137396829CBA573F2FD6B2CED20 ====

foobar2000 1.3.14 / Dynamic Range Meter 1.1.1
log date: 2017-03-02 20:14:27

––––––––––––––––––––––––––––––––––––––––
Analyzed: ABBA / The Albums [Disc 6 - Voulez-Vous, 1979]
––––––––––––––––––––––––––––––––––––––––

DR Peak RMS Duration Track
––––––––––––––––––––––––––––––––––––––––
DR8 -0.19 dB -10.09 dB 3:24 01-As Good As New
DR7 -0.29 dB -8.80 dB 5:09 02-Voulez-Vous
DR10 -0.19 dB -12.52 dB 4:45 03-I Have A Dream
DR8 -0.17 dB -9.77 dB 4:23 04-Angel Eyes
DR7 -0.19 dB -9.96 dB 3:34 05-The King Has Lost His Crown
DR7 -0.29 dB -8.92 dB 3:15 06-Does Your Mother Know
DR8 -0.19 dB -9.63 dB 5:11 07-If It Wasn't For The Nights
DR8 -0.29 dB -11.03 dB 5:27 08-Chiquitita
DR8 -0.19 dB -9.83 dB 3:31 09-Lovers (Live A Little Longer)
DR7 -0.19 dB -10.01 dB 3:22 10-Kisses Of Fire
––––––––––––––––––––––––––––––––––––––––

Number of tracks: 10
Official DR value: DR8

Samplerate: 44100 Hz
Channels: 2
Bits per sample: 16
Bitrate: 1008 kbps
Codec: FLAC
================================================================================

[CUETools log; Date: 02.03.2017 20:15:05; Version: 2.1.6]
[CTDB TOCID: RQoehdH_rR1JnF7_8zY47wA2hHs-] found.
Track | CTDB Status
1 | (362/368) Accurately ripped
2 | (364/368) Accurately ripped
3 | (360/368) Accurately ripped
4 | (358/368) Accurately ripped
5 | (363/368) Accurately ripped
6 | (364/368) Accurately ripped
7 | (363/368) Accurately ripped
8 | (363/368) Accurately ripped
9 | (364/368) Accurately ripped
10 | (363/368) Accurately ripped
[AccurateRip ID: 0010126f-0080ba2c-7709d80a] found.
Track [ CRC | V2 ] Status
01 [587fc0b9|20a6befb] (126+200/326) Accurately ripped
02 [74c8d71e|1e3b13da] (128+200/330) Accurately ripped
03 [185ce640|b35385ed] (129+200/329) Accurately ripped
04 [bc2d586f|c3f37104] (128+200/330) Accurately ripped
05 [8bc8033e|8992eddc] (126+200/328) Accurately ripped
06 [c6df08ff|4170db87] (129+200/329) Accurately ripped
07 [7d663154|71a9e72d] (121+200/323) Accurately ripped
08 [d8522ea5|dbf283f5] (129+200/329) Accurately ripped
09 [b047842f|40b0d897] (128+200/328) Accurately ripped
10 [c66ee354|09a8bea9] (123+200/323) Accurately ripped
Offsetted by -676:
01 [bdd36c30] (000/326) No match (V2 was not tested)
02 [1c3ab0ca] (000/330) No match (V2 was not tested)
03 [bd53743a] (000/329) No match (V2 was not tested)
04 [70598008] (000/330) No match (V2 was not tested)
05 [fbd9fcc5] (000/328) No match (V2 was not tested)
06 [561a046c] (000/329) No match (V2 was not tested)
07 [1087c9d4] (000/323) No match (V2 was not tested)
08 [da0a1dda] (000/329) No match (V2 was not tested)
09 [79f3d1ae] (000/328) No match (V2 was not tested)
10 [63a6b180] (000/323) No match (V2 was not tested)
Offsetted by -6:
01 [fc98e1ac] (000/326) No match (V2 was not tested)
02 [029370bf] (000/330) No match (V2 was not tested)
03 [f4455751] (000/329) No match (V2 was not tested)
04 [44d368ed] (000/330) No match (V2 was not tested)
05 [54445b46] (000/328) No match (V2 was not tested)
06 [e8b15cf4] (000/329) No match (V2 was not tested)
07 [ea0ea499] (000/323) No match
08 [99789232] (000/329) No match
09 [e2c520d2] (000/328) No match
10 [9e371e34] (000/323) No match

Track Peak [ CRC32 ] [W/O NULL] [ LOG ]
– 98,0 [706B31C8] [BC36D70E] CRC32
01 97,8 [64BF57BE] [F5A9BC52]
02 96,6 [03CB37B1] [39856E8D]
03 97,7 [9E3B5ED9] [DD6783BB]
04 98,0 [1396FDE2] [5B6EBF62]
05 97,8 [53193069] [138B0798]
06 96,6 [FB9425A8] [8684BB66]
07 97,8 [9F2B3D8D] [5A1F43CB]
08 96,6 [7E96E0E1] [75B44AA9]
09 97,8 [E2041D16] [4475A3BA]
10 97,7 [3C7DE14E] [E6AD2BA7]

***************

ABBA - The Albums (2008) {9CD Box Set, Remastered} Re-Up

Disc 7 - Super Trouper (1980)

Track List:

01. Super Trouper [4:15]
02. The Winner Takes It All [4:56]
03. On and On and On [3:43]
04. Andante, Andante [4:41]
05. Me and I [4:56]
06. Happy New Year [4:25]
07. Our Last Summer [4:21]
08. The Piper [3:27]
09. Lay All Your Love on Me [4:36]
10. The Way Old Friends Do [3:00]

Exact Audio Copy V1.2 from 12. August 2016

EAC extraction logfile from 2. March 2017, 19:27

ABBA / The Albums [Disc 7 - Super Trouper, 1980]

Used drive : MATSHITADVD-RAM UJ8A0AS Adapter: 1 ID: 0

Read mode : Secure
Utilize accurate stream : Yes
Defeat audio cache : Yes
Make use of C2 pointers : No

Read offset correction : 102
Overread into Lead-In and Lead-Out : No
Fill up missing offset samples with silence : Yes
Delete leading and trailing silent blocks : No
Null samples used in CRC calculations : Yes
Used interface : Native Win32 interface for Win NT & 2000

Used output format : Internal WAV Routines
Sample format : 44.100 Hz; 16 Bit; Stereo


TOC of the extracted CD

Track | Start | Length | Start sector | End sector
––––––––––––––––––––––––––––-
1 | 0:00.00 | 4:15.00 | 0 | 19124
2 | 4:15.00 | 4:56.12 | 19125 | 41336
3 | 9:11.12 | 3:42.40 | 41337 | 58026
4 | 12:53.52 | 4:41.00 | 58027 | 79101
5 | 17:34.52 | 4:56.28 | 79102 | 101329
6 | 22:31.05 | 4:25.32 | 101330 | 121236
7 | 26:56.37 | 4:21.00 | 121237 | 140811
8 | 31:17.37 | 3:27.28 | 140812 | 156364
9 | 34:44.65 | 4:35.68 | 156365 | 177057
10 | 39:20.58 | 2:59.61 | 177058 | 190543


Range status and errors

Selected range

Filename F:\Alexharvey\ABBA - The Albums [Disc 7 - Super Trouper, 1980].wav

Peak level 98.9 %
Extraction speed 2.3 X
Range quality 100.0 %
Test CRC 095FAFAC
Copy CRC 095FAFAC
Copy OK

No errors occurred


AccurateRip summary

Track 1 accurately ripped (confidence 200) [6DFC489D] (AR v2)
Track 2 accurately ripped (confidence 200) [ABB79517] (AR v2)
Track 3 accurately ripped (confidence 200) [15F76561] (AR v2)
Track 4 accurately ripped (confidence 200) [C45B4DC3] (AR v2)
Track 5 accurately ripped (confidence 200) [48358B80] (AR v2)
Track 6 accurately ripped (confidence 200) [84CC402B] (AR v2)
Track 7 accurately ripped (confidence 200) [49C492A6] (AR v2)
Track 8 accurately ripped (confidence 200) [0DCA56A5] (AR v2)
Track 9 accurately ripped (confidence 200) [EE65223C] (AR v2)
Track 10 accurately ripped (confidence 200) [CB0B7CD2] (AR v2)

All tracks accurately ripped

End of status report

–– CUETools DB Plugin V2.1.6

[CTDB TOCID: kbStgxn3NRBSXhc.2FiGJQPPmjg-] found
Submit result: kbStgxn3NRBSXhc.2FiGJQPPmjg- has been confirmed
Track | CTDB Status
1 | (357/365) Accurately ripped
2 | (363/365) Accurately ripped
3 | (363/365) Accurately ripped
4 | (363/365) Accurately ripped
5 | (363/365) Accurately ripped
6 | (363/365) Accurately ripped
7 | (362/365) Accurately ripped
8 | (362/365) Accurately ripped
9 | (363/365) Accurately ripped
10 | (360/365) Accurately ripped


==== Log checksum 134BEB1EE76A1E8213BCB23AEEC85E9EE049D3D06A5905A3C0F93E9C7034C8FF ====

foobar2000 1.3.14 / Dynamic Range Meter 1.1.1
log date: 2017-03-02 19:29:11

––––––––––––––––––––––––––––––––––––––––
Analyzed: ABBA / The Albums [Disc 7 - Super Trouper, 1980]
––––––––––––––––––––––––––––––––––––––––

DR Peak RMS Duration Track
––––––––––––––––––––––––––––––––––––––––
DR8 -0.19 dB -9.30 dB 4:15 01-Super Trouper
DR8 -0.19 dB -10.79 dB 4:56 02-The Winner Takes It All
DR8 -0.09 dB -9.86 dB 3:43 03-On and On and On
DR8 -0.09 dB -11.11 dB 4:41 04-Andante, Andante
DR8 -0.09 dB -9.38 dB 4:56 05-Me and I
DR8 -0.09 dB -11.35 dB 4:25 06-Happy New Year
DR8 -0.09 dB -9.72 dB 4:21 07-Our Last Summer
DR9 -0.09 dB -9.94 dB 3:27 08-The Piper
DR8 -0.19 dB -9.15 dB 4:36 09-Lay All Your Love on Me
DR8 -0.09 dB -11.63 dB 3:00 10-The Way Old Friends Do
––––––––––––––––––––––––––––––––––––––––

Number of tracks: 10
Official DR value: DR8

Samplerate: 44100 Hz
Channels: 2
Bits per sample: 16
Bitrate: 1006 kbps
Codec: FLAC
================================================================================

[CUETools log; Date: 02.03.2017 19:31:01; Version: 2.1.6]
[CTDB TOCID: kbStgxn3NRBSXhc.2FiGJQPPmjg-] found.
Track | CTDB Status
1 | (358/366) Accurately ripped
2 | (364/366) Accurately ripped
3 | (364/366) Accurately ripped
4 | (364/366) Accurately ripped
5 | (364/366) Accurately ripped
6 | (364/366) Accurately ripped
7 | (363/366) Accurately ripped
8 | (363/366) Accurately ripped
9 | (364/366) Accurately ripped
10 | (361/366) Accurately ripped
[AccurateRip ID: 00108e09-0083f0d0-8e09ec0a] found.
Track [ CRC | V2 ] Status
01 [063b6911|6dfc489d] (127+200/331) Accurately ripped
02 [deed4f73|abb79517] (125+200/329) Accurately ripped
03 [96ebfa86|15f76561] (126+200/328) Accurately ripped
04 [d31f278c|c45b4dc3] (126+200/330) Accurately ripped
05 [a4940d10|48358b80] (127+200/329) Accurately ripped
06 [f11d8b05|84cc402b] (128+200/330) Accurately ripped
07 [33d562c0|49c492a6] (125+200/327) Accurately ripped
08 [af376779|0dca56a5] (125+200/327) Accurately ripped
09 [477a4e2f|ee65223c] (125+200/327) Accurately ripped
10 [758d230b|cb0b7cd2] (124+200/326) Accurately ripped
Offsetted by -676:
01 [6e26385c] (000/331) No match (V2 was not tested)
02 [0ee763e5] (000/329) No match (V2 was not tested)
03 [59a2899d] (000/328) No match (V2 was not tested)
04 [856c23d9] (000/330) No match (V2 was not tested)
05 [c0906018] (000/329) No match (V2 was not tested)
06 [307bcb1e] (000/330) No match (V2 was not tested)
07 [4b502e4a] (000/327) No match (V2 was not tested)
08 [fa15c75e] (000/327) No match (V2 was not tested)
09 [ee6f1008] (000/327) No match (V2 was not tested)
10 [b66c5d29] (000/326) No match (V2 was not tested)
Offsetted by -6:
01 [7615f56d] (000/331) No match (V2 was not tested)
02 [b8763175] (000/329) No match (V2 was not tested)
03 [cf8192e2] (000/328) No match (V2 was not tested)
04 [a1d3c9e2] (000/330) No match (V2 was not tested)
05 [73ee2b65] (000/329) No match (V2 was not tested)
06 [0d726ac6] (000/330) No match
07 [a3e07fee] (000/327) No match
08 [0b3bee7b] (000/327) No match
09 [abb9305b] (000/327) No match
10 [c23ed7b9] (000/326) No match

Track Peak [ CRC32 ] [W/O NULL] [ LOG ]
– 98,9 [095FAFAC] [D1D8A0BC] CRC32
01 97,7 [6C34ACA3] [FAB7A62C]
02 97,7 [1DB1940F] [969A21B6]
03 98,9 [A59CBC49] [082779EC]
04 98,9 [AB15F9BC] [41F47DAE]
05 98,9 [C7E821C9] [0835870F]
06 98,9 [8C6DAA6F] [D20F3F74]
07 98,9 [245968C6] [30C43FF5]
08 98,9 [D076E9D7] [63D603E9]
09 97,8 [E6EF8AF0] [156A7548]
10 98,9 [CF1820F7] [13918ABE]

***************

ABBA - The Albums (2008) {9CD Box Set, Remastered} Re-Up

Disc 8 - The Visitors (1981)

Track List:

01. The Visitors [5:47]
02. Head Over Heels [3:49]
03. When All Is Said And Done [3:19]
04. Soldiers [4:41]
05. I Let The Music Speak [5:21]
06. One Of Us [3:57]
07. Two For The Price Of One [3:38]
08. Slipping Through My Fingers [3:54]
09. Like An Angel Passing Through My Room [3:40]

Exact Audio Copy V1.2 from 12. August 2016

EAC extraction logfile from 2. March 2017, 18:06

ABBA / The Albums [Disc 8 - The Visitors, 1981]

Used drive : MATSHITADVD-RAM UJ8A0AS Adapter: 1 ID: 0

Read mode : Secure
Utilize accurate stream : Yes
Defeat audio cache : Yes
Make use of C2 pointers : No

Read offset correction : 102
Overread into Lead-In and Lead-Out : No
Fill up missing offset samples with silence : Yes
Delete leading and trailing silent blocks : No
Null samples used in CRC calculations : Yes
Used interface : Native Win32 interface for Win NT & 2000

Used output format : Internal WAV Routines
Sample format : 44.100 Hz; 16 Bit; Stereo


TOC of the extracted CD

Track | Start | Length | Start sector | End sector
––––––––––––––––––––––––––––-
1 | 0:00.00 | 5:46.65 | 0 | 26014
2 | 5:46.65 | 3:48.52 | 26015 | 43166
3 | 9:35.42 | 3:18.43 | 43167 | 58059
4 | 12:54.10 | 4:40.62 | 58060 | 79121
5 | 17:34.72 | 5:21.28 | 79122 | 103224
6 | 22:56.25 | 3:56.62 | 103225 | 120986
7 | 26:53.12 | 3:37.65 | 120987 | 137326
8 | 30:31.02 | 3:53.68 | 137327 | 154869
9 | 34:24.70 | 3:39.57 | 154870 | 171351


Range status and errors

Selected range

Filename F:\Alexharvey\ABBA - The Albums [Disc 8 - The Visitors, 1981].wav

Peak level 99.9 %
Extraction speed 2.2 X
Range quality 100.0 %
Test CRC 72C4B532
Copy CRC 72C4B532
Copy OK

No errors occurred


AccurateRip summary

Track 1 accurately ripped (confidence 200) [2C74A225] (AR v2)
Track 2 accurately ripped (confidence 200) [E4EC2D7C] (AR v2)
Track 3 accurately ripped (confidence 200) [BF581FB5] (AR v2)
Track 4 accurately ripped (confidence 200) [FF2D0BC0] (AR v2)
Track 5 accurately ripped (confidence 200) [37DE05A1] (AR v2)
Track 6 accurately ripped (confidence 200) [5528AB2C] (AR v2)
Track 7 accurately ripped (confidence 200) [00368D1B] (AR v2)
Track 8 accurately ripped (confidence 200) [08D71B2D] (AR v2)
Track 9 accurately ripped (confidence 200) [771B886B] (AR v2)

All tracks accurately ripped

End of status report

–– CUETools DB Plugin V2.1.6

[CTDB TOCID: HsRixz3O8.I2v56c9PnEAOJaE4o-] found
Submit result: already submitted
Track | CTDB Status
1 | (356/362) Accurately ripped
2 | (360/362) Accurately ripped
3 | (359/362) Accurately ripped
4 | (358/362) Accurately ripped
5 | (359/362) Accurately ripped
6 | (359/362) Accurately ripped
7 | (359/362) Accurately ripped
8 | (360/362) Accurately ripped
9 | (359/362) Accurately ripped


==== Log checksum D08BEC70D2934A82B0BD805C14EA9D979F99BFE691F26E7DA12AF876883A64BF ====

foobar2000 1.3.14 / Dynamic Range Meter 1.1.1
log date: 2017-03-02 18:09:14

––––––––––––––––––––––––––––––––––––––––
Analyzed: ABBA / The Albums [Disc 8 - The Visitors, 1981]
––––––––––––––––––––––––––––––––––––––––

DR Peak RMS Duration Track
––––––––––––––––––––––––––––––––––––––––
DR8 -0.09 dB -11.43 dB 5:47 01-The Visitors
DR8 -0.02 dB -9.39 dB 3:49 02-Head Over Heels
DR7 -0.09 dB -9.69 dB 3:19 03-When All Is Said And Done
DR7 -0.01 dB -8.56 dB 4:41 04-Soldiers
DR7 -0.09 dB -10.00 dB 5:21 05-I Let The Music Speak
DR8 -0.19 dB -10.20 dB 3:57 06-One Of Us
DR8 -0.09 dB -9.49 dB 3:38 07-Two For The Price Of One
DR8 -0.09 dB -10.81 dB 3:54 08-Slipping Through My Fingers
DR13 -0.10 dB -17.85 dB 3:40 09-Like An Angel Passing Through My Room
––––––––––––––––––––––––––––––––––––––––

Number of tracks: 9
Official DR value: DR8

Samplerate: 44100 Hz
Channels: 2
Bits per sample: 16
Bitrate: 943 kbps
Codec: FLAC
================================================================================

[CUETools log; Date: 02.03.2017 18:09:59; Version: 2.1.6]
[CTDB TOCID: HsRixz3O8.I2v56c9PnEAOJaE4o-] found.
Track | CTDB Status
1 | (356/362) Accurately ripped
2 | (360/362) Accurately ripped
3 | (359/362) Accurately ripped
4 | (358/362) Accurately ripped
5 | (359/362) Accurately ripped
6 | (359/362) Accurately ripped
7 | (359/362) Accurately ripped
8 | (360/362) Accurately ripped
9 | (359/362) Accurately ripped
[AccurateRip ID: 000da4ad-0062e6c7-8108ec09] found.
Track [ CRC | V2 ] Status
01 [16d03be4|2c74a225] (123+200/325) Accurately ripped
02 [6f371f92|e4ec2d7c] (124+200/326) Accurately ripped
03 [2595f82a|bf581fb5] (124+200/326) Accurately ripped
04 [c1a78707|ff2d0bc0] (124+200/326) Accurately ripped
05 [01af524e|37de05a1] (123+200/325) Accurately ripped
06 [02f7a7a2|5528ab2c] (125+200/327) Accurately ripped
07 [9f354c22|00368d1b] (123+200/325) Accurately ripped
08 [cb44c1de|08d71b2d] (125+200/327) Accurately ripped
09 [4887171e|771b886b] (121+200/323) Accurately ripped
Offsetted by -18:
01 [c3db3528] (000/325) No match (V2 was not tested)
02 [0bd7682f] (000/326) No match (V2 was not tested)
03 [a4100614] (000/326) No match (V2 was not tested)
04 [23ac7356] (000/326) No match (V2 was not tested)
05 [afb1e8cc] (000/325) No match (V2 was not tested)
06 [b7f0d000] (000/327) No match (V2 was not tested)
07 [518ebb41] (000/325) No match (V2 was not tested)
08 [85f6543b] (000/327) No match (V2 was not tested)
09 [9c460325] (000/323) No match (V2 was not tested)

Track Peak [ CRC32 ] [W/O NULL] [ LOG ]
– 99,9 [72C4B532] [3B51DBEA] CRC32
01 98,9 [B2C63D1D] [1B830AD8]
02 99,7 [5115F754] [C5574ADE]
03 98,9 [628F2159] [0A0426FA]
04 99,9 [FDD47DB2] [784BDD87]
05 98,9 [B38440EC] [9D7CCEC0]
06 97,8 [930A250E] [3BBE66C0]
07 98,9 [9B8F1CD6] [E625FB68]
08 98,9 [99E7211A] [FDA61376]
09 98,8 [DD80E7BD] [DC70AACD]

***************

ABBA - The Albums (2008) {9CD Box Set, Remastered} Re-Up

Disc 9 - Bonus Tracks

ABBA - The Albums (2008) {9CD Box Set, Remastered} Re-Up

Track List:

01. Merry-Go-Round [3:26]
02. Santa Rosa [3:02]
03. Ring Ring (Bara Du Slog En Signal) [3:09]
04. Waterloo [2:47]
05. Fernando [4:15]
06. Crazy World [3:47]
07. Happy Hawaii [4:26]
08. Summer Night City [3:36]
09. Medley [4:22]
10. Lovelight [3:49]
11. Gimme! Gimme! Gimme! (A Man After Midnight) [4:51]
12. Elaine [3:46]
13. Should I Laugh Or Cry [4:28]
14. You Owe Me One [3:29]
15. Cassandra [4:55]
16. Under Attack [3:50]
17. The Day Before You Came [5:50]

Exact Audio Copy V1.2 from 12. August 2016

EAC extraction logfile from 2. March 2017, 16:44

ABBA / The Albums [Disc 9 - Bonus Tracks]

Used drive : MATSHITADVD-RAM UJ8A0AS Adapter: 1 ID: 0

Read mode : Secure
Utilize accurate stream : Yes
Defeat audio cache : Yes
Make use of C2 pointers : No

Read offset correction : 102
Overread into Lead-In and Lead-Out : No
Fill up missing offset samples with silence : Yes
Delete leading and trailing silent blocks : No
Null samples used in CRC calculations : Yes
Used interface : Native Win32 interface for Win NT & 2000

Used output format : Internal WAV Routines
Sample format : 44.100 Hz; 16 Bit; Stereo


TOC of the extracted CD

Track | Start | Length | Start sector | End sector
––––––––––––––––––––––––––––-
1 | 0:00.00 | 3:26.27 | 0 | 15476
2 | 3:26.27 | 3:02.03 | 15477 | 29129
3 | 6:28.30 | 3:09.21 | 29130 | 43325
4 | 9:37.51 | 2:46.57 | 43326 | 55832
5 | 12:24.33 | 4:15.24 | 55833 | 74981
6 | 16:39.57 | 3:46.74 | 74982 | 92005
7 | 20:26.56 | 4:25.44 | 92006 | 111924
8 | 24:52.25 | 3:35.64 | 111925 | 128113
9 | 28:28.14 | 4:22.21 | 128114 | 147784
10 | 32:50.35 | 3:48.48 | 147785 | 164932
11 | 36:39.08 | 4:50.61 | 164933 | 186743
12 | 41:29.69 | 3:45.54 | 186744 | 203672
13 | 45:15.48 | 4:27.46 | 203673 | 223743
14 | 49:43.19 | 3:28.53 | 223744 | 239396
15 | 53:11.72 | 4:54.47 | 239397 | 261493
16 | 58:06.44 | 3:49.61 | 261494 | 278729
17 | 61:56.30 | 5:50.11 | 278730 | 304990


Range status and errors

Selected range

Filename F:\Alexharvey\ABBA - The Albums [Disc 9 - Bonus Tracks].wav

Peak level 100.0 %
Extraction speed 2.6 X
Range quality 100.0 %
Test CRC 8396CE98
Copy CRC 8396CE98
Copy OK

No errors occurred


AccurateRip summary

Track 1 accurately ripped (confidence 200) [1D9A51C0] (AR v2)
Track 2 accurately ripped (confidence 200) [14D8C04F] (AR v2)
Track 3 accurately ripped (confidence 200) [4AA3DB05] (AR v2)
Track 4 accurately ripped (confidence 200) [18279F41] (AR v2)
Track 5 accurately ripped (confidence 200) [E206BE72] (AR v2)
Track 6 accurately ripped (confidence 200) [49F82443] (AR v2)
Track 7 accurately ripped (confidence 200) [FE28AE2D] (AR v2)
Track 8 accurately ripped (confidence 200) [3C42241A] (AR v2)
Track 9 accurately ripped (confidence 200) [844979B2] (AR v2)
Track 10 accurately ripped (confidence 200) [2A9DA6E6] (AR v2)
Track 11 accurately ripped (confidence 200) [B88B6B8A] (AR v2)
Track 12 accurately ripped (confidence 200) [4A7DD8CD] (AR v2)
Track 13 accurately ripped (confidence 200) [8D40674B] (AR v2)
Track 14 accurately ripped (confidence 200) [AE0FDB83] (AR v2)
Track 15 accurately ripped (confidence 200) [76C8382F] (AR v2)
Track 16 accurately ripped (confidence 200) [D858B83D] (AR v2)
Track 17 accurately ripped (confidence 200) [2D3ED43F] (AR v2)

All tracks accurately ripped

End of status report

–– CUETools DB Plugin V2.1.6

[CTDB TOCID: 40y1vHEuinygbzFOw9ReGS8y2YY-] found
Submit result: already submitted
Track | CTDB Status
1 | (350/353) Accurately ripped
2 | (351/353) Accurately ripped
3 | (351/353) Accurately ripped
4 | (350/353) Accurately ripped
5 | (345/353) Accurately ripped
6 | (350/353) Accurately ripped
7 | (350/353) Accurately ripped
8 | (346/353) Accurately ripped
9 | (349/353) Accurately ripped
10 | (351/353) Accurately ripped
11 | (349/353) Accurately ripped
12 | (350/353) Accurately ripped
13 | (346/353) Accurately ripped
14 | (349/353) Accurately ripped
15 | (348/353) Accurately ripped
16 | (346/353) Accurately ripped
17 | (343/353) Accurately ripped


==== Log checksum F6DA71944761C237E3A65449B7D1556CCCF6FD1DFE819FE5147527B14D65BDD6 ====

foobar2000 1.3.14 / Dynamic Range Meter 1.1.1
log date: 2017-03-02 16:46:46

––––––––––––––––––––––––––––––––––––––––
Analyzed: ABBA / The Albums [Disc 9 - Bonus Tracks]
––––––––––––––––––––––––––––––––––––––––

DR Peak RMS Duration Track
––––––––––––––––––––––––––––––––––––––––
DR8 0.00 dB -8.95 dB 3:26 01-Merry-Go-Round
DR7 -0.09 dB -8.29 dB 3:02 02-Santa Rosa
DR8 -0.09 dB -8.59 dB 3:09 03-Ring Ring (Bara Du Slog En Signal)
DR7 -0.09 dB -7.77 dB 2:47 04-Waterloo
DR8 -0.19 dB -10.73 dB 4:15 05-Fernando
DR7 -0.09 dB -8.67 dB 3:47 06-Crazy World
DR7 -0.09 dB -8.88 dB 4:26 07-Happy Hawaii
DR6 -0.19 dB -7.50 dB 3:36 08-Summer Night City
DR7 -0.09 dB -7.81 dB 4:22 09-Medley
DR7 -0.09 dB -8.55 dB 3:49 10-Lovelight
DR7 -0.29 dB -9.09 dB 4:51 11-Gimme! Gimme! Gimme! (A Man After Midnight)
DR9 -0.09 dB -10.53 dB 3:46 12-Elaine
DR7 -0.09 dB -9.27 dB 4:28 13-Should I Laugh Or Cry
DR8 -0.09 dB -9.33 dB 3:29 14-You Owe Me One
DR8 0.00 dB -10.46 dB 4:55 15-Cassandra
DR8 -0.09 dB -10.75 dB 3:50 16-Under Attack
DR9 -0.09 dB -10.80 dB 5:50 17-The Day Before You Came
––––––––––––––––––––––––––––––––––––––––

Number of tracks: 17
Official DR value: DR7

Samplerate: 44100 Hz
Channels: 2
Bits per sample: 16
Bitrate: 994 kbps
Codec: FLAC
================================================================================

[CUETools log; Date: 02.03.2017 16:47:39; Version: 2.1.6]
[CTDB TOCID: 40y1vHEuinygbzFOw9ReGS8y2YY-] found.
Track | CTDB Status
1 | (350/353) Accurately ripped
2 | (351/353) Accurately ripped
3 | (351/353) Accurately ripped
4 | (350/353) Accurately ripped
5 | (345/353) Accurately ripped
6 | (350/353) Accurately ripped
7 | (350/353) Accurately ripped
8 | (346/353) Accurately ripped
9 | (349/353) Accurately ripped
10 | (351/353) Accurately ripped
11 | (349/353) Accurately ripped
12 | (350/353) Accurately ripped
13 | (346/353) Accurately ripped
14 | (349/353) Accurately ripped
15 | (348/353) Accurately ripped
16 | (346/353) Accurately ripped
17 | (343/353) Accurately ripped
[AccurateRip ID: 002718ec-01f7fd6f-f30fe211] found.
Track [ CRC | V2 ] Status
01 [e710b48e|1d9a51c0] (122+200/324) Accurately ripped
02 [1f5bbc78|14d8c04f] (123+200/325) Accurately ripped
03 [34292e10|4aa3db05] (123+200/325) Accurately ripped
04 [b9283f08|18279f41] (123+200/325) Accurately ripped
05 [8ad7d128|e206be72] (123+200/325) Accurately ripped
06 [18d8f850|49f82443] (123+200/325) Accurately ripped
07 [2deb89cd|fe28ae2d] (123+200/325) Accurately ripped
08 [b403942b|3c42241a] (124+200/326) Accurately ripped
09 [830e17e9|844979b2] (122+200/324) Accurately ripped
10 [18c1d8eb|2a9da6e6] (123+200/325) Accurately ripped
11 [7465f33f|b88b6b8a] (126+200/328) Accurately ripped
12 [6424c435|4a7dd8cd] (123+200/325) Accurately ripped
13 [147d961d|8d40674b] (123+200/325) Accurately ripped
14 [053b9ea8|ae0fdb83] (123+200/325) Accurately ripped
15 [431da99c|76c8382f] (125+200/327) Accurately ripped
16 [502aecf8|d858b83d] (125+200/327) Accurately ripped
17 [29af78bb|2d3ed43f] (122+200/326) Accurately ripped
Offsetted by -18:
01 [a54527d4] (000/324) No match (V2 was not tested)
02 [adbc0f41] (000/325) No match (V2 was not tested)
03 [1e28088d] (000/325) No match (V2 was not tested)
04 [079254f5] (000/325) No match (V2 was not tested)
05 [0854ea9f] (000/325) No match (V2 was not tested)
06 [bc7c3284] (000/325) No match (V2 was not tested)
07 [f8541ef5] (000/325) No match (V2 was not tested)
08 [4c731e77] (000/326) No match (V2 was not tested)
09 [76021d2f] (000/324) No match (V2 was not tested)
10 [c6538a49] (000/325) No match (V2 was not tested)
11 [3c20ad81] (000/328) No match (V2 was not tested)
12 [df7ac142] (000/325) No match (V2 was not tested)
13 [6559a1d9] (000/325) No match (V2 was not tested)
14 [cc0a9918] (000/325) No match (V2 was not tested)
15 [1eeb2496] (000/327) No match (V2 was not tested)
16 [faa39cb7] (000/327) No match (V2 was not tested)
17 [023263a8] (000/326) No match (V2 was not tested)

Track Peak [ CRC32 ] [W/O NULL] [ LOG ]
– 100,0 [8396CE98] [0FDBC29B] CRC32
01 100,0 [F79F739C] [6E323349]
02 98,9 [1A5A8CB8] [619DF4D5]
03 98,9 [38D5921C] [CB150E4E]
04 98,9 [0AC6168B] [7803AF3B]
05 97,8 [BE5DD8C1] [87CB5390]
06 98,9 [52ED033C] [13C8BD87]
07 98,9 [A45CD5EA] [A4134F7C]
08 97,8 [428DB062] [4984C565]
09 98,9 [18E414CA] [C1A1BAF3]
10 98,9 [AD84D4A9] [10CD2192]
11 96,6 [5A21588E] [A2C1F338]
12 98,9 [D36696E8] [C0F66815]
13 98,9 [70350AF9] [D1436F86]
14 98,9 [9D1780A0] [6EC9F6F4]
15 100,0 [5AC6A167] [7D666946]
16 98,9 [7BE84A7B] [8504E477]
17 98,9 [657FB7C0] [8DD8AF5E]

ABBA - The Albums (2008) {9CD Box Set, Remastered} Re-Up


All thanks go to Alexharvey

>>> ABBA in my Blog <<<

DOWNLOAD: