Tags
Language
Tags

ABBA - The Definitive Collection (2001)

Posted By: popsakov
ABBA - The Definitive Collection (2001)

ABBA - The Definitive Collection (2001)
2CD | EAC Rip | FLAC (Img) + Cue + Log ~ 1,04 Gb | MP3 CBR320 ~ 356 Mb
Full Scans (JPG, 600 dpi) ~ 41 Mb | RAR 5% Recovery
Pop, Europop, Synth-pop, Disco, Pop Rock, Soft Rock | Polar Music Internation AB #549 974-2

The titles of hits compilations always deal in superlatives: "Greatest," "Best," "Very Best" – but the compilers of this ABBA collection have a special problem justifying the release of yet another such album after the multi-platinum success of 1992's ABBA Gold: Greatest Hits and its 1993 follow-up, More ABBA Gold: More ABBA Hits. (Indeed, the band was never shy about repackaging, issuing a Greatest Hits LP in 1976 as only its third U.S. album, followed by Greatest Hits, Vol. 2 in 1979 and The Singles [The First Ten Years] in 1982.) They have settled on The Definitive Collection and done their best to live up to the name. The 37-track double CD contains "for the first time exclusively collected in one package, each and every single as conceived and released by ABBA and their record company Polar Music between 1972 and 1982," writes annotator Carl Magnus Palm. That accounts for 30 tracks, with another five consisting of songs individual countries released as singles, notably "When All Is Said and Done" and "The Visitors," which Atlantic in the U.S. put out for chart entries. The remaining two tracks are a single remix of "Ring Ring," being given its first American release, and an extended dance remix of "Voulez-Vous," not previously released commercially. The remastered sound is excellent, and the nearly chronological order of the sequencing allows an appreciation of the band's development from light Europop to a disco-influenced sound and onto a more energetic, new wave-influenced approach, all with compelling melodies and dense arrangements in a Phil Spector Wall of Sound production style. Palm's informative liner notes tell the ABBA story single by single. (Who knew that "The Visitors" is about "the fears of dissidents in the Soviet Union"?) If this doesn't satisfy you, go ahead and buy the group's entire catalog.
~ William Ruhlmann, All Music
ABBA - The Definitive Collection (2001)


***************

ABBA - The Definitive Collection (2001)

ABBA - The Definitive Collection (2001)

Track List CD1:

01. People Need Love [2:46]
02. He Is Your Brother [3:18]
03. Ring Ring [3:05]
04. Love Isn't Easy (But Is Sure Is Hard Enough) [2:54]
05. Waterloo [2:47]
06. Honey, Honey [2:56]
07. So Long [3:06]
08. I Do, I Do, I Do, I Do, I Do [3:17]
09. S.O.S. [3:20]
10. Mamma Mia [3:32]
11. Fernando [4:14]
12. Dancing Queen [3:52]
13. Money, Money, Money [3:06]
14. Knowing Me, Knowing You [4:02]
15. The Name Of The Game [4:52]
16. Take A Chance On Me [4:06]
17. Eagle [4:27]
18. Summer Night City [3:36]
19. Chiquitita [5:24]
20. Does Your Mother Know [3:15]

Exact Audio Copy V1.3 from 2. September 2016

EAC extraction logfile from 18. July 2017, 17:36

ABBA / The Definitive Collection (Polar 549974-2), CD-1

Used drive : ATAPI iHAS122 C Adapter: 1 ID: 0

Read mode : Secure
Utilize accurate stream : Yes
Defeat audio cache : Yes
Make use of C2 pointers : No

Read offset correction : 6
Overread into Lead-In and Lead-Out : No
Fill up missing offset samples with silence : Yes
Delete leading and trailing silent blocks : No
Null samples used in CRC calculations : Yes
Used interface : Native Win32 interface for Win NT & 2000

Used output format : Internal WAV Routines
Sample format : 44.100 Hz; 16 Bit; Stereo


TOC of the extracted CD

Track | Start | Length | Start sector | End sector
––––––––––––––––––––––––––––-
1 | 0:00.00 | 2:45.58 | 0 | 12432
2 | 2:45.58 | 3:18.33 | 12433 | 27315
3 | 6:04.16 | 3:04.52 | 27316 | 41167
4 | 9:08.68 | 2:53.72 | 41168 | 54214
5 | 12:02.65 | 2:46.71 | 54215 | 66735
6 | 14:49.61 | 2:55.55 | 66736 | 79915
7 | 17:45.41 | 3:05.40 | 79916 | 93830
8 | 20:51.06 | 3:17.03 | 93831 | 108608
9 | 24:08.09 | 3:20.30 | 108609 | 123638
10 | 27:28.39 | 3:32.25 | 123639 | 139563
11 | 31:00.64 | 4:13.65 | 139564 | 158603
12 | 35:14.54 | 3:51.50 | 158604 | 175978
13 | 39:06.29 | 3:05.60 | 175979 | 189913
14 | 42:12.14 | 4:01.54 | 189914 | 208042
15 | 46:13.68 | 4:52.17 | 208043 | 229959
16 | 51:06.10 | 4:05.52 | 229960 | 248386
17 | 55:11.62 | 4:27.25 | 248387 | 268436
18 | 59:39.12 | 3:36.01 | 268437 | 284637
19 | 63:15.13 | 5:24.33 | 284638 | 308970
20 | 68:39.46 | 3:15.36 | 308971 | 323631


Range status and errors

Selected range

Filename C:\Users\London\Desktop\ABBA - The Definitive Collection (Polar 549974-2), CD-1.wav

Peak level 99.6 %
Extraction speed 9.5 X
Range quality 100.0 %
Test CRC 31DA9B17
Copy CRC 31DA9B17
Copy OK

No errors occurred


AccurateRip summary

Track 1 accurately ripped (confidence 178) [73E7F654] (AR v2)
Track 2 accurately ripped (confidence 174) [4C8F5921] (AR v2)
Track 3 accurately ripped (confidence 175) [3D6EC845] (AR v2)
Track 4 accurately ripped (confidence 178) [CCC53C37] (AR v2)
Track 5 accurately ripped (confidence 175) [22363F32] (AR v2)
Track 6 accurately ripped (confidence 177) [2C218776] (AR v2)
Track 7 accurately ripped (confidence 177) [06528328] (AR v2)
Track 8 accurately ripped (confidence 178) [CDE89522] (AR v2)
Track 9 accurately ripped (confidence 178) [3EC622CE] (AR v2)
Track 10 accurately ripped (confidence 178) [83DA21E3] (AR v2)
Track 11 accurately ripped (confidence 176) [B167D8F7] (AR v2)
Track 12 accurately ripped (confidence 174) [BEACE981] (AR v2)
Track 13 accurately ripped (confidence 175) [4335BABB] (AR v2)
Track 14 accurately ripped (confidence 177) [006CFFEF] (AR v2)
Track 15 accurately ripped (confidence 176) [E0688367] (AR v2)
Track 16 accurately ripped (confidence 172) [345D253C] (AR v2)
Track 17 accurately ripped (confidence 173) [96DD8FED] (AR v2)
Track 18 accurately ripped (confidence 172) [0953D479] (AR v2)
Track 19 accurately ripped (confidence 173) [AE1CF499] (AR v2)
Track 20 accurately ripped (confidence 178) [CCC4F38F] (AR v2)

All tracks accurately ripped

End of status report

–– CUETools DB Plugin V2.1.6

[CTDB TOCID: C8IDQsdoMNcw2asF_mxRtRHQA3g-] found
Submit result: C8IDQsdoMNcw2asF_mxRtRHQA3g- has been confirmed
Track | CTDB Status
1 | (599/612) Accurately ripped
2 | (586/612) Accurately ripped, or (6/612) differs in 34 samples @00:22:49
3 | (598/612) Accurately ripped
4 | (599/612) Accurately ripped
5 | (600/612) Accurately ripped
6 | (591/612) Accurately ripped
7 | (597/612) Accurately ripped
8 | (580/612) Accurately ripped
9 | (599/612) Accurately ripped
10 | (597/612) Accurately ripped
11 | (561/612) Accurately ripped, or (7/612) differs in 1 samples @01:17:33, or (6/612) differs in 260 samples @01:17:32-01:17:33,01:31:08
12 | (598/612) Accurately ripped
13 | (539/612) Accurately ripped, or (6/612) differs in 75 samples @02:40:42-02:40:43
14 | (585/612) Accurately ripped, or (6/612) differs in 151 samples @02:11:09-02:11:10
15 | (543/612) Accurately ripped, or (6/612) differs in 41 samples @01:58:08
16 | (551/612) Accurately ripped
17 | (551/612) Accurately ripped
18 | (550/612) Accurately ripped
19 | (528/612) Accurately ripped, or (7/612) differs in 1178 samples @04:56:60-04:56:61,04:57:30-04:57:31, or (6/612) differs in 132 samples @04:57:30-04:57:31
20 | (544/612) Accurately ripped


==== Log checksum 796662D966D15DF5938D2939E0DE14213DF6DBE3F219CD212A8D9D8110BA27FB ====

foobar2000 1.2.6 / Dynamic Range Meter 1.1.1
log date: 2017-07-23 12:53:06

––––––––––––––––––––––––––––––––––––––––
Analyzed: ABBA / The Definitive Collection (Polar 549974-2), CD-1
––––––––––––––––––––––––––––––––––––––––

DR Peak RMS Duration Track
––––––––––––––––––––––––––––––––––––––––
DR8 -0.26 dB -10.03 dB 2:46 01-People Need Love
DR9 -0.03 dB -10.12 dB 3:18 02-He Is Your Brother
DR8 -0.04 dB -9.21 dB 3:05 03-Ring Ring
DR9 -0.22 dB -10.45 dB 2:54 04-Love Isn't Easy (But Is Sure Is Hard Enough)
DR8 -0.04 dB -9.54 dB 2:47 05-Waterloo
DR8 -0.10 dB -10.03 dB 2:56 06-Honey, Honey
DR8 -0.04 dB -9.17 dB 3:06 07-So Long
DR7 -0.89 dB -9.43 dB 3:17 08-I Do, I Do, I Do, I Do, I Do
DR8 -0.43 dB -11.09 dB 3:20 09-S.O.S.
DR9 -0.06 dB -11.03 dB 3:32 10-Mamma Mia
DR9 -0.65 dB -12.15 dB 4:14 11-Fernando
DR9 -0.44 dB -11.09 dB 3:52 12-Dancing Queen
DR9 -0.41 dB -11.78 dB 3:06 13-Money, Money, Money
DR9 -0.43 dB -10.72 dB 4:02 14-Knowing Me, Knowing You
DR10 -0.43 dB -13.08 dB 4:52 15-The Name Of The Game
DR10 -0.43 dB -11.67 dB 4:06 16-Take A Chance On Me
DR8 -0.04 dB -10.12 dB 4:27 17-Eagle
DR7 -0.26 dB -8.67 dB 3:36 18-Summer Night City
DR9 -0.43 dB -13.14 dB 5:24 19-Chiquitita
DR8 -0.26 dB -10.33 dB 3:15 20-Does Your Mother Know
––––––––––––––––––––––––––––––––––––––––

Number of tracks: 20
Official DR value: DR9

Samplerate: 44100 Hz
Channels: 2
Bits per sample: 16
Bitrate: 973 kbps
Codec: FLAC
================================================================================

[CUETools log; Date: 23.07.2017 12:53:21; Version: 2.1.5]
[CTDB TOCID: C8IDQsdoMNcw2asF_mxRtRHQA3g-] found.
Track | CTDB Status
1 | (602/615) Accurately ripped
2 | (589/615) Accurately ripped, or (6/615) differs in 34 samples @00:22:49
3 | (601/615) Accurately ripped
4 | (602/615) Accurately ripped
5 | (603/615) Accurately ripped
6 | (594/615) Accurately ripped
7 | (600/615) Accurately ripped
8 | (583/615) Accurately ripped
9 | (602/615) Accurately ripped
10 | (600/615) Accurately ripped
11 | (564/615) Accurately ripped, or (7/615) differs in 1 samples @01:17:33, or (6/615) differs in 260 samples @01:17:32-01:17:33,01:31:08
12 | (601/615) Accurately ripped
13 | (542/615) Accurately ripped, or (6/615) differs in 75 samples @02:40:42-02:40:43
14 | (587/615) Accurately ripped, or (6/615) differs in 151 samples @02:11:09-02:11:10
15 | (546/615) Accurately ripped, or (6/615) differs in 41 samples @01:58:08
16 | (554/615) Accurately ripped
17 | (554/615) Accurately ripped
18 | (553/615) Accurately ripped
19 | (530/615) Accurately ripped, or (7/615) differs in 1178 samples @04:56:60-04:56:61,04:57:30-04:57:31, or (6/615) differs in 132 samples @04:57:30-04:57:31
20 | (547/615) Accurately ripped
[AccurateRip ID: 002ff938-02ce89e4-1510db14] found.
Track [ CRC | V2 ] Status
01 [1b9f29f8|73e7f654] (143+178/602) Accurately ripped
02 [ed20d1ea|4c8f5921] (141+174/599) Accurately ripped
03 [a22b5c2e|3d6ec845] (144+175/603) Accurately ripped
04 [c8a2b5de|ccc53c37] (144+178/607) Accurately ripped
05 [1933305a|22363f32] (144+175/606) Accurately ripped
06 [864d61ea|2c218776] (144+177/605) Accurately ripped
07 [07e2b936|06528328] (143+177/604) Accurately ripped
08 [3bf5b5d8|cde89522] (144+178/604) Accurately ripped
09 [96f1f9d6|3ec622ce] (144+178/606) Accurately ripped
10 [d11c5540|83da21e3] (143+178/607) Accurately ripped
11 [06aa3b98|b167d8f7] (143+176/603) Accurately ripped
12 [9fac2a20|beace981] (146+174/607) Accurately ripped
13 [5ebd5041|4335babb] (141+175/601) Accurately ripped
14 [78ea6a0e|006cffef] (144+177/605) Accurately ripped
15 [952792eb|e0688367] (144+176/604) Accurately ripped
16 [078895be|345d253c] (144+172/600) Accurately ripped
17 [ac90d2e2|96dd8fed] (143+173/596) Accurately ripped
18 [a9d99a10|0953d479] (142+172/596) Accurately ripped
19 [d3bc4baa|ae1cf499] (141+173/596) Accurately ripped
20 [eafa4523|ccc4f38f] (140+178/583) Accurately ripped
Offsetted by -999:
01 [26daff1e] (002/602) Accurately ripped
02 [622999a3] (002/599) Accurately ripped
03 [98a9b02f] (002/603) Accurately ripped
04 [d70e0da8] (002/607) Accurately ripped
05 [3111c4f8] (002/606) Accurately ripped
06 [b230f8c8] (002/605) Accurately ripped
07 [563aecc3] (002/604) Accurately ripped
08 [7fe8c50b] (002/604) Accurately ripped
09 [00c949dd] (002/606) Accurately ripped
10 [9c9a05e7] (002/607) Accurately ripped
11 [64e46f6e] (002/603) Accurately ripped
12 [c7d8ca75] (002/607) Accurately ripped
13 [d418bbe7] (002/601) Accurately ripped
14 [66a1755b] (002/605) Accurately ripped
15 [4b0760da] (002/604) Accurately ripped
16 [0ea492e0] (002/600) Accurately ripped
17 [592869bf] (002/596) Accurately ripped
18 [2613953a] (002/596) Accurately ripped
19 [2f67d4ce] (002/596) Accurately ripped
20 [61df8bd4] (002/583) Accurately ripped
Offsetted by -669:
01 [c9fa765e] (003/602) Accurately ripped
02 [67a86ea5] (003/599) Accurately ripped
03 [82e49f14] (003/603) Accurately ripped
04 [9d1fbe76] (003/607) Accurately ripped
05 [a3124c14] (003/606) Accurately ripped
06 [1b015c3c] (003/605) Accurately ripped
07 [8dea8e9e] (003/604) Accurately ripped
08 [85dd8ea4] (003/604) Accurately ripped
09 [cac7cef0] (003/606) Accurately ripped
10 [f14515f7] (003/607) Accurately ripped
11 [5e8a65e0] (003/603) Accurately ripped
12 [f2cc1178] (003/607) Accurately ripped
13 [333158dc] (003/601) Accurately ripped
14 [11a85462] (003/605) Accurately ripped
15 [0afb6035] (003/604) Accurately ripped
16 [417d4737] (003/600) Accurately ripped
17 [dd515169] (003/596) Accurately ripped
18 [c9c6d4ba] (003/596) Accurately ripped
19 [cd9ee9d6] (003/596) Accurately ripped
20 [fe5c76ec] (003/583) Accurately ripped
Offsetted by -657:
01 [74621deb] (043/602) Accurately ripped
02 [9ca39b83] (043/599) Accurately ripped
03 [3a03db6b] (043/603) Accurately ripped
04 [eb95e7be] (043/607) Accurately ripped
05 [d43e7931] (043/606) Accurately ripped
06 [ccb9b423] (043/605) Accurately ripped
07 [de20cb16] (043/604) Accurately ripped
08 [467f7494] (043/604) Accurately ripped
09 [24200214] (043/606) Accurately ripped
10 [cba04fad] (043/607) Accurately ripped
11 [5c1ea9fe] (043/603) Accurately ripped
12 [c7da0565] (043/607) Accurately ripped
13 [d8218f9a] (042/601) Accurately ripped
14 [5e2568f3] (043/605) Accurately ripped
15 [7cf030c2] (043/604) Accurately ripped
16 [f41e821c] (043/600) Accurately ripped
17 [b4d0c0b7] (043/596) Accurately ripped
18 [3b4327e7] (043/596) Accurately ripped
19 [5efac686] (041/596) Accurately ripped
20 [dff4b20d] (040/583) Accurately ripped
Offsetted by 10:
01 [b534db9a] (040/602) Accurately ripped
02 [dbc9e321] (040/599) Accurately ripped
03 [257f6d1c] (041/603) Accurately ripped
04 [56829418] (040/607) Accurately ripped
05 [16ea0cb0] (042/606) Accurately ripped
06 [036696ae] (041/605) Accurately ripped
07 [0d8afb54] (042/604) Accurately ripped
08 [5e085e69] (042/604) Accurately ripped
09 [df443b28] (042/606) Accurately ripped
10 [042a885d] (042/607) Accurately ripped
11 [5d4db126] (042/603) Accurately ripped
12 [71541d45] (041/607) Accurately ripped
13 [7b20ec9d] (041/601) Accurately ripped
14 [29725e30] (039/605) Accurately ripped
15 [24459950] (041/604) Accurately ripped
16 [8f9cc865] (041/600) Accurately ripped
17 [1cf3d462] (039/596) Accurately ripped
18 [b6b73862] (039/596) Accurately ripped
19 [ee7d45e6] (041/596) Accurately ripped
20 [267e096c] (037/583) Accurately ripped
Offsetted by -2515:
01 [cb61fbc7] (002/602) Accurately ripped
02 [fbc24ad8] (002/599) Accurately ripped
03 [283cf157] (002/603) Accurately ripped
04 [7aee061d] (002/607) Accurately ripped
05 [6b8a0262] (002/606) Accurately ripped
06 [d859a675] (002/605) Accurately ripped
07 [13e8480d] (002/604) Accurately ripped
08 [c0212a3a] (002/604) Accurately ripped
09 [a68ee6ae] (002/606) Accurately ripped
10 [3e8d62ff] (002/607) Accurately ripped
11 [b8fc3447] (000/603) No match (V2 was not tested)
12 [bb2567cc] (002/607) Accurately ripped
13 [bd11a343] (002/601) Accurately ripped
14 [e7394179] (002/605) Accurately ripped
15 [cce6fec2] (002/604) Accurately ripped
16 [6ed41af7] (002/600) Accurately ripped
17 [587e644d] (002/596) Accurately ripped
18 [f59ee324] (002/596) Accurately ripped
19 [03235dcd] (000/596) No match (V2 was not tested)
20 [17a8d910] (002/583) Accurately ripped
Offsetted by -2510:
01 [80679c6c] (002/602) Accurately ripped
02 [466f395a] (002/599) Accurately ripped
03 [5715562e] (002/603) Accurately ripped
04 [596c9b64] (002/607) Accurately ripped
05 [bd79ca34] (002/606) Accurately ripped
06 [d6b27fb6] (002/605) Accurately ripped
07 [8b939072] (002/604) Accurately ripped
08 [9a57f26f] (002/604) Accurately ripped
09 [f16a28ae] (002/606) Accurately ripped
10 [76c25e05] (002/607) Accurately ripped
11 [2438c6a6] (002/603) Accurately ripped
12 [dbedc59b] (002/607) Accurately ripped
13 [5c6bfc96] (002/601) Accurately ripped
14 [e4900e41] (002/605) Accurately ripped
15 [c099b89a] (002/604) Accurately ripped
16 [b0ae6108] (002/600) Accurately ripped
17 [f264c65f] (002/596) Accurately ripped
18 [7bfe040f] (002/596) Accurately ripped
19 [f32e7efb] (000/596) No match (V2 was not tested)
20 [b3ed47c4] (002/583) Accurately ripped
Offsetted by -2076:
01 [7da769c0] (000/602) No match (V2 was not tested)
02 [9f5775c5] (000/599) No match (V2 was not tested)
03 [526efab5] (000/603) No match (V2 was not tested)
04 [302e036a] (000/607) No match (V2 was not tested)
05 [eb3045eb] (000/606) No match (V2 was not tested)
06 [d2fcde52] (000/605) No match (V2 was not tested)
07 [156a354e] (000/604) No match (V2 was not tested)
08 [555b8103] (000/604) No match (V2 was not tested)
09 [ea817513] (000/606) No match (V2 was not tested)
10 [165c3333] (000/607) No match (V2 was not tested)
11 [1295eb94] (000/603) No match (V2 was not tested)
12 [6425533b] (000/607) No match (V2 was not tested)
13 [374f9866] (000/601) No match (V2 was not tested)
14 [1c591505] (000/605) No match (V2 was not tested)
15 [dd40fddc] (000/604) No match (V2 was not tested)
16 [3a375efa] (000/600) No match (V2 was not tested)
17 [7ef95885] (000/596) No match (V2 was not tested)
18 [bf0b2283] (000/596) No match (V2 was not tested)
19 [939f56c9] (000/596) No match (V2 was not tested)
20 [4ce3ec6b] (000/583) No match (V2 was not tested)
Offsetted by -1914:
01 [6b6a641b] (003/602) Accurately ripped
02 [4b4aeee6] (003/599) Accurately ripped
03 [98f1e216] (003/603) Accurately ripped
04 [d106d163] (003/607) Accurately ripped
05 [48e95ed2] (003/606) Accurately ripped
06 [fe7db249] (003/605) Accurately ripped
07 [512cb89c] (003/604) Accurately ripped
08 [dbdfd929] (000/604) No match (V2 was not tested)
09 [a7a7a22e] (003/606) Accurately ripped
10 [1e45f54b] (003/607) Accurately ripped
11 [cb9dd514] (000/603) No match (V2 was not tested)
12 [19b49718] (003/607) Accurately ripped
13 [d81879a2] (000/601) No match (V2 was not tested)
14 [9a7876b3] (003/605) Accurately ripped
15 [5cdd8dcf] (000/604) No match (V2 was not tested)
16 [fffb79c6] (000/600) No match (V2 was not tested)
17 [c9c52727] (000/596) No match (V2 was not tested)
18 [f9503a05] (000/596) No match (V2 was not tested)
19 [26ec8d51] (000/596) No match (V2 was not tested)
20 [0e3e05a6] (000/583) No match (V2 was not tested)
Offsetted by -1409:
01 [4808d9a5] (005/602) Accurately ripped
02 [611e9fde] (005/599) Accurately ripped
03 [5fbf9cd9] (005/603) Accurately ripped
04 [fa03350b] (005/607) Accurately ripped
05 [4046c870] (005/606) Accurately ripped
06 [0aab458e] (005/605) Accurately ripped
07 [7107de7c] (005/604) Accurately ripped
08 [4ef2c8d5] (005/604) Accurately ripped
09 [f3c0e8e3] (005/606) Accurately ripped
10 [7073e312] (005/607) Accurately ripped
11 [8d2ce2e0] (004/603) Accurately ripped
12 [0e8f01ed] (005/607) Accurately ripped
13 [604b3c45] (000/601) No match (V2 was not tested)
14 [f8665c68] (005/605) Accurately ripped
15 [2e08e9ea] (000/604) No match (V2 was not tested)
16 [f55b59b9] (000/600) No match (V2 was not tested)
17 [3f79efde] (000/596) No match (V2 was not tested)
18 [19bf7dd3] (000/596) No match (V2 was not tested)
19 [401da1bc] (000/596) No match (V2 was not tested)
20 [ca0250e8] (000/583) No match (V2 was not tested)
Offsetted by -1359:
01 [9a6a595b] (000/602) No match (V2 was not tested)
02 [d80d6f6c] (000/599) No match (V2 was not tested)
03 [c5118c66] (000/603) No match (V2 was not tested)
04 [e23e4202] (000/607) No match (V2 was not tested)
05 [35c517c0] (000/606) No match (V2 was not tested)
06 [419d87d7] (000/605) No match (V2 was not tested)
07 [577d627f] (000/604) No match (V2 was not tested)
08 [84c6b5d5] (000/604) No match (V2 was not tested)
09 [c5f1c33c] (000/606) No match (V2 was not tested)
10 [f7bb4bed] (000/607) No match (V2 was not tested)
11 [78708d11] (000/603) No match (V2 was not tested)
12 [ae0b70d3] (000/607) No match (V2 was not tested)
13 [e63302fa] (000/601) No match (V2 was not tested)
14 [b82802bf] (000/605) No match (V2 was not tested)
15 [b9780637] (000/604) No match (V2 was not tested)
16 [465f5252] (000/600) No match (V2 was not tested)
17 [8391602c] (000/596) No match (V2 was not tested)
18 [e671dfc9] (000/596) No match (V2 was not tested)
19 [c55e8426] (000/596) No match (V2 was not tested)
20 [5fe46dc9] (000/583) No match (V2 was not tested)
Offsetted by -1318:
01 [7458db67] (004/602) Accurately ripped
02 [2c6a5cee] (004/599) Accurately ripped
03 [4a6057ed] (004/603) Accurately ripped
04 [0343bad6] (004/607) Accurately ripped
05 [74395b2a] (004/606) Accurately ripped
06 [5a2125d8] (004/605) Accurately ripped
07 [732afce2] (004/604) Accurately ripped
08 [4b38dec1] (003/604) Accurately ripped
09 [323964f4] (004/606) Accurately ripped
10 [a59a5f7f] (004/607) Accurately ripped
11 [a1b1909c] (004/603) Accurately ripped
12 [528a26cf] (004/607) Accurately ripped
13 [c8f0fd5c] (004/601) Accurately ripped
14 [7489838a] (004/605) Accurately ripped
15 [51009bfc] (004/604) Accurately ripped
16 [ad1398a3] (000/600) No match (V2 was not tested)
17 [9a4940d7] (004/596) Accurately ripped
18 [5d132108] (004/596) Accurately ripped
19 [d808d015] (004/596) Accurately ripped
20 [8cfaaaed] (004/583) Accurately ripped
Offsetted by -749:
01 [19f34ac9] (000/602) No match (V2 was not tested)
02 [c6a4f1e0] (000/599) No match (V2 was not tested)
03 [0012557e] (000/603) No match (V2 was not tested)
04 [90a60d35] (000/607) No match (V2 was not tested)
05 [b3a01272] (000/606) No match (V2 was not tested)
06 [e31e7fc3] (000/605) No match (V2 was not tested)
07 [5c6144b0] (000/604) No match (V2 was not tested)
08 [f38d1d0f] (000/604) No match (V2 was not tested)
09 [94e784d7] (000/606) No match (V2 was not tested)
10 [8fd531c4] (000/607) No match (V2 was not tested)
11 [3fea04e2] (000/603) No match (V2 was not tested)
12 [5141dfa5] (000/607) No match (V2 was not tested)
13 [78ee0119] (000/601) No match (V2 was not tested)
14 [5402ed38] (000/605) No match (V2 was not tested)
15 [297e420f] (000/604) No match (V2 was not tested)
16 [5ea9642d] (000/600) No match (V2 was not tested)
17 [228d891d] (000/596) No match (V2 was not tested)
18 [8f733ec5] (000/596) No match (V2 was not tested)
19 [d6fe5e86] (000/596) No match (V2 was not tested)
20 [3ef31a1b] (000/583) No match (V2 was not tested)
Offsetted by -738:
01 [54f796ba] (000/602) No match (V2 was not tested)
02 [c70bcd60] (002/599) Accurately ripped
03 [f8a60f85] (002/603) Accurately ripped
04 [cb3b904b] (002/607) Accurately ripped
05 [9cdb1788] (002/606) Accurately ripped
06 [78e90394] (000/605) No match (V2 was not tested)
07 [9a763e98] (002/604) Accurately ripped
08 [cf6329f6] (002/604) Accurately ripped
09 [e1222c0c] (002/606) Accurately ripped
10 [b48fe820] (002/607) Accurately ripped
11 [5b3d74fd] (002/603) Accurately ripped
12 [15aff238] (002/607) Accurately ripped
13 [f02a6001] (000/601) No match (V2 was not tested)
14 [aa8575b2] (002/605) Accurately ripped
15 [21b8a3e4] (000/604) No match (V2 was not tested)
16 [d039c7c7] (000/600) No match (V2 was not tested)
17 [6161f59a] (000/596) No match (V2 was not tested)
18 [b4b7ee71] (000/596) No match (V2 was not tested)
19 [5e963ca1] (000/596) No match (V2 was not tested)
20 [c9c95f95] (000/583) No match (V2 was not tested)
Offsetted by -733:
01 [dc233e84] (004/602) Accurately ripped
02 [6a08671c] (004/599) Accurately ripped
03 [b686e318] (004/603) Accurately ripped
04 [a819e7e8] (004/607) Accurately ripped
05 [43982c16] (004/606) Accurately ripped
06 [79289f91] (004/605) Accurately ripped
07 [ec7711bf] (004/604) Accurately ripped
08 [a7c5c3e0] (004/604) Accurately ripped
09 [52816db5] (004/606) Accurately ripped
10 [29cfc52d] (003/607) Accurately ripped
11 [7074db59] (004/603) Accurately ripped
12 [e2806bfa] (004/607) Accurately ripped
13 [805ea3b3] (000/601) No match (V2 was not tested)
14 [ff1f9bba] (004/605) Accurately ripped
15 [855f4b64] (000/604) No match (V2 was not tested)
16 [685f5ff4] (000/600) No match (V2 was not tested)
17 [1b93b167] (000/596) No match (V2 was not tested)
18 [4ca2580f] (000/596) No match (V2 was not tested)
19 [93dcc166] (000/596) No match (V2 was not tested)
20 [ea7a4607] (000/583) No match (V2 was not tested)
Offsetted by -695:
01 [abeb37d2] (000/602) No match (V2 was not tested)
02 [4ff981d1] (000/599) No match (V2 was not tested)
03 [66f69703] (000/603) No match (V2 was not tested)
04 [d94ce77f] (000/607) No match (V2 was not tested)
05 [0987fe43] (000/606) No match (V2 was not tested)
06 [439e0b24] (000/605) No match (V2 was not tested)
07 [be059574] (000/604) No match (V2 was not tested)
08 [e083333d] (000/604) No match (V2 was not tested)
09 [35ccf0eb] (000/606) No match (V2 was not tested)
10 [e9ffd625] (000/607) No match (V2 was not tested)
11 [295aee0e] (000/603) No match (V2 was not tested)
12 [8d5b1d22] (000/607) No match (V2 was not tested)
13 [393d12a2] (000/601) No match (V2 was not tested)
14 [b7d1aa7b] (000/605) No match (V2 was not tested)
15 [76617485] (000/604) No match (V2 was not tested)
16 [57b91b71] (000/600) No match (V2 was not tested)
17 [9049f088] (000/596) No match (V2 was not tested)
18 [44fcf744] (000/596) No match (V2 was not tested)
19 [cbafaefa] (000/596) No match (V2 was not tested)
20 [a2c67cd8] (000/583) No match (V2 was not tested)
Offsetted by -676:
01 [8cd35435] (002/602) Accurately ripped
02 [e544ca85] (002/599) Accurately ripped
03 [4100ee07] (002/603) Accurately ripped
04 [0123678c] (002/607) Accurately ripped
05 [1a559028] (002/606) Accurately ripped
06 [e7a05f92] (002/605) Accurately ripped
07 [ce25b052] (002/604) Accurately ripped
08 [fa6d429e] (002/604) Accurately ripped
09 [0b641f90] (002/606) Accurately ripped
10 [24967ccc] (002/607) Accurately ripped
11 [c78ab3c2] (002/603) Accurately ripped
12 [557d59b8] (002/607) Accurately ripped
13 [08845110] (002/601) Accurately ripped
14 [ba280db3] (002/605) Accurately ripped
15 [1e99a4e9] (002/604) Accurately ripped
16 [26d8a47a] (002/600) Accurately ripped
17 [dd196678] (002/596) Accurately ripped
18 [12468f98] (002/596) Accurately ripped
19 [c14cc509] (002/596) Accurately ripped
20 [bc5b9a9c] (000/583) No match (V2 was not tested)
Offsetted by -646:
01 [ad0edff9] (000/602) No match (V2 was not tested)
02 [ad27ee20] (000/599) No match (V2 was not tested)
03 [ec5bb6d2] (000/603) No match (V2 was not tested)
04 [24272dcb] (000/607) No match (V2 was not tested)
05 [bd7b7e1e] (000/606) No match (V2 was not tested)
06 [e3fff755] (000/605) No match (V2 was not tested)
07 [f57c9dc7] (000/604) No match (V2 was not tested)
08 [c46b5311] (000/604) No match (V2 was not tested)
09 [09225d3d] (000/606) No match (V2 was not tested)
10 [951d247e] (000/607) No match (V2 was not tested)
11 [4c94eec2] (000/603) No match (V2 was not tested)
12 [7127fbec] (000/607) No match (V2 was not tested)
13 [50fdfcab] (000/601) No match (V2 was not tested)
14 [138af0fe] (000/605) No match (V2 was not tested)
15 [097fdc47] (000/604) No match (V2 was not tested)
16 [bd9b8eb1] (000/600) No match (V2 was not tested)
17 [2f2786e5] (000/596) No match (V2 was not tested)
18 [60b6d7e1] (000/596) No match (V2 was not tested)
19 [43801fcc] (000/596) No match (V2 was not tested)
20 [6b447731] (000/583) No match (V2 was not tested)
Offsetted by -120:
01 [964e1d53] (003/602) Accurately ripped
02 [d25f562b] (000/599) No match (V2 was not tested)
03 [da8aa5b0] (003/603) Accurately ripped
04 [d0efbd27] (003/607) Accurately ripped
05 [315a287b] (003/606) Accurately ripped
06 [059c3724] (003/605) Accurately ripped
07 [ff435823] (003/604) Accurately ripped
08 [01c92d17] (003/604) Accurately ripped
09 [8c35c5ff] (003/606) Accurately ripped
10 [c8b43d91] (003/607) Accurately ripped
11 [09f7ab9f] (000/603) No match (V2 was not tested)
12 [1fb0482f] (003/607) Accurately ripped
13 [a9e2467f] (000/601) No match (V2 was not tested)
14 [61b9283c] (000/605) No match (V2 was not tested)
15 [2f74a040] (000/604) No match (V2 was not tested)
16 [ee9e5127] (003/600) Accurately ripped
17 [1dad0f6d] (003/596) Accurately ripped
18 [4a80d0e6] (003/596) Accurately ripped
19 [a7323216] (000/596) No match (V2 was not tested)
20 [305789b6] (003/583) Accurately ripped
Offsetted by 6:
01 [9bbf0aa1] (000/602) No match
02 [4c2b2403] (000/599) No match
03 [253a8b12] (000/603) No match
04 [d842a4ae] (000/607) No match (V2 was not tested)
05 [b1711af1] (000/606) No match (V2 was not tested)
06 [1ea7ceb7] (000/605) No match
07 [439643e6] (000/604) No match
08 [d576fa57] (000/604) No match
09 [2e0ed16a] (000/606) No match
10 [80dc2e8f] (000/607) No match
11 [318a9c3b] (000/603) No match (V2 was not tested)
12 [d463de8b] (000/607) No match
13 [32ba7979] (000/601) No match (V2 was not tested)
14 [7a1fcc78] (000/605) No match
15 [29b94da6] (000/604) No match
16 [e3a2b326] (000/600) No match
17 [6d1cc1c6] (000/596) No match
18 [903d1620] (000/596) No match
19 [45074c5b] (000/596) No match
20 [dba920ec] (000/583) No match

Track Peak [ CRC32 ] [W/O NULL] [ LOG ]
– 99,6 [31DA9B17] [3BCF54BD] CRC32
01 97,0 [BF4F114D] [8DBF32F9]
02 99,6 [5080DAF9] [0DAFEF22]
03 99,5 [F2339523] [7E853369]
04 97,5 [19FE7D56] [4142E930]
05 99,5 [40F9072F] [06E5700E]
06 98,8 [EC2D5A59] [2DF02424]
07 99,5 [5C98AA9B] [BB38F9F9]
08 90,2 [C9DEA8AD] [76E226D0]
09 95,1 [961137A9] [C9845A96]
10 99,3 [DD219CFA] [EAA70F3F]
11 92,7 [D01ABAE7] [63FA883F]
12 95,1 [ABD45A71] [09F6104A]
13 95,4 [666B5A0C] [1B0AFF94]
14 95,1 [0ED743E6] [622F1BEC]
15 95,1 [3E16C23A] [6068A178]
16 95,1 [35C5CB1E] [1FFD3B17]
17 99,5 [67E50E17] [0F9E0564]
18 97,1 [CF04FD86] [D2E67327]
19 95,1 [5A557C52] [E4B1E306]
20 97,0 [863EEFF8] [AFDE3B04]

ABBA - The Definitive Collection (2001)

ABBA - The Definitive Collection (2001)

Track List CD2:

01. Voulez-Vous [5:09]
02. Angeleyes [4:20]
03. Gimme! Gimme! Gimme! (A Man After Midnight) [4:51]
04. I Have a Dream [4:43]
05. The Winner Takes It All [4:57]
06. Super Trouper [4:13]
07. On and On and On [3:42]
08. Lay All Your Love on Me [4:35]
09. One of Us [3:57]
10. When All Is Said and Done [3:18]
11. Head Over Heels [3:48]
12. The Visitors (Crackin' Up) [5:47]
13. The Day Before You Came [5:51]
14. Under Attack [3:48]
15. Thank You for the Music [3:52]
16. Ring Ring (1974 remix, single version) [3:10]
17. Voulez-Vous (extended remix, 1979 US promo) [6:10]

Exact Audio Copy V1.3 from 2. September 2016

EAC extraction logfile from 18. July 2017, 18:00

ABBA / Definitive Collection (Polar 549974-2), CD-2

Used drive : ATAPI iHAS122 C Adapter: 1 ID: 0

Read mode : Secure
Utilize accurate stream : Yes
Defeat audio cache : Yes
Make use of C2 pointers : No

Read offset correction : 6
Overread into Lead-In and Lead-Out : No
Fill up missing offset samples with silence : Yes
Delete leading and trailing silent blocks : No
Null samples used in CRC calculations : Yes
Used interface : Native Win32 interface for Win NT & 2000

Used output format : Internal WAV Routines
Sample format : 44.100 Hz; 16 Bit; Stereo


TOC of the extracted CD

Track | Start | Length | Start sector | End sector
––––––––––––––––––––––––––––-
1 | 0:00.00 | 5:09.09 | 0 | 23183
2 | 5:09.09 | 4:19.70 | 23184 | 42678
3 | 9:29.04 | 4:50.46 | 42679 | 64474
4 | 14:19.50 | 4:42.58 | 64475 | 85682
5 | 19:02.33 | 4:56.39 | 85683 | 107921
6 | 23:58.72 | 4:13.25 | 107922 | 126921
7 | 28:12.22 | 3:42.37 | 126922 | 143608
8 | 31:54.59 | 4:34.38 | 143609 | 164196
9 | 36:29.22 | 3:56.49 | 164197 | 181945
10 | 40:25.71 | 3:17.59 | 181946 | 196779
11 | 43:43.55 | 3:47.45 | 196780 | 213849
12 | 47:31.25 | 5:46.48 | 213850 | 239847
13 | 53:17.73 | 5:51.30 | 239848 | 266202
14 | 59:09.28 | 3:47.64 | 266203 | 283291
15 | 62:57.17 | 3:51.61 | 283292 | 300677
16 | 66:49.03 | 3:10.27 | 300678 | 314954
17 | 69:59.30 | 6:09.67 | 314955 | 342696


Range status and errors

Selected range

Filename C:\Users\London\Desktop\ABBA - Definitive Collection (Polar 549974-2), CD-2.wav

Peak level 99.8 %
Extraction speed 9.5 X
Range quality 99.9 %
Test CRC 28346A33
Copy CRC 28346A33
Copy OK

No errors occurred


AccurateRip summary

Track 1 accurately ripped (confidence 200) [A875BEDA] (AR v2)
Track 2 accurately ripped (confidence 200) [4916C371] (AR v2)
Track 3 accurately ripped (confidence 200) [1BF31B2A] (AR v2)
Track 4 accurately ripped (confidence 200) [B494C481] (AR v2)
Track 5 accurately ripped (confidence 200) [853F9B62] (AR v2)
Track 6 accurately ripped (confidence 200) [6034CB29] (AR v2)
Track 7 accurately ripped (confidence 200) [DF55D3B6] (AR v2)
Track 8 accurately ripped (confidence 200) [6854D165] (AR v2)
Track 9 accurately ripped (confidence 200) [A7628764] (AR v2)
Track 10 accurately ripped (confidence 200) [8DA48CF7] (AR v2)
Track 11 accurately ripped (confidence 200) [A46A51D7] (AR v2)
Track 12 accurately ripped (confidence 200) [749E6F64] (AR v2)
Track 13 accurately ripped (confidence 200) [7FDF4F92] (AR v2)
Track 14 accurately ripped (confidence 200) [F4CBB5D2] (AR v2)
Track 15 accurately ripped (confidence 200) [57FED5C4] (AR v2)
Track 16 accurately ripped (confidence 200) [8B853E61] (AR v2)
Track 17 accurately ripped (confidence 200) [DF0821BB] (AR v2)

All tracks accurately ripped

End of status report

–– CUETools DB Plugin V2.1.6

[CTDB TOCID: TxwOgVVkq20gjLJlOpNvfpnnBBg-] found
Submit result: already submitted
Track | CTDB Status
1 | (578/596) Accurately ripped
2 | (578/596) Accurately ripped
3 | (571/596) Accurately ripped, or (6/596) differs in 3417 samples @01:34:44-01:34:45,01:34:57,01:34:69-01:34:70,01:35:06-01:35:07,01:35:18-01:35:19,01:35:30-01:35:31,01:35:43,01:35:55-01:35:56,01:35:67-01:35:68,01:36:04-01:36:05,01:36:17-01:36:18,01:36:29-01:36:30,01:36:41-01:36:42,01:36:53-01:36:54,01:36:65-01:36:66,01:37:03-01:37:04,01:37:15-01:37:16,01:37:27-01:37:28,01:37:39-01:37:40,01:37:52-01:37:53,01:37:64-01:37:65,01:38:01-01:38:02,01:38:13-01:38:14,01:38:26,01:43:06
4 | (581/596) Accurately ripped
5 | (580/596) Accurately ripped
6 | (580/596) Accurately ripped
7 | (579/596) Accurately ripped
8 | (580/596) Accurately ripped
9 | (559/596) Accurately ripped
10 | (581/596) Accurately ripped
11 | (580/596) Accurately ripped
12 | (576/596) Accurately ripped
13 | (578/596) Accurately ripped
14 | (579/596) Accurately ripped
15 | (579/596) Accurately ripped
16 | (573/596) Accurately ripped
17 | (571/596) Accurately ripped


==== Log checksum 8723C095A321F80B8432E29133A7AB5F00F28E5EDE4BCF72FDC82CF20BD755B8 ====

foobar2000 1.3.13 / Dynamic Range Meter 1.1.1
log date: 2017-07-18 18:05:53

––––––––––––––––––––––––––––––––––––––––
Analyzed: ABBA / Definitive Collection (Polar 549974-2), CD-2
––––––––––––––––––––––––––––––––––––––––

DR Peak RMS Duration Track
––––––––––––––––––––––––––––––––––––––––
DR9 -0.26 dB -10.94 dB 5:09 01-Voulez-Vous
DR10 -0.26 dB -11.08 dB 4:20 02-Angeleyes
DR10 -0.26 dB -11.80 dB 4:51 03-Gimme! Gimme! Gimme! (A Man After Midnight)
DR12 -0.89 dB -15.67 dB 4:43 04-I Have a Dream
DR8 -0.06 dB -11.89 dB 4:57 05-The Winner Takes It All
DR10 -0.13 dB -11.70 dB 4:13 06-Super Trouper
DR9 -0.06 dB -10.99 dB 3:42 07-On and On and On
DR9 -0.26 dB -11.53 dB 4:35 08-Lay All Your Love on Me
DR10 -0.12 dB -12.00 dB 3:57 09-One of Us
DR8 -0.26 dB -10.87 dB 3:18 10-When All Is Said and Done
DR9 -0.12 dB -11.29 dB 3:48 11-Head Over Heels
DR10 -0.02 dB -12.82 dB 5:47 12-The Visitors (Crackin' Up)
DR11 -0.44 dB -12.37 dB 5:51 13-The Day Before You Came
DR9 -0.13 dB -11.51 dB 3:48 14-Under Attack
DR10 -0.01 dB -12.97 dB 3:52 15-Thank You for the Music
DR7 -0.11 dB -8.48 dB 3:10 16-Ring Ring (1974 remix, single version)
DR10 -0.11 dB -11.85 dB 6:10 17-Voulez-Vous (extended remix, 1979 US promo)
––––––––––––––––––––––––––––––––––––––––

Number of tracks: 17
Official DR value: DR9

Samplerate: 44100 Hz
Channels: 2
Bits per sample: 16
Bitrate: 957 kbps
Codec: FLAC
================================================================================

[CUETools log; Date: 23.07.2017 12:54:09; Version: 2.1.5]
[CTDB TOCID: TxwOgVVkq20gjLJlOpNvfpnnBBg-] found.
Track | CTDB Status
1 | (579/597) Accurately ripped
2 | (579/597) Accurately ripped
3 | (572/597) Accurately ripped, or (6/597) differs in 3417 samples @01:34:44-01:34:45,01:34:57,01:34:69-01:34:70,01:35:06-01:35:07,01:35:18-01:35:19,01:35:30-01:35:31,01:35:43,01:35:55-01:35:56,01:35:67-01:35:68,01:36:04-01:36:05,01:36:17-01:36:18,01:36:29-01:36:30,01:36:41-01:36:42,01:36:53-01:36:54,01:36:65-01:36:66,01:37:03-01:37:04,01:37:15-01:37:16,01:37:27-01:37:28,01:37:39-01:37:40,01:37:52-01:37:53,01:37:64-01:37:65,01:38:01-01:38:02,01:38:13-01:38:14,01:38:26,01:43:06
4 | (582/597) Accurately ripped
5 | (581/597) Accurately ripped
6 | (581/597) Accurately ripped
7 | (580/597) Accurately ripped
8 | (581/597) Accurately ripped
9 | (560/597) Accurately ripped
10 | (582/597) Accurately ripped
11 | (581/597) Accurately ripped
12 | (577/597) Accurately ripped
13 | (579/597) Accurately ripped
14 | (580/597) Accurately ripped
15 | (580/597) Accurately ripped
16 | (574/597) Accurately ripped
17 | (572/597) Accurately ripped
[AccurateRip ID: 002f4928-02531d7b-e311d911] found.
Track [ CRC | V2 ] Status
01 [7840379b|a875beda] (187+200/569) Accurately ripped
02 [a35fb3fe|4916c371] (187+200/568) Accurately ripped
03 [754d4109|1bf31b2a] (187+200/568) Accurately ripped
04 [c82ea965|b494c481] (190+200/572) Accurately ripped
05 [f9e50518|853f9b62] (191+200/570) Accurately ripped
06 [62b2b699|6034cb29] (190+200/571) Accurately ripped
07 [d3837ec8|df55d3b6] (188+200/570) Accurately ripped
08 [adf5944d|6854d165] (189+200/569) Accurately ripped
09 [8e603123|a7628764] (187+200/568) Accurately ripped
10 [220fd8bf|8da48cf7] (187+200/569) Accurately ripped
11 [7004c5a1|a46a51d7] (188+200/569) Accurately ripped
12 [ab56d8fe|749e6f64] (182+200/561) Accurately ripped
13 [aa30b4dc|7fdf4f92] (190+200/569) Accurately ripped
14 [930d7fdf|f4cbb5d2] (186+200/562) Accurately ripped
15 [8395b5bd|57fed5c4] (186+200/566) Accurately ripped
16 [47ff0fcf|8b853e61] (187+200/563) Accurately ripped
17 [6f008830|df0821bb] (183+200/546) Accurately ripped
Offsetted by -2510:
01 [0da39957] (003/569) Accurately ripped
02 [d09941d7] (003/568) Accurately ripped
03 [b86cb0eb] (003/568) Accurately ripped
04 [8fafcb9c] (003/572) Accurately ripped
05 [01e5725a] (003/570) Accurately ripped
06 [13cc9f42] (003/571) Accurately ripped
07 [51bc87c9] (003/570) Accurately ripped
08 [b853eba6] (003/569) Accurately ripped
09 [f70b0663] (003/568) Accurately ripped
10 [8d33ec57] (003/569) Accurately ripped
11 [75781ea4] (003/569) Accurately ripped
12 [079e9505] (003/561) Accurately ripped
13 [c6eb660d] (003/569) Accurately ripped
14 [2b9bc61c] (003/562) Accurately ripped
15 [857bf86b] (003/566) Accurately ripped
16 [7adaa996] (003/563) Accurately ripped
17 [d778fe1c] (003/546) Accurately ripped
Offsetted by -1409:
01 [c7954de2] (002/569) Accurately ripped
02 [e849765c] (002/568) Accurately ripped
03 [bd127e1a] (002/568) Accurately ripped
04 [25180d80] (002/572) Accurately ripped
05 [efd3af12] (002/570) Accurately ripped
06 [f990d8e6] (002/571) Accurately ripped
07 [69b946f1] (002/570) Accurately ripped
08 [24b9e35c] (002/569) Accurately ripped
09 [90b2e0f3] (002/568) Accurately ripped
10 [06f4a1f8] (002/569) Accurately ripped
11 [e0c411aa] (002/569) Accurately ripped
12 [0402194f] (002/561) Accurately ripped
13 [3de79c1b] (002/569) Accurately ripped
14 [7bf5bcd6] (002/562) Accurately ripped
15 [7cfa4e24] (002/566) Accurately ripped
16 [85cc387f] (002/563) Accurately ripped
17 [6f7286ce] (002/546) Accurately ripped
Offsetted by -1318:
01 [4c1faf51] (003/569) Accurately ripped
02 [69bea125] (002/568) Accurately ripped
03 [4946c755] (002/568) Accurately ripped
04 [5c658761] (002/572) Accurately ripped
05 [46cd37b9] (002/570) Accurately ripped
06 [7215856b] (002/571) Accurately ripped
07 [d0364230] (002/570) Accurately ripped
08 [a7734904] (002/569) Accurately ripped
09 [505b1ce5] (002/568) Accurately ripped
10 [1f3491b6] (002/569) Accurately ripped
11 [ffdf36f9] (002/569) Accurately ripped
12 [5baa5499] (002/561) Accurately ripped
13 [f2ee53b7] (002/569) Accurately ripped
14 [bb2626a6] (002/562) Accurately ripped
15 [9cabe6d5] (002/566) Accurately ripped
16 [a255a36f] (002/563) Accurately ripped
17 [2530db2c] (002/546) Accurately ripped
Offsetted by -831:
01 [ceba94f1] (002/569) Accurately ripped
02 [8109b29d] (002/568) Accurately ripped
03 [abb7f758] (002/568) Accurately ripped
04 [ba36a3de] (002/572) Accurately ripped
05 [9545cb1a] (002/570) Accurately ripped
06 [d8241abe] (002/571) Accurately ripped
07 [f1236509] (002/570) Accurately ripped
08 [56e37c4b] (002/569) Accurately ripped
09 [a0e80e73] (002/568) Accurately ripped
10 [f008450a] (002/569) Accurately ripped
11 [72b3b8fe] (002/569) Accurately ripped
12 [e062ab1f] (002/561) Accurately ripped
13 [db185335] (002/569) Accurately ripped
14 [e43c4194] (002/562) Accurately ripped
15 [bc477caa] (002/566) Accurately ripped
16 [be207b13] (002/563) Accurately ripped
17 [d66fc0f7] (002/546) Accurately ripped
Offsetted by -738:
01 [399f5028] (002/569) Accurately ripped
02 [88a7ff26] (002/568) Accurately ripped
03 [513c8a3c] (002/568) Accurately ripped
04 [cee668cf] (002/572) Accurately ripped
05 [fb67f6ab] (002/570) Accurately ripped
06 [7b242063] (002/571) Accurately ripped
07 [7c1860f8] (002/570) Accurately ripped
08 [35507df9] (002/569) Accurately ripped
09 [77581e28] (002/568) Accurately ripped
10 [4567c029] (002/569) Accurately ripped
11 [0bc76409] (002/569) Accurately ripped
12 [d8701163] (002/561) Accurately ripped
13 [88f78e6b] (002/569) Accurately ripped
14 [60246502] (002/562) Accurately ripped
15 [9f3ef4b8] (002/566) Accurately ripped
16 [97b29629] (002/563) Accurately ripped
17 [06859caa] (002/546) Accurately ripped
Offsetted by -733:
01 [8ab09866] (003/569) Accurately ripped
02 [e83a9683] (003/568) Accurately ripped
03 [dd23242c] (003/568) Accurately ripped
04 [9eec5f3d] (003/572) Accurately ripped
05 [2a14855a] (003/570) Accurately ripped
06 [5b47f155] (003/571) Accurately ripped
07 [d902a479] (003/570) Accurately ripped
08 [6d0f452e] (003/569) Accurately ripped
09 [e99b5c8c] (003/568) Accurately ripped
10 [5c9484b9] (003/569) Accurately ripped
11 [5d8b58fc] (004/569) Accurately ripped
12 [916b754f] (004/561) Accurately ripped
13 [8a9e7a3f] (004/569) Accurately ripped
14 [3001ba79] (004/562) Accurately ripped
15 [ee63ffd6] (004/566) Accurately ripped
16 [d6da7128] (004/563) Accurately ripped
17 [7babc965] (004/546) Accurately ripped
Offsetted by -676:
01 [3a058a36] (004/569) Accurately ripped
02 [1ea28db5] (004/568) Accurately ripped
03 [2ad55a0e] (004/568) Accurately ripped
04 [681ef55a] (004/572) Accurately ripped
05 [795d8a64] (004/570) Accurately ripped
06 [1d6afbbb] (004/571) Accurately ripped
07 [f3ed135b] (004/570) Accurately ripped
08 [5dbc3cde] (004/569) Accurately ripped
09 [f3b31484] (004/568) Accurately ripped
10 [39e4b17e] (004/569) Accurately ripped
11 [24c62cae] (004/569) Accurately ripped
12 [ce09144a] (004/561) Accurately ripped
13 [dd7ae3e9] (004/569) Accurately ripped
14 [55c670c2] (004/562) Accurately ripped
15 [e4a38a20] (004/566) Accurately ripped
16 [c5145048] (004/563) Accurately ripped
17 [9f9778d4] (004/546) Accurately ripped
Offsetted by -664:
01 [f3a3ab7f] (011/569) Accurately ripped
02 [4e538f25] (011/568) Accurately ripped
03 [9d75ad3f] (011/568) Accurately ripped
04 [6cc320f8] (011/572) Accurately ripped
05 [373f2ace] (011/570) Accurately ripped
06 [88995534] (011/571) Accurately ripped
07 [987d9a16] (011/570) Accurately ripped
08 [c7233874] (011/569) Accurately ripped
09 [09385922] (011/568) Accurately ripped
10 [bfb15408] (011/569) Accurately ripped
11 [a2ac079f] (011/569) Accurately ripped
12 [0dcfde78] (011/561) Accurately ripped
13 [ae691627] (011/569) Accurately ripped
14 [8ebcc6ae] (011/562) Accurately ripped
15 [35f18839] (011/566) Accurately ripped
16 [f6dca1bc] (011/563) Accurately ripped
17 [9c97d5c7] (011/546) Accurately ripped
Offsetted by -12:
01 [9c670baf] (007/569) Accurately ripped
02 [a3ab7084] (007/568) Accurately ripped
03 [e2cb97f5] (007/568) Accurately ripped
04 [8aaf5bc5] (007/572) Accurately ripped
05 [26e586d8] (006/570) Accurately ripped
06 [820eb8dd] (007/571) Accurately ripped
07 [09a6d7c7] (007/570) Accurately ripped
08 [dcc3bb20] (007/569) Accurately ripped
09 [bad5392e] (007/568) Accurately ripped
10 [f7eb918c] (007/569) Accurately ripped
11 [7ea4b842] (006/569) Accurately ripped
12 [b1c8020b] (006/561) Accurately ripped
13 [5151e43b] (007/569) Accurately ripped
14 [61bc7d5d] (006/562) Accurately ripped
15 [37d2b67b] (007/566) Accurately ripped
16 [5fcfa4f8] (006/563) Accurately ripped
17 [e19b5575] (005/546) Accurately ripped
Offsetted by 10:
01 [f7ba846d] (015/569) Accurately ripped
02 [4d415a97] (014/568) Accurately ripped
03 [fcb172f9] (015/568) Accurately ripped
04 [cb6a3f71] (014/572) Accurately ripped
05 [46217b9d] (015/570) Accurately ripped
06 [f8cec1cb] (015/571) Accurately ripped
07 [d4984e02] (015/570) Accurately ripped
08 [6e0d0bf5] (014/569) Accurately ripped
09 [e3a7a3a1] (015/568) Accurately ripped
10 [0859655d] (015/569) Accurately ripped
11 [bdc81beb] (014/569) Accurately ripped
12 [efd0d5de] (012/561) Accurately ripped
13 [a860c891] (013/569) Accurately ripped
14 [8ab9d74c] (012/562) Accurately ripped
15 [1a0cd763] (013/566) Accurately ripped
16 [b9fdae25] (010/563) Accurately ripped
17 [7db1e1f4] (009/546) Accurately ripped
Offsetted by -2515:
01 [9d865f2e] (000/569) No match (V2 was not tested)
02 [adec1d3b] (000/568) No match (V2 was not tested)
03 [99c1a0f1] (000/568) No match (V2 was not tested)
04 [c1489aca] (000/572) No match (V2 was not tested)
05 [e58f7f37] (000/570) No match (V2 was not tested)
06 [bca73814] (000/571) No match (V2 was not tested)
07 [3d09443b] (000/570) No match (V2 was not tested)
08 [2ea49f43] (000/569) No match (V2 was not tested)
09 [cedcc2b5] (000/568) No match (V2 was not tested)
10 [5c54fc99] (000/569) No match (V2 was not tested)
11 [ffef4769] (000/569) No match (V2 was not tested)
12 [04ea3ed2] (000/561) No match (V2 was not tested)
13 [3d48671c] (000/569) No match (V2 was not tested)
14 [09d96a85] (000/562) No match (V2 was not tested)
15 [34bce0c8] (000/566) No match (V2 was not tested)
16 [0b5fe726] (000/563) No match (V2 was not tested)
17 [84e0f48b] (000/546) No match (V2 was not tested)
Offsetted by -2078:
01 [0bef2e30] (000/569) No match (V2 was not tested)
02 [7ffad163] (000/568) No match (V2 was not tested)
03 [99a887eb] (000/568) No match (V2 was not tested)
04 [6a04ffa8] (000/572) No match (V2 was not tested)
05 [e5c206bc] (000/570) No match (V2 was not tested)
06 [381aa7e0] (000/571) No match (V2 was not tested)
07 [b4acbc09] (000/570) No match (V2 was not tested)
08 [845cc33a] (000/569) No match (V2 was not tested)
09 [fc98b63c] (000/568) No match (V2 was not tested)
10 [e7b9ba7d] (000/569) No match (V2 was not tested)
11 [62f5b524] (000/569) No match (V2 was not tested)
12 [8952e672] (000/561) No match (V2 was not tested)
13 [0961866b] (000/569) No match (V2 was not tested)
14 [ac5d3b08] (000/562) No match (V2 was not tested)
15 [32f28e0c] (000/566) No match (V2 was not tested)
16 [a6f02749] (000/563) No match (V2 was not tested)
17 [259fc95a] (000/546) No match (V2 was not tested)
Offsetted by -2045:
01 [40af1e42] (000/569) No match (V2 was not tested)
02 [27409495] (000/568) No match (V2 was not tested)
03 [d4fc99b7] (000/568) No match (V2 was not tested)
04 [b3df9865] (000/572) No match (V2 was not tested)
05 [8bae7a3a] (000/570) No match (V2 was not tested)
06 [f2a220c5] (000/571) No match (V2 was not tested)
07 [d2cb4c6e] (000/570) No match (V2 was not tested)
08 [14cc3442] (000/569) No match (V2 was not tested)
09 [e406911c] (000/568) No match (V2 was not tested)
10 [606b37af] (000/569) No match (V2 was not tested)
11 [cc6a0f05] (000/569) No match (V2 was not tested)
12 [2bffdbc2] (000/561) No match (V2 was not tested)
13 [70eb3a1a] (000/569) No match (V2 was not tested)
14 [1f34930f] (000/562) No match (V2 was not tested)
15 [7fef3146] (000/566) No match (V2 was not tested)
16 [86121922] (000/563) No match (V2 was not tested)
17 [61325d5a] (000/546) No match (V2 was not tested)
Offsetted by -2040:
01 [b1018f9b] (002/569) Accurately ripped
02 [8bec1535] (002/568) Accurately ripped
03 [45fea813] (002/568) Accurately ripped
04 [955d0f4b] (002/572) Accurately ripped
05 [38dbddf8] (002/570) Accurately ripped
06 [c3e8793f] (002/571) Accurately ripped
07 [2f898fdb] (002/570) Accurately ripped
08 [b0aa0e6f] (002/569) Accurately ripped
09 [085f0d5f] (002/568) Accurately ripped
10 [307ef9be] (002/569) Accurately ripped
11 [ef84cce6] (002/569) Accurately ripped
12 [abaab82f] (000/561) No match (V2 was not tested)
13 [9b7711e6] (002/569) Accurately ripped
14 [e997e87d] (002/562) Accurately ripped
15 [c50643bc] (002/566) Accurately ripped
16 [87669215] (002/563) Accurately ripped
17 [1f7d434c] (000/546) No match (V2 was not tested)
Offsetted by -2018:
01 [cbe79785] (000/569) No match (V2 was not tested)
02 [51e2d451] (000/568) No match (V2 was not tested)
03 [02ca4110] (000/568) No match (V2 was not tested)
04 [15532f0b] (000/572) No match (V2 was not tested)
05 [9d644669] (000/570) No match (V2 was not tested)
06 [968992f8] (000/571) No match (V2 was not tested)
07 [2055dda7] (000/570) No match (V2 was not tested)
08 [937b6c25] (000/569) No match (V2 was not tested)
09 [5bd300c4] (000/568) No match (V2 was not tested)
10 [435ba30d] (000/569) No match (V2 was not tested)
11 [b55d0f18] (000/569) No match (V2 was not tested)
12 [3931f0d5] (000/561) No match (V2 was not tested)
13 [68f25529] (000/569) No match (V2 was not tested)
14 [72493cbb] (000/562) No match (V2 was not tested)
15 [a32d5ed1] (000/566) No match (V2 was not tested)
16 [e3bd806d] (000/563) No match (V2 was not tested)
17 [031189a0] (000/546) No match (V2 was not tested)
Offsetted by -1914:
01 [4b279638] (004/569) Accurately ripped
02 [0c8af82e] (004/568) Accurately ripped
03 [c3f20b52] (004/568) Accurately ripped
04 [e404875f] (004/572) Accurately ripped
05 [cccf360d] (004/570) Accurately ripped
06 [be017441] (004/571) Accurately ripped
07 [5025aa3d] (004/570) Accurately ripped
08 [e921f55b] (004/569) Accurately ripped
09 [7516eede] (000/568) No match (V2 was not tested)
10 [63426fd7] (004/569) Accurately ripped
11 [cc8045f9] (004/569) Accurately ripped
12 [6c9e37c7] (004/561) Accurately ripped
13 [ca229651] (004/569) Accurately ripped
14 [d9beff9e] (004/562) Accurately ripped
15 [f459571e] (004/566) Accurately ripped
16 [09d6ce7d] (004/563) Accurately ripped
17 [ecec0237] (004/546) Accurately ripped
Offsetted by -1354:
01 [3375e382] (000/569) No match (V2 was not tested)
02 [383f99fd] (000/568) No match (V2 was not tested)
03 [b9fc4b1b] (000/568) No match (V2 was not tested)
04 [43176475] (000/572) No match (V2 was not tested)
05 [daf5da48] (000/570) No match (V2 was not tested)
06 [26458921] (000/571) No match (V2 was not tested)
07 [ca0f958a] (000/570) No match (V2 was not tested)
08 [afb34cd2] (000/569) No match (V2 was not tested)
09 [399830f6] (000/568) No match (V2 was not tested)
10 [eb9c02ed] (000/569) No match (V2 was not tested)
11 [c8e923da] (000/569) No match (V2 was not tested)
12 [eeed4b85] (000/561) No match (V2 was not tested)
13 [521347f8] (000/569) No match (V2 was not tested)
14 [1144c63b] (000/562) No match (V2 was not tested)
15 [b8d307d4] (000/566) No match (V2 was not tested)
16 [4fada11a] (000/563) No match (V2 was not tested)
17 [cc9782b9] (000/546) No match (V2 was not tested)
Offsetted by -1002:
01 [02123cbc] (000/569) No match (V2 was not tested)
02 [8e0f4a63] (000/568) No match (V2 was not tested)
03 [e8cd975e] (000/568) No match (V2 was not tested)
04 [d563e3db] (000/572) No match (V2 was not tested)
05 [6e4c101f] (000/570) No match (V2 was not tested)
06 [a70ddb1f] (000/571) No match (V2 was not tested)
07 [3435368b] (000/570) No match (V2 was not tested)
08 [d1e1bd3a] (000/569) No match (V2 was not tested)
09 [e09c7343] (000/568) No match (V2 was not tested)
10 [dfe09f85] (000/569) No match (V2 was not tested)
11 [bea5549f] (000/569) No match (V2 was not tested)
12 [34b6b849] (000/561) No match (V2 was not tested)
13 [8639196e] (000/569) No match (V2 was not tested)
14 [b6ae7781] (000/562) No match (V2 was not tested)
15 [f73aa3d6] (000/566) No match (V2 was not tested)
16 [7668f9f9] (000/563) No match (V2 was not tested)
17 [8a2a3458] (000/546) No match (V2 was not tested)
Offsetted by -695:
01 [b008c3cb] (000/569) No match (V2 was not tested)
02 [351bf521] (000/568) No match (V2 was not tested)
03 [17f79d7b] (000/568) No match (V2 was not tested)
04 [89bb538e] (000/572) No match (V2 was not tested)
05 [9b25c8e6] (000/570) No match (V2 was not tested)
06 [5ac548a1] (000/571) No match (V2 was not tested)
07 [a4a1c0fc] (000/570) No match (V2 was not tested)
08 [12e20b48] (000/569) No match (V2 was not tested)
09 [f1a90718] (000/568) No match (V2 was not tested)
10 [a2a8efe4] (000/569) No match (V2 was not tested)
11 [9f41a45b] (000/569) No match (V2 was not tested)
12 [25cb99f9] (000/561) No match (V2 was not tested)
13 [a8f708c9] (000/569) No match (V2 was not tested)
14 [c0e6c0f4] (000/562) No match (V2 was not tested)
15 [8ac4b4db] (000/566) No match (V2 was not tested)
16 [2f6dc481] (000/563) No match (V2 was not tested)
17 [de5e6443] (000/546) No match (V2 was not tested)
Offsetted by -646:
01 [f1c47aeb] (000/569) No match (V2 was not tested)
02 [adeedf3c] (000/568) No match (V2 was not tested)
03 [ab0ca1c5] (000/568) No match (V2 was not tested)
04 [fc170a75] (000/572) No match (V2 was not tested)
05 [23fe9a4e] (000/570) No match (V2 was not tested)
06 [f6e9e158] (000/571) No match (V2 was not tested)
07 [a087a878] (000/570) No match (V2 was not tested)
08 [05625a02] (000/569) No match (V2 was not tested)
09 [4d6f3bf5] (000/568) No match (V2 was not tested)
10 [efc09536] (000/569) No match (V2 was not tested)
11 [db599428] (000/569) No match (V2 was not tested)
12 [1f81c7a5] (000/561) No match (V2 was not tested)
13 [f4413050] (000/569) No match (V2 was not tested)
14 [8328d6db] (000/562) No match (V2 was not tested)
15 [ab0dfa0f] (000/566) No match (V2 was not tested)
16 [8746aeb3] (000/563) No match (V2 was not tested)
17 [8bca2160] (000/546) No match (V2 was not tested)
Offsetted by -66:
01 [1c8e6fa8] (000/569) No match (V2 was not tested)
02 [b92f3264] (000/568) No match (V2 was not tested)
03 [954e74b4] (000/568) No match (V2 was not tested)
04 [56ed4a74] (000/572) No match (V2 was not tested)
05 [76759b94] (000/570) No match (V2 was not tested)
06 [506f42d6] (000/571) No match (V2 was not tested)
07 [93e8d461] (000/570) No match (V2 was not tested)
08 [32632c0f] (000/569) No match (V2 was not tested)
09 [d5014a04] (000/568) No match (V2 was not tested)
10 [c84c8dd5] (000/569) No match (V2 was not tested)
11 [a2e32452] (000/569) No match (V2 was not tested)
12 [eedfd63b] (000/561) No match (V2 was not tested)
13 [77becdeb] (000/569) No match (V2 was not tested)
14 [70751ed9] (000/562) No match (V2 was not tested)
15 [e8f56780] (000/566) No match (V2 was not tested)
16 [b5a00c1d] (000/563) No match (V2 was not tested)
17 [6bc86359] (000/546) No match (V2 was not tested)
Offsetted by -51:
01 [ddb51692] (000/569) No match (V2 was not tested)
02 [ae562fdd] (000/568) No match (V2 was not tested)
03 [8b66ce8a] (000/568) No match (V2 was not tested)
04 [5e6d7702] (000/572) No match (V2 was not tested)
05 [7aba0a95] (000/570) No match (V2 was not tested)
06 [a68d3c65] (000/571) No match (V2 was not tested)
07 [878abf24] (000/570) No match (V2 was not tested)
08 [4d12ccec] (000/569) No match (V2 was not tested)
09 [58472b6c] (000/568) No match (V2 was not tested)
10 [96f6100d] (000/569) No match (V2 was not tested)
11 [c7dda5a7] (000/569) No match (V2 was not tested)
12 [7356be75] (000/561) No match (V2 was not tested)
13 [b56b2ff8] (000/569) No match (V2 was not tested)
14 [8b14cb9d] (000/562) No match (V2 was not tested)
15 [bf6ca031] (000/566) No match (V2 was not tested)
16 [ad68242e] (000/563) No match (V2 was not tested)
17 [f623145e] (000/546) No match (V2 was not tested)
Offsetted by -48:
01 [b9eefd61] (002/569) Accurately ripped
02 [46565797] (002/568) Accurately ripped
03 [9d162b34] (002/568) Accurately ripped
04 [369415fe] (002/572) Accurately ripped
05 [7268ea30] (002/570) Accurately ripped
06 [c185b0ca] (002/571) Accurately ripped
07 [03a4e2c3] (002/570) Accurately ripped
08 [7889cba7] (002/569) Accurately ripped
09 [0f77d794] (002/568) Accurately ripped
10 [e052ec1d] (002/569) Accurately ripped
11 [64480798] (002/569) Accurately ripped
12 [c460cefa] (002/561) Accurately ripped
13 [363ed554] (002/569) Accurately ripped
14 [6895c932] (002/562) Accurately ripped
15 [585fdc33] (002/566) Accurately ripped
16 [2b06e9c4] (002/563) Accurately ripped
17 [f5f82109] (000/546) No match
Offsetted by 6:
01 [5c20803a] (000/569) No match
02 [2f66a8a4] (000/568) No match
03 [cc19bf86] (000/568) No match
04 [1f2321c1] (000/572) No match
05 [9717c3ef] (000/570) No match
06 [89f69f4f] (000/571) No match
07 [57bebe66] (000/570) No match
08 [22d950fa] (000/569) No match
09 [f40c0f54] (000/568) No match
10 [57f8083a] (000/569) No match
11 [b6394c51] (000/569) No match
12 [46837df7] (000/561) No match (V2 was not tested)
13 [992775db] (000/569) No match
14 [5e838121] (000/562) No match
15 [aa1032db] (000/566) No match
16 [ed4a5170] (000/563) No match
17 [d756e8bb] (000/546) No match

Track Peak [ CRC32 ] [W/O NULL] [ LOG ]
– 99,8 [28346A33] [60CDE291] CRC32
01 97,0 [FBA03010] [EF528B43]
02 97,0 [E04FB028] [986239F8]
03 97,0 [BD6579CB] [B93CCAC6]
04 90,2 [30B2D16F] [B7DC13EC]
05 99,3 [A8C9F489] [A42664AD]
06 98,5 [3CFE9F08] [047DA3AF]
07 99,3 [108E1601] [D9442319]
08 97,0 [BA3147E8] [C0203C3A]
09 98,5 [4C2F0B2A] [0745CFBB]
10 97,0 [D0E10CB3] [B6084B02]
11 98,5 [20807BCA] [8A0D9F9C]
12 99,7 [559DCB46] [A5087E66]
13 95,1 [F0FFD8B9] [3F43ED1E]
14 98,5 [BA2E4833] [E8E57CA2]
15 99,8 [9793A90E] [202AC896]
16 98,7 [1BE5C09E] [06AFF8D9]
17 98,7 [656DE36E] [D1466A65]

ABBA - The Definitive Collection (2001)

See also:
ABBA - The Albums (2008) {9CD Box Set, Remastered}

All thanks go to London

>>> My Blog <<<

Download from icerbox.com: