Subcategories

ABBA - The Ultimate Collection (2004)

Posted By: tirexiss
ABBA - The Ultimate Collection (2004)

ABBA - The Ultimate Collection (2004)
EAC | FLAC (image+.cue, log) | Covers Included | 05:04:49 | 2,21 Gb
Genre: Pop | Label: Universal | Catalog: 9810925

The most commercially successful pop group of the 1970s, the origins of the Swedish superstars ABBA dated back to 1966, when keyboardist and vocalist Benny Andersson, a onetime member of the popular beat outfit the Hep Stars, first teamed with guitarist and vocalist Bjorn Ulvaeus, the leader of the folk-rock unit the Hootenanny Singers. The two performers began composing songs together and handling session and production work for Polar Music/Union Songs, a publishing company owned by Stig Anderson, himself a prolific songwriter throughout the 1950s and 1960s. At the same time, both Andersson and Ulvaeus worked on projects with their respective girlfriends: Ulvaeus had become involved with vocalist Agnetha Faltskog, a performer with a recent number one Swedish hit, "I Was So in Love," under her belt, while Andersson began seeing Anni-Frid Lyngstad, a one-time jazz singer who rose to fame by winning a national talent contest.
In 1971, Faltskog ventured into theatrical work, accepting the role of Mary Magdalene in a Swedish production of Andrew Lloyd Webber's Jesus Christ Superstar; her cover of the musical's "Don't Know How to Love Him" became a significant hit. The following year, the duo of Andersson and Ulvaeus scored a massive international hit with "People Need Love," which featured Faltskog and Lyngstad on backing vocals. The record's success earned them an invitation to enter the Swedish leg of the 1973 Eurovision song contest, where, under the unwieldy name of Bjorn, Benny, Agnetha & Frida, they submitted "Ring Ring," which proved extremely popular with audiences but placed only third in the judges' ballots.
The next year, rechristened ABBA (a suggestion from Stig Anderson and an acronym of the members' first names), the quartet submitted the single "Waterloo," and became the first Swedish act to win the Eurovision competition. The record proved to be the first of many international hits, although the group hit a slump after their initial success as subsequent singles failed to chart. In 1975, however, ABBA issued "S.O.S.," a smash not only in America and Britain but also in non-English speaking countries such as Spain, Germany and the Benelux nations, where the group's success was fairly unprecedented. A string of hits followed, including "Mamma Mia," "Fernando," and "Dancing Queen" (ABBA's sole U.S. chart-topper), further honing their lush, buoyant sound; by the spring of 1976, they were already in position to issue their first Greatest Hits collection.
Voulez-VousABBA's popularity continued in 1977, when both "Knowing Me, Knowing You" and "The Name of the Game" dominated airwaves. The group also starred in the feature film ABBA – The Movie, which was released in 1978. That year Andersson and Lyngstad married, as had Ulvaeus and Faltskog in 1971, although the latter couple separated a few months later; in fact, romantic suffering was the subject of many songs on the quartet's next LP, 1979's Voulez-Vous. Shortly after the release of 1980s Super Trouper, Andersson and Lyngstad divorced as well, further straining the group dynamic; The Visitors, issued the following year, was the final LP of new ABBA material, and the foursome officially disbanded after the December 1982 release of their single "Under Attack."
Abba-esque: The Remixes Although all of the group's members soon embarked on new projects – both Lyngstad and Faltskog issued solo LPs, while Andersson and Ulvaeus collaborated with Tim Rice on the musical Chess – none proved as successful as the group's earlier work, largely because throughout much of the world, especially Europe and Australia, the ABBA phenomenon never went away. Repackaged hits compilations and live collections continued hitting the charts long after the group's demise, and new artists regularly pointed to the quartet's inspiration: while the British dance duo Erasure released a covers collection, ABBA-esque, an Australian group called Bjorn Again found success as ABBA impersonators. In 1993, "Dancing Queen" became a staple of U2's "Zoo TV" tour – Andersson and Ulvaeus even joined the Irish superstars on-stage in Stockholm – while the 1995 feature Muriel's Wedding, which won acclaim for its depiction of a lonely Australian girl who seeks refuge in ABBA's music, helped bring the group's work to the attention of a new generation of moviegoers and music fans. – Jason Ankeny

ABBA - The Ultimate Collection (2004)

Track List:

CD 1: Waterloo
01. Waterloo
02. Ring Ring
03. Honey Honey
04. Bang-A-Boomerang
05. I Do, I Do, I Do, I Do, I Do
06. When I Kissed The Teacher
07. Mamma Mia
08. Dum Dum Diddle
09. King Kong Song
10. My Mama Said
11. Money, Money, Money
12. Hey, Hey, Helen
13. As Good As New
14. Angel Eyes
15. Nina, Pretty Ballerina
16. Elaine
17. The Piper
18. Love Isn't Easy
19. The Way Old Friends Do
20. S.O.S.
21. Hasta Manana
22. The Visitors
23. Intermezzo No. 1

Exact Audio Copy V1.3 from 2. September 2016

Отчёт EAC об извлечении, выполненном 26. ноября 2017, 20:39

ABBA / The Ultimate Collection

Дисковод: LITE-ON CD-RW SOHR-5239V Adapter: 8 ID: 1

Режим чтения : Достоверность
Использование точного потока : Да
Отключение кэша аудио : Да
Использование указателей C2 : Нет

Коррекция смещения при чтении : 6
Способность читать области Lead-in и Lead-out : Нет
Заполнение пропущенных сэмплов тишиной : Да
Удаление блоков с тишиной в начале и конце : Нет
При вычислениях CRC использовались нулевые сэмплы : Да
Интерфейс : Установленный внешний ASPI-интерфейс

Выходной формат : Пользовательский кодировщик
Выбранный битрейт : 128 kBit/s
Качество : Высокий
Добавление ID3-тега : Нет
Утилита сжатия : C:\Program Files\Exact Audio Copy\FLAC\FLAC.EXE
Дополнительные параметры : -V -8 -T "Genre=%genre%" -T "Artist=%artist%" -T "Title=%title%" -T "Album=%albumtitle%" -T "Date=%year%" -T "Tracknumber=%tracknr%" -T "Comment=%comment%" %source%


TOC извлечённого CD

Трек | Старт | Длительность | Начальный сектор | Конечный сектор
––––––––––––––––––––––––––––––––––-
1 | 0:00.00 | 2:49.42 | 0 | 12716
2 | 2:49.42 | 3:05.67 | 12717 | 26658
3 | 5:55.34 | 2:57.17 | 26659 | 39950
4 | 8:52.51 | 3:04.74 | 39951 | 53824
5 | 11:57.50 | 3:17.51 | 53825 | 68650
6 | 15:15.26 | 3:02.25 | 68651 | 82325
7 | 18:17.51 | 3:34.41 | 82326 | 98416
8 | 21:52.17 | 2:55.35 | 98417 | 111576
9 | 24:47.52 | 3:13.74 | 111577 | 126125
10 | 28:01.51 | 3:14.23 | 126126 | 140698
11 | 31:15.74 | 3:07.35 | 140699 | 154758
12 | 34:23.34 | 3:18.20 | 154759 | 169628
13 | 37:41.54 | 3:24.00 | 169629 | 184928
14 | 41:05.54 | 4:21.65 | 184929 | 204568
15 | 45:27.44 | 2:54.08 | 204569 | 217626
16 | 48:21.52 | 3:46.52 | 217627 | 234628
17 | 52:08.29 | 3:28.23 | 234629 | 250251
18 | 55:36.52 | 2:55.42 | 250252 | 263418
19 | 58:32.19 | 2:57.27 | 263419 | 276720
20 | 61:29.46 | 3:22.36 | 276721 | 291906
21 | 64:52.07 | 3:11.24 | 291907 | 306255
22 | 68:03.31 | 5:47.26 | 306256 | 332306
23 | 73:50.57 | 3:48.69 | 332307 | 349475


Характеристики диапазона извлечения и сообщения об ошибках

Выбранный диапазон

Имя файла I:\MOI_RAZDACI\ABBA_The.Ultimate.Collection_4CD_2004\ABBA_The.Ultimate.Collection_4CD_2004\1CD\ABBA - The Ultimate Collection.wav

Пиковый уровень 100.0 %
Скорость извлечения 8.7 X
Качество диапазона 100.0 %
CRC теста D4BEB47B
CRC копии D4BEB47B
Копирование… OK

Ошибок не произошло


AccurateRip: сводка

Трек 1 : извлечено точно (доверие 8) [D8465AFE] (AR v2)
Трек 2 : извлечено точно (доверие 8) [CDCA7DAE] (AR v2)
Трек 3 : извлечено точно (доверие 8) [E666DDD3] (AR v2)
Трек 4 : извлечено точно (доверие 8) [9E0F950C] (AR v2)
Трек 5 : извлечено точно (доверие 8) [5C01EE8A] (AR v2)
Трек 6 : извлечено точно (доверие 8) [4D2E1C9F] (AR v2)
Трек 7 : извлечено точно (доверие 8) [1E602302] (AR v2)
Трек 8 : извлечено точно (доверие 8) [815D6359] (AR v2)
Трек 9 : извлечено точно (доверие 8) [AED03F2B] (AR v2)
Трек 10 : извлечено точно (доверие 8) [3964B5C4] (AR v2)
Трек 11 : извлечено точно (доверие 8) [58730A10] (AR v2)
Трек 12 : извлечено точно (доверие 8) [C50E9407] (AR v2)
Трек 13 : извлечено точно (доверие 8) [16469092] (AR v2)
Трек 14 : извлечено точно (доверие 8) [BFCE3822] (AR v2)
Трек 15 : извлечено точно (доверие 8) [325D13E9] (AR v2)
Трек 16 : извлечено точно (доверие 8) [8A8E7B1F] (AR v2)
Трек 17 : извлечено точно (доверие 8) [91641257] (AR v2)
Трек 18 : извлечено точно (доверие 8) [CABD211C] (AR v2)
Трек 19 : извлечено точно (доверие 8) [5290A6DF] (AR v2)
Трек 20 : извлечено точно (доверие 8) [C0968C7B] (AR v2)
Трек 21 : извлечено точно (доверие 8) [D324BF81] (AR v2)
Трек 22 : извлечено точно (доверие 8) [E0FCBA40] (AR v2)
Трек 23 : извлечено точно (доверие 8) [00E72F28] (AR v2)

Все треки извлечены точно

Конец отчёта

–– CUETools DB Plugin V2.1.6

[CTDB TOCID: ulMIsah0EoLY5f5JDizNqG8jo_c-] found
Submit result: already submitted
Track | CTDB Status
1 | (39/39) Accurately ripped
2 | (39/39) Accurately ripped
3 | (39/39) Accurately ripped
4 | (39/39) Accurately ripped
5 | (39/39) Accurately ripped
6 | (39/39) Accurately ripped
7 | (39/39) Accurately ripped
8 | (39/39) Accurately ripped
9 | (39/39) Accurately ripped
10 | (39/39) Accurately ripped
11 | (39/39) Accurately ripped
12 | (39/39) Accurately ripped
13 | (39/39) Accurately ripped
14 | (39/39) Accurately ripped
15 | (39/39) Accurately ripped
16 | (39/39) Accurately ripped
17 | (39/39) Accurately ripped
18 | (39/39) Accurately ripped
19 | (39/39) Accurately ripped
20 | (38/39) Accurately ripped
21 | (38/39) Accurately ripped
22 | (38/39) Accurately ripped
23 | (38/39) Accurately ripped


==== Контрольная сумма отчёта DBEC6A3D2707B83BC126BE39DAC792F4F154D380217A97F718274B5E3544E367 ====

[CUETools log; Date: 02.12.2017 11:27:28; Version: 2.1.5]
[CTDB TOCID: ulMIsah0EoLY5f5JDizNqG8jo_c-] found.
Track | CTDB Status
1 | (39/39) Accurately ripped
2 | (39/39) Accurately ripped
3 | (39/39) Accurately ripped
4 | (39/39) Accurately ripped
5 | (39/39) Accurately ripped
6 | (39/39) Accurately ripped
7 | (39/39) Accurately ripped
8 | (39/39) Accurately ripped
9 | (39/39) Accurately ripped
10 | (39/39) Accurately ripped
11 | (39/39) Accurately ripped
12 | (39/39) Accurately ripped
13 | (39/39) Accurately ripped
14 | (39/39) Accurately ripped
15 | (39/39) Accurately ripped
16 | (39/39) Accurately ripped
17 | (39/39) Accurately ripped
18 | (39/39) Accurately ripped
19 | (39/39) Accurately ripped
20 | (38/39) Accurately ripped
21 | (38/39) Accurately ripped
22 | (38/39) Accurately ripped
23 | (38/39) Accurately ripped
[AccurateRip ID: 003cfef4-04023d57-61123317] found.
Track [ CRC | V2 ] Status
01 [439bb6b7|d8465afe] (06+08/16) Accurately ripped
02 [20f1aa95|cdca7dae] (06+08/16) Accurately ripped
03 [76d0a4c3|e666ddd3] (06+08/16) Accurately ripped
04 [082a2e72|9e0f950c] (06+08/16) Accurately ripped
05 [7ee01e44|5c01ee8a] (06+08/16) Accurately ripped
06 [8b1236f7|4d2e1c9f] (06+08/16) Accurately ripped
07 [6813134b|1e602302] (06+08/16) Accurately ripped
08 [70ccfa80|815d6359] (05+08/15) Accurately ripped
09 [2e5d7af8|aed03f2b] (06+08/16) Accurately ripped
10 [83b545ca|3964b5c4] (05+08/15) Accurately ripped
11 [b801aa29|58730a10] (06+08/16) Accurately ripped
12 [10c24bd9|c50e9407] (06+08/16) Accurately ripped
13 [612c9ae1|16469092] (06+08/16) Accurately ripped
14 [6c0b7521|bfce3822] (06+08/16) Accurately ripped
15 [1f88cb61|325d13e9] (06+08/16) Accurately ripped
16 [819aae21|8a8e7b1f] (06+08/16) Accurately ripped
17 [b49227d7|91641257] (06+08/16) Accurately ripped
18 [abb467f5|cabd211c] (06+08/16) Accurately ripped
19 [afb8d885|5290a6df] (06+08/16) Accurately ripped
20 [5704548f|c0968c7b] (06+08/16) Accurately ripped
21 [fa715b30|d324bf81] (06+08/16) Accurately ripped
22 [a1be3820|e0fcba40] (06+08/16) Accurately ripped
23 [a99a7719|00e72f28] (06+08/16) Accurately ripped
Offsetted by -86:
01 [49f27f17] (02/16) Accurately ripped
02 [96f6b9b5] (02/16) Accurately ripped
03 [08fe95c5] (02/16) Accurately ripped
04 [c947430a] (02/16) Accurately ripped
05 [811c4f0a] (02/16) Accurately ripped
06 [57ac14a7] (02/16) Accurately ripped
07 [ccf5bae1] (02/16) Accurately ripped
08 [98935b98] (02/15) Accurately ripped
09 [ff8efe7a] (02/16) Accurately ripped
10 [184b1c6c] (02/15) Accurately ripped
11 [f21c8235] (02/16) Accurately ripped
12 [98d0b74f] (02/16) Accurately ripped
13 [b9ddf123] (02/16) Accurately ripped
14 [b8ada7fd] (02/16) Accurately ripped
15 [a250b8f1] (02/16) Accurately ripped
16 [4e752513] (02/16) Accurately ripped
17 [a41137cf] (02/16) Accurately ripped
18 [c9e07081] (02/16) Accurately ripped
19 [484b6c03] (02/16) Accurately ripped
20 [750f786b] (02/16) Accurately ripped
21 [3c4a6f76] (02/16) Accurately ripped
22 [e63ea7aa] (02/16) Accurately ripped
23 [3de7dc67] (02/16) Accurately ripped
Offsetted by -836:
01 [5d821cf7] (00/16) No match (V2 was not tested)
02 [075e6155] (00/16) No match (V2 was not tested)
03 [69064e8f] (00/16) No match (V2 was not tested)
04 [6950c702] (00/16) No match (V2 was not tested)
05 [c43b1628] (00/16) No match (V2 was not tested)
06 [61d81317] (00/16) No match (V2 was not tested)
07 [d7909a0f] (00/16) No match (V2 was not tested)
08 [dba2ce10] (00/15) No match (V2 was not tested)
09 [140343c4] (00/16) No match (V2 was not tested)
10 [c2e2dd56] (00/15) No match (V2 was not tested)
11 [520c90f1] (00/16) No match (V2 was not tested)
12 [8eb3addd] (00/16) No match (V2 was not tested)
13 [77e87c2d] (00/16) No match (V2 was not tested)
14 [1f69c2c9] (00/16) No match (V2 was not tested)
15 [93decac1] (00/16) No match (V2 was not tested)
16 [a2459d8d] (00/16) No match (V2 was not tested)
17 [9d11f8a7] (00/16) No match (V2 was not tested)
18 [dce961bd] (00/16) No match (V2 was not tested)
19 [86c6b9b9] (00/16) No match (V2 was not tested)
20 [2dac2837] (00/16) No match (V2 was not tested)
21 [925c3814] (00/16) No match (V2 was not tested)
22 [35b0981c] (00/16) No match (V2 was not tested)
23 [da1fa92d] (00/16) No match (V2 was not tested)

Track Peak [ CRC32 ] [W/O NULL] [ LOG ]
– 100,0 [D4BEB47B] [B26BAD85] CRC32
01 99,6 [A96E968A] [90E71B18]
02 99,6 [BC56CA88] [8BE23E01]
03 100,0 [6B373246] [9CBF021C]
04 99,5 [EFA138EE] [44F3FF19]
05 90,3 [7064BFAA] [E6A40367]
06 100,0 [438DD9A0] [D003FBE5]
07 99,3 [A4E34170] [0B27BDAF]
08 97,1 [999B5A77] [AF3B6C97]
09 97,1 [5BC11F74] [CC52A779]
10 100,0 [A9DC4DF1] [4AB9BD55]
11 95,1 [1A68787E] [385D446B]
12 99,3 [9CE74E54] [CFABD90D]
13 99,6 [67B6FD04] [ABEF9EDE]
14 97,1 [424A7E26] [85DFA71F]
15 97,1 [A92BA5C5] [E3F9BDB0]
16 92,8 [EA256AD6] [99E0FC31]
17 95,1 [B592A6D6] [0434E432]
18 97,1 [C578A756] [CB77F1F9]
19 92,8 [44107EE0] [71269AC6]
20 95,1 [FD868200] [D01D9A80]
21 92,8 [A846959B] [E94AE2F4]
22 99,7 [47C2C57B] [461B0129]
23 95,1 [C7E591B3] [2811BFBC]

CD 2: Take A Chance On Me
01. Gonna Sing You My Love Song
02. Take A Chance On Me
03. My Love, My Life
04. Andante, Andante
05. I've Been Waiting For You
06. Lay All Your Love On Me
07. One Man, One Woman
08. Kisses Of Fire
09. Like An Angel Passing Through My Room
10. Knowing Me, Knowing You
11. The Name Of The Game
12. Move On
13. Our Last Summer
14. One Of Us
15. The Winner Takes It All
16. The Day Before You Came
17. When All Is Said And Done
18. I Wonder (Departure)

Exact Audio Copy V1.3 from 2. September 2016

Отчёт EAC об извлечении, выполненном 26. ноября 2017, 21:04

ABBA / The Ultimate Collection 2CD

Дисковод: LITE-ON CD-RW SOHR-5239V Adapter: 8 ID: 1

Режим чтения : Достоверность
Использование точного потока : Да
Отключение кэша аудио : Да
Использование указателей C2 : Нет

Коррекция смещения при чтении : 6
Способность читать области Lead-in и Lead-out : Нет
Заполнение пропущенных сэмплов тишиной : Да
Удаление блоков с тишиной в начале и конце : Нет
При вычислениях CRC использовались нулевые сэмплы : Да
Интерфейс : Установленный внешний ASPI-интерфейс

Выходной формат : Пользовательский кодировщик
Выбранный битрейт : 128 kBit/s
Качество : Высокий
Добавление ID3-тега : Нет
Утилита сжатия : C:\Program Files\Exact Audio Copy\FLAC\FLAC.EXE
Дополнительные параметры : -V -8 -T "Genre=%genre%" -T "Artist=%artist%" -T "Title=%title%" -T "Album=%albumtitle%" -T "Date=%year%" -T "Tracknumber=%tracknr%" -T "Comment=%comment%" %source%


TOC извлечённого CD

Трек | Старт | Длительность | Начальный сектор | Конечный сектор
––––––––––––––––––––––––––––––––––-
1 | 0:00.00 | 3:39.17 | 0 | 16441
2 | 3:39.17 | 4:05.74 | 16442 | 34890
3 | 7:45.16 | 3:53.15 | 34891 | 52380
4 | 11:38.31 | 4:39.57 | 52381 | 73362
5 | 16:18.13 | 3:41.05 | 73363 | 89942
6 | 19:59.18 | 4:35.62 | 89943 | 110629
7 | 24:35.05 | 4:36.18 | 110630 | 131347
8 | 29:11.23 | 3:17.59 | 131348 | 146181
9 | 32:29.07 | 3:28.58 | 146182 | 161839
10 | 35:57.65 | 4:03.06 | 161840 | 180070
11 | 40:00.71 | 4:53.02 | 180071 | 202047
12 | 44:53.73 | 4:45.01 | 202048 | 223423
13 | 49:38.74 | 4:21.47 | 223424 | 243045
14 | 54:00.46 | 3:56.56 | 243046 | 260801
15 | 57:57.27 | 4:56.54 | 260802 | 283055
16 | 62:54.06 | 5:51.45 | 283056 | 309425
17 | 68:45.51 | 3:18.15 | 309426 | 324290
18 | 72:03.66 | 4:33.06 | 324291 | 344771


Характеристики диапазона извлечения и сообщения об ошибках

Выбранный диапазон

Имя файла I:\MOI_RAZDACI\ABBA_The.Ultimate.Collection_4CD_2004\ABBA_The.Ultimate.Collection_4CD_2004\2CD\ABBA - The Ultimate Collection 2CD.wav

Пиковый уровень 100.0 %
Скорость извлечения 10.2 X
Качество диапазона 100.0 %
CRC теста C7178D8C
CRC копии C7178D8C
Копирование… OK

Ошибок не произошло


AccurateRip: сводка

Трек 1 : извлечено точно (доверие 6) [7605CDA5] (AR v2)
Трек 2 : извлечено точно (доверие 6) [DF76AF00] (AR v2)
Трек 3 : извлечено точно (доверие 6) [22EE0EDC] (AR v2)
Трек 4 : извлечено точно (доверие 6) [3D3DFC76] (AR v2)
Трек 5 : извлечено точно (доверие 6) [0E640F21] (AR v2)
Трек 6 : извлечено точно (доверие 6) [D0708A46] (AR v2)
Трек 7 : извлечено точно (доверие 6) [291FB65E] (AR v2)
Трек 8 : извлечено точно (доверие 6) [045D1791] (AR v2)
Трек 9 : извлечено точно (доверие 6) [E794CBFD] (AR v2)
Трек 10 : извлечено точно (доверие 6) [6F9E2BAF] (AR v2)
Трек 11 : извлечено точно (доверие 6) [ECBAE826] (AR v2)
Трек 12 : извлечено точно (доверие 6) [A1F1887F] (AR v2)
Трек 13 : извлечено точно (доверие 6) [21F3FE2B] (AR v2)
Трек 14 : извлечено точно (доверие 6) [1A13D927] (AR v2)
Трек 15 : извлечено точно (доверие 6) [E310A1DD] (AR v2)
Трек 16 : извлечено точно (доверие 6) [DD47D1A3] (AR v2)
Трек 17 : извлечено точно (доверие 6) [660319A9] (AR v2)
Трек 18 : извлечено точно (доверие 6) [0542DDB6] (AR v2)

Все треки извлечены точно

Конец отчёта

–– CUETools DB Plugin V2.1.6

[CTDB TOCID: UIl7WtY8lMiQ6bErfb_SxLMxwFg-] found
Submit result: UIl7WtY8lMiQ6bErfb_SxLMxwFg- has been confirmed
Track | CTDB Status
1 | (34/34) Accurately ripped
2 | (34/34) Accurately ripped
3 | (34/34) Accurately ripped
4 | (34/34) Accurately ripped
5 | (34/34) Accurately ripped
6 | (34/34) Accurately ripped
7 | (34/34) Accurately ripped
8 | (34/34) Accurately ripped
9 | (34/34) Accurately ripped
10 | (33/34) Accurately ripped
11 | (34/34) Accurately ripped
12 | (34/34) Accurately ripped
13 | (34/34) Accurately ripped
14 | (34/34) Accurately ripped
15 | (33/34) Accurately ripped
16 | (34/34) Accurately ripped
17 | (34/34) Accurately ripped
18 | (33/34) Accurately ripped


==== Контрольная сумма отчёта 386C294B40FDF65BA236FF7A5D579A63E434D3443595D32A18107F71213ACCC3 ====

[CUETools log; Date: 02.12.2017 11:29:33; Version: 2.1.5]
[CTDB TOCID: UIl7WtY8lMiQ6bErfb_SxLMxwFg-] found.
Track | CTDB Status
1 | (35/35) Accurately ripped
2 | (35/35) Accurately ripped
3 | (35/35) Accurately ripped
4 | (35/35) Accurately ripped
5 | (35/35) Accurately ripped
6 | (35/35) Accurately ripped
7 | (35/35) Accurately ripped
8 | (35/35) Accurately ripped
9 | (35/35) Accurately ripped
10 | (34/35) Accurately ripped
11 | (35/35) Accurately ripped
12 | (35/35) Accurately ripped
13 | (35/35) Accurately ripped
14 | (35/35) Accurately ripped
15 | (34/35) Accurately ripped
16 | (35/35) Accurately ripped
17 | (35/35) Accurately ripped
18 | (34/35) Accurately ripped
[AccurateRip ID: 0030a4f4-028d4ba6-fe11f412] found.
Track [ CRC | V2 ] Status
01 [7b7d3940|7605cda5] (03+06/13) Accurately ripped
02 [678c5298|df76af00] (02+06/12) Accurately ripped
03 [53c39def|22ee0edc] (03+06/13) Accurately ripped
04 [e6ad2b66|3d3dfc76] (03+06/13) Accurately ripped
05 [9ad33a8d|0e640f21] (03+06/13) Accurately ripped
06 [80e55b0a|d0708a46] (03+06/13) Accurately ripped
07 [fb9ece3a|291fb65e] (04+06/14) Accurately ripped
08 [536b4104|045d1791] (04+06/14) Accurately ripped
09 [680ade27|e794cbfd] (04+06/14) Accurately ripped
10 [c9e41020|6f9e2baf] (04+06/14) Accurately ripped
11 [205dbb7c|ecbae826] (04+06/14) Accurately ripped
12 [a74358a1|a1f1887f] (04+06/14) Accurately ripped
13 [028c0657|21f3fe2b] (04+06/14) Accurately ripped
14 [fd88a4f0|1a13d927] (04+06/14) Accurately ripped
15 [90a7a847|e310a1dd] (03+06/13) Accurately ripped
16 [13257bda|dd47d1a3] (04+06/14) Accurately ripped
17 [b84793b1|660319a9] (04+06/14) Accurately ripped
18 [abeb1ddd|0542ddb6] (04+06/14) Accurately ripped
Offsetted by -664:
01 [85eec1e0] (04/13) Accurately ripped
02 [04517668] (04/12) Accurately ripped
03 [1935b0c7] (04/13) Accurately ripped
04 [deaafbbe] (04/13) Accurately ripped
05 [7e56383d] (04/13) Accurately ripped
06 [59cc103a] (04/13) Accurately ripped
07 [c22c6702] (04/14) Accurately ripped
08 [c010bff4] (04/14) Accurately ripped
09 [36c17fe7] (04/14) Accurately ripped
10 [2deb4b20] (04/14) Accurately ripped
11 [2577ea0c] (04/14) Accurately ripped
12 [01d68e79] (04/14) Accurately ripped
13 [cd2a79f7] (04/14) Accurately ripped
14 [d0b0aa48] (04/14) Accurately ripped
15 [6ec8dac7] (04/13) Accurately ripped
16 [b1aff562] (04/14) Accurately ripped
17 [165fbdf1] (04/14) Accurately ripped
18 [d8b96fc5] (04/14) Accurately ripped
Offsetted by -1992:
01 [9ad1d320] (00/13) No match (V2 was not tested)
02 [3ddbbe08] (00/12) No match (V2 was not tested)
03 [a419d677] (00/13) No match (V2 was not tested)
04 [cea69c6e] (00/13) No match (V2 was not tested)
05 [455c339d] (00/13) No match (V2 was not tested)
06 [0b997a9a] (00/13) No match (V2 was not tested)
07 [4f479892] (00/14) No match (V2 was not tested)
08 [995bbdd4] (00/14) No match (V2 was not tested)
09 [d42ec367] (00/14) No match (V2 was not tested)
10 [f5f9c120] (00/14) No match (V2 was not tested)
11 [2fac472c] (00/14) No match (V2 was not tested)
12 [b6fcfa29] (00/14) No match (V2 was not tested)
13 [62676137] (00/14) No match (V2 was not tested)
14 [7700b4f8] (00/14) No match (V2 was not tested)
15 [2b0b3fc7] (00/13) No match (V2 was not tested)
16 [eec4e872] (00/14) No match (V2 was not tested)
17 [d2901271] (00/14) No match (V2 was not tested)
18 [32561395] (00/14) No match (V2 was not tested)

Track Peak [ CRC32 ] [W/O NULL] [ LOG ]
– 100,0 [C7178D8C] [E70CECEE] CRC32
01 99,5 [88DA1F90] [B6D92437]
02 95,1 [00543636] [41887A5F]
03 99,6 [2A63B530] [F723CE59]
04 95,1 [8DC31B00] [F1289BBD]
05 99,5 [A00763CD] [5690A023]
06 97,1 [5E890701] [E46C4646]
07 95,1 [7952EBA3] [A08AC11E]
08 99,6 [77CF1723] [F76EF890]
09 100,0 [E71DFFBB] [C1EE8EF6]
10 95,1 [D5AAD0A0] [04EFF649]
11 95,1 [646565DE] [84BECFA0]
12 95,1 [FFACE4B4] [DEFB3D17]
13 95,1 [9ADBAD60] [7B3C8E10]
14 98,6 [99004543] [841E029C]
15 99,3 [EF4638FC] [8DC97BEC]
16 95,1 [618585A9] [A7D22E99]
17 97,1 [19D7E492] [F567993E]
18 90,2 [1D676662] [7FFE8CAD]

CD 3: Dancing Queen
01. Dancing Queen
02. Summer Night City
03. Dance (While The Music Still Goes On)
04. Does Your Mother Know
05. If It Wasn't For The Nights
06. Watch Out
07. Voulez-Vous
08. He Is Your Brother
09. Hole In Your Soul
10. Gimme! Gimme! Gimme!
11. Rock Me
12. So Long
13. That's Me
14. Lovelight
15. Why Did It Have To Be Me
16. Tiger
17. People Need Love
18. On And On And On
19. Head Over Heels
20. Under Attack

Exact Audio Copy V1.3 from 2. September 2016

Отчёт EAC об извлечении, выполненном 27. ноября 2017, 1:27

ABBA / The Ultimate Collection 3CD

Дисковод: LITE-ON CD-RW SOHR-5239V Adapter: 8 ID: 1

Режим чтения : Достоверность
Использование точного потока : Да
Отключение кэша аудио : Да
Использование указателей C2 : Нет

Коррекция смещения при чтении : 6
Способность читать области Lead-in и Lead-out : Нет
Заполнение пропущенных сэмплов тишиной : Да
Удаление блоков с тишиной в начале и конце : Нет
При вычислениях CRC использовались нулевые сэмплы : Да
Интерфейс : Установленный внешний ASPI-интерфейс

Выходной формат : Пользовательский кодировщик
Выбранный битрейт : 128 kBit/s
Качество : Высокий
Добавление ID3-тега : Нет
Утилита сжатия : C:\Program Files\Exact Audio Copy\FLAC\FLAC.EXE
Дополнительные параметры : -V -8 -T "Genre=%genre%" -T "Artist=%artist%" -T "Title=%title%" -T "Album=%albumtitle%" -T "Date=%year%" -T "Tracknumber=%tracknr%" -T "Comment=%comment%" %source%


TOC извлечённого CD

Трек | Старт | Длительность | Начальный сектор | Конечный сектор
––––––––––––––––––––––––––––––––––-
1 | 0:00.00 | 3:52.03 | 0 | 17402
2 | 3:52.03 | 3:35.63 | 17403 | 33590
3 | 7:27.66 | 3:13.05 | 33591 | 48070
4 | 10:40.71 | 3:14.21 | 48071 | 62641
5 | 13:55.17 | 5:09.19 | 62642 | 85835
6 | 19:04.36 | 3:47.55 | 85836 | 102915
7 | 22:52.16 | 5:06.72 | 102916 | 125937
8 | 27:59.13 | 3:20.33 | 125938 | 140970
9 | 31:19.46 | 3:42.67 | 140971 | 157687
10 | 35:02.38 | 4:51.72 | 157688 | 179584
11 | 39:54.35 | 3:06.28 | 179585 | 193562
12 | 43:00.63 | 3:05.69 | 193563 | 207506
13 | 46:06.57 | 3:17.27 | 207507 | 222308
14 | 49:24.09 | 3:23.52 | 222309 | 237585
15 | 52:47.61 | 3:23.38 | 237586 | 252848
16 | 56:11.24 | 2:57.10 | 252849 | 266133
17 | 59:08.34 | 2:47.04 | 266134 | 278662
18 | 61:55.38 | 3:41.67 | 278663 | 295304
19 | 65:37.30 | 3:48.54 | 295305 | 312458
20 | 69:26.09 | 3:49.52 | 312459 | 329685


Характеристики диапазона извлечения и сообщения об ошибках

Выбранный диапазон

Имя файла I:\MOI_RAZDACI\ABBA_The.Ultimate.Collection_4CD_2004\ABBA_The.Ultimate.Collection_4CD_2004\3CD\ABBA - The Ultimate Collection 3CD.wav

Пиковый уровень 100.0 %
Скорость извлечения 8.5 X
Качество диапазона 100.0 %
CRC теста D7568096
CRC копии D7568096
Копирование… OK

Ошибок не произошло


AccurateRip: сводка

Трек 1 : извлечено точно (доверие 6) [6E3A39FA] (AR v2)
Трек 2 : извлечено точно (доверие 6) [CA25A345] (AR v2)
Трек 3 : извлечено точно (доверие 6) [025B7992] (AR v2)
Трек 4 : извлечено точно (доверие 6) [C26D1851] (AR v2)
Трек 5 : извлечено точно (доверие 6) [2A55362F] (AR v2)
Трек 6 : извлечено точно (доверие 6) [7E92766A] (AR v2)
Трек 7 : извлечено точно (доверие 6) [53DC7112] (AR v2)
Трек 8 : извлечено точно (доверие 6) [8E8941AD] (AR v2)
Трек 9 : извлечено точно (доверие 6) [BECEFBAF] (AR v2)
Трек 10 : извлечено точно (доверие 6) [7FF7A989] (AR v2)
Трек 11 : извлечено точно (доверие 6) [B4BBFADF] (AR v2)
Трек 12 : извлечено точно (доверие 6) [9D0A170B] (AR v2)
Трек 13 : извлечено точно (доверие 6) [8A958D8A] (AR v2)
Трек 14 : извлечено точно (доверие 6) [224FBD57] (AR v2)
Трек 15 : извлечено точно (доверие 6) [A2407C65] (AR v2)
Трек 16 : извлечено точно (доверие 6) [D33DB964] (AR v2)
Трек 17 : извлечено точно (доверие 6) [1F182224] (AR v2)
Трек 18 : извлечено точно (доверие 6) [D3CECEDF] (AR v2)
Трек 19 : извлечено точно (доверие 6) [BD46255A] (AR v2)
Трек 20 : извлечено точно (доверие 6) [12C1C076] (AR v2)

Все треки извлечены точно

Конец отчёта

–– CUETools DB Plugin V2.1.6

[CTDB TOCID: 9.DOmrARsTC48ELofCZ_82VEhzg-] found
Submit result: 9.DOmrARsTC48ELofCZ_82VEhzg- has been confirmed
Track | CTDB Status
1 | (34/34) Accurately ripped
2 | (34/34) Accurately ripped
3 | (34/34) Accurately ripped
4 | (34/34) Accurately ripped
5 | (34/34) Accurately ripped
6 | (34/34) Accurately ripped
7 | (34/34) Accurately ripped
8 | (34/34) Accurately ripped
9 | (34/34) Accurately ripped
10 | (34/34) Accurately ripped
11 | (34/34) Accurately ripped
12 | (34/34) Accurately ripped
13 | (34/34) Accurately ripped
14 | (34/34) Accurately ripped
15 | (33/34) Accurately ripped
16 | (33/34) Accurately ripped
17 | (33/34) Accurately ripped
18 | (34/34) Accurately ripped
19 | (34/34) Accurately ripped
20 | (34/34) Accurately ripped


==== Контрольная сумма отчёта 297C2BAFA6ACB4F68231C542FB0FE709506AE4869FC5C57DE9EAEF1BCBCFA4E3 ====

[CUETools log; Date: 02.12.2017 11:30:13; Version: 2.1.5]
[CTDB TOCID: 9.DOmrARsTC48ELofCZ_82VEhzg-] found.
Track | CTDB Status
1 | (35/35) Accurately ripped
2 | (35/35) Accurately ripped
3 | (35/35) Accurately ripped
4 | (35/35) Accurately ripped
5 | (35/35) Accurately ripped
6 | (35/35) Accurately ripped
7 | (35/35) Accurately ripped
8 | (35/35) Accurately ripped
9 | (35/35) Accurately ripped
10 | (35/35) Accurately ripped
11 | (35/35) Accurately ripped
12 | (35/35) Accurately ripped
13 | (35/35) Accurately ripped
14 | (35/35) Accurately ripped
15 | (34/35) Accurately ripped
16 | (34/35) Accurately ripped
17 | (34/35) Accurately ripped
18 | (35/35) Accurately ripped
19 | (35/35) Accurately ripped
20 | (35/35) Accurately ripped
[AccurateRip ID: 00362dee-0315f54c-3f112b14] found.
Track [ CRC | V2 ] Status
01 [2917e4e2|6e3a39fa] (04+06/14) Accurately ripped
02 [d5bb739c|ca25a345] (04+06/14) Accurately ripped
03 [2eef77cf|025b7992] (04+06/14) Accurately ripped
04 [bb43057f|c26d1851] (04+06/14) Accurately ripped
05 [bdfd517d|2a55362f] (04+06/14) Accurately ripped
06 [87cacbe1|7e92766a] (03+06/13) Accurately ripped
07 [81a6a010|53dc7112] (04+06/14) Accurately ripped
08 [df265b3d|8e8941ad] (04+06/14) Accurately ripped
09 [93cd4a26|becefbaf] (04+06/14) Accurately ripped
10 [521ca692|7ff7a989] (04+06/14) Accurately ripped
11 [d6c5c463|b4bbfadf] (04+06/14) Accurately ripped
12 [12e2b854|9d0a170b] (04+06/14) Accurately ripped
13 [d137ae40|8a958d8a] (04+06/14) Accurately ripped
14 [f41f3ad8|224fbd57] (04+06/14) Accurately ripped
15 [f65ea8e3|a2407c65] (04+06/14) Accurately ripped
16 [98232644|d33db964] (04+06/14) Accurately ripped
17 [4995380b|1f182224] (04+06/14) Accurately ripped
18 [dfffd941|d3cecedf] (04+06/14) Accurately ripped
19 [85ad3113|bd46255a] (04+06/14) Accurately ripped
20 [9c7c563f|12c1c076] (04+06/14) Accurately ripped
Offsetted by -664:
01 [27ab1a9a] (04/14) Accurately ripped
02 [efbef194] (04/14) Accurately ripped
03 [b61c2b8f] (04/14) Accurately ripped
04 [b473b6ef] (04/14) Accurately ripped
05 [a5ce4ae5] (04/14) Accurately ripped
06 [31a30339] (04/13) Accurately ripped
07 [e3742520] (04/14) Accurately ripped
08 [e5c00a55] (04/14) Accurately ripped
09 [1d4a56ce] (04/14) Accurately ripped
10 [7e593c72] (04/14) Accurately ripped
11 [a3905acb] (04/14) Accurately ripped
12 [cf6f350c] (04/14) Accurately ripped
13 [c18b8c90] (04/14) Accurately ripped
14 [283f0220] (04/14) Accurately ripped
15 [1c73383b] (04/14) Accurately ripped
16 [6e99e5ac] (04/14) Accurately ripped
17 [f85f94f3] (04/14) Accurately ripped
18 [1b0b1829] (04/14) Accurately ripped
19 [a9c9508b] (04/14) Accurately ripped
20 [9f30c7f7] (04/14) Accurately ripped
Offsetted by -1328:
01 [263e5052] (00/14) No match (V2 was not tested)
02 [09c26f8c] (00/14) No match (V2 was not tested)
03 [3d48df4f] (00/14) No match (V2 was not tested)
04 [ada4685f] (00/14) No match (V2 was not tested)
05 [8d9f444d] (00/14) No match (V2 was not tested)
06 [db7b3a91] (00/13) No match (V2 was not tested)
07 [4541aa30] (00/14) No match (V2 was not tested)
08 [ec59b96d] (00/14) No match (V2 was not tested)
09 [a6c76376] (00/14) No match (V2 was not tested)
10 [aa95d252] (00/14) No match (V2 was not tested)
11 [705af133] (00/14) No match (V2 was not tested)
12 [8bfbb1c4] (00/14) No match (V2 was not tested)
13 [b1df6ae0] (00/14) No match (V2 was not tested)
14 [5c5ec968] (00/14) No match (V2 was not tested)
15 [4287c793] (00/14) No match (V2 was not tested)
16 [4510a514] (00/14) No match (V2 was not tested)
17 [a729f1db] (00/14) No match (V2 was not tested)
18 [56165711] (00/14) No match (V2 was not tested)
19 [cde57003] (00/14) No match (V2 was not tested)
20 [a1e539af] (00/14) No match (V2 was not tested)

Track Peak [ CRC32 ] [W/O NULL] [ LOG ]
– 99,9 [D7568096] [5234E90A] CRC32
01 95,1 [DEDEDA07] [B3399E95]
02 92,8 [93672319] [DC2F564F]
03 99,5 [E0C32CC9] [8B814EC6]
04 97,1 [C37DCD98] [9935BA53]
05 97,1 [06031610] [7CC1701F]
06 97,1 [0E4CDE86] [8CE263A3]
07 97,1 [33A201F4] [5182AC67]
08 99,6 [443CAFF9] [B79C7FC6]
09 95,1 [844C44A7] [BFDBB242]
10 97,1 [01CEC6D5] [9801B212]
11 99,5 [AC46BA35] [96429001]
12 99,6 [E3824F25] [D15E2677]
13 95,1 [91B3CFC8] [03FC4052]
14 99,6 [12BAEE4A] [4017A39B]
15 99,9 [AA246173] [EAF82C61]
16 95,1 [8A38441D] [5DE1F51A]
17 97,1 [B14A9D95] [E2FD5E56]
18 99,3 [A8E84725] [142C0823]
19 98,6 [57E0DEF0] [90DC499A]
20 98,6 [A77DC8B5] [2E47E783]

CD 4: Thank You For The Music
01. Fernando
02. I Let The Music Speak
03. Chiquitita
04. Eagle
05. Arrival
06. Another Town, Another Train
07. I Have A Dream
08. Tropical Loveland
09. I'm A Marionette
10. Super Trouper
11. The King Has Lost His Crown
12. Slipping Through My Fingers
13. Soldiers
14. What About Livingstone?
15. Sitting In The Palmtree
16. Suzy-Hang-Around
17. Two For The Price Of One
18. Happy New Year
19. Thank You For The Music

Exact Audio Copy V1.3 from 2. September 2016

Отчёт EAC об извлечении, выполненном 27. ноября 2017, 1:45

ABBA / The Ultimate Collection 4CD

Дисковод: LITE-ON CD-RW SOHR-5239V Adapter: 8 ID: 1

Режим чтения : Достоверность
Использование точного потока : Да
Отключение кэша аудио : Да
Использование указателей C2 : Нет

Коррекция смещения при чтении : 6
Способность читать области Lead-in и Lead-out : Нет
Заполнение пропущенных сэмплов тишиной : Да
Удаление блоков с тишиной в начале и конце : Нет
При вычислениях CRC использовались нулевые сэмплы : Да
Интерфейс : Установленный внешний ASPI-интерфейс

Выходной формат : Пользовательский кодировщик
Выбранный битрейт : 128 kBit/s
Качество : Высокий
Добавление ID3-тега : Нет
Утилита сжатия : C:\Program Files\Exact Audio Copy\FLAC\FLAC.EXE
Дополнительные параметры : -V -8 -T "Genre=%genre%" -T "Artist=%artist%" -T "Title=%title%" -T "Album=%albumtitle%" -T "Date=%year%" -T "Tracknumber=%tracknr%" -T "Comment=%comment%" %source%


TOC извлечённого CD

Трек | Старт | Длительность | Начальный сектор | Конечный сектор
––––––––––––––––––––––––––––––––––-
1 | 0:00.00 | 4:16.45 | 0 | 19244
2 | 4:16.45 | 5:21.57 | 19245 | 43376
3 | 9:38.27 | 5:27.66 | 43377 | 67967
4 | 15:06.18 | 5:52.50 | 67968 | 94417
5 | 20:58.68 | 3:03.52 | 94418 | 108194
6 | 24:02.45 | 3:13.41 | 108195 | 122710
7 | 27:16.11 | 4:44.07 | 122711 | 144017
8 | 32:00.18 | 3:06.37 | 144018 | 158004
9 | 35:06.55 | 4:05.37 | 158005 | 176416
10 | 39:12.17 | 4:12.72 | 176417 | 195388
11 | 43:25.14 | 3:34.12 | 195389 | 211450
12 | 46:59.26 | 3:55.54 | 211451 | 229129
13 | 50:55.05 | 4:40.16 | 229130 | 250145
14 | 55:35.21 | 2:56.35 | 250146 | 263380
15 | 58:31.56 | 3:38.73 | 263381 | 279803
16 | 62:10.54 | 3:12.04 | 279804 | 294207
17 | 65:22.58 | 3:38.06 | 294208 | 310563
18 | 69:00.64 | 4:25.65 | 310564 | 330503
19 | 73:26.54 | 3:52.28 | 330504 | 347931


Характеристики диапазона извлечения и сообщения об ошибках

Выбранный диапазон

Имя файла I:\MOI_RAZDACI\ABBA_The.Ultimate.Collection_4CD_2004\ABBA_The.Ultimate.Collection_4CD_2004\4CD\ABBA - The Ultimate Collection 4CD.wav

Пиковый уровень 99.8 %
Скорость извлечения 10.3 X
Качество диапазона 100.0 %
CRC теста 59E39AFA
CRC копии 59E39AFA
Копирование… OK

Ошибок не произошло


AccurateRip: сводка

Трек 1 : извлечено точно (доверие 5) [3D263DC7] (AR v2)
Трек 2 : извлечено точно (доверие 5) [A684333D] (AR v2)
Трек 3 : извлечено точно (доверие 4) [CC10411C] (AR v2)
Трек 4 : извлечено точно (доверие 5) [BBB2E9A3] (AR v2)
Трек 5 : извлечено точно (доверие 5) [7DAF8159] (AR v2)
Трек 6 : извлечено точно (доверие 5) [9187E82D] (AR v2)
Трек 7 : извлечено точно (доверие 5) [67CA8B2F] (AR v2)
Трек 8 : извлечено точно (доверие 5) [D0958250] (AR v2)
Трек 9 : извлечено точно (доверие 5) [18DF8135] (AR v2)
Трек 10 : извлечено точно (доверие 5) [76D521DB] (AR v2)
Трек 11 : извлечено точно (доверие 4) [900F3C14] (AR v2)
Трек 12 : извлечено точно (доверие 5) [E91A76C7] (AR v2)
Трек 13 : извлечено точно (доверие 5) [65EB670F] (AR v2)
Трек 14 : извлечено точно (доверие 5) [31B367E5] (AR v2)
Трек 15 : извлечено точно (доверие 5) [BC3A73B0] (AR v2)
Трек 16 : извлечено точно (доверие 5) [ADF89F75] (AR v2)
Трек 17 : извлечено точно (доверие 4) [BD8094F0] (AR v2)
Трек 18 : извлечено точно (доверие 5) [256281DB] (AR v2)
Трек 19 : извлечено точно (доверие 5) [53C2F1D0] (AR v2)

Все треки извлечены точно

Конец отчёта

–– CUETools DB Plugin V2.1.6

[CTDB TOCID: BLEsPz0Hsbkw4GvzLNh8EFbbRno-] found
Submit result: BLEsPz0Hsbkw4GvzLNh8EFbbRno- has been confirmed
Track | CTDB Status
1 | (32/32) Accurately ripped
2 | (32/32) Accurately ripped
3 | (32/32) Accurately ripped
4 | (32/32) Accurately ripped
5 | (32/32) Accurately ripped
6 | (32/32) Accurately ripped
7 | (32/32) Accurately ripped
8 | (32/32) Accurately ripped
9 | (32/32) Accurately ripped
10 | (32/32) Accurately ripped
11 | (32/32) Accurately ripped
12 | (32/32) Accurately ripped
13 | (32/32) Accurately ripped
14 | (32/32) Accurately ripped
15 | (32/32) Accurately ripped
16 | (32/32) Accurately ripped
17 | (31/32) Accurately ripped
18 | (32/32) Accurately ripped
19 | (31/32) Accurately ripped


==== Контрольная сумма отчёта 637C44FC5DAA10733B0B95B100DCF96107AA9228FDBD3F2FCCA48A406390EBA4 ====

[CUETools log; Date: 02.12.2017 11:31:00; Version: 2.1.5]
[CTDB TOCID: BLEsPz0Hsbkw4GvzLNh8EFbbRno-] found.
Track | CTDB Status
1 | (33/33) Accurately ripped
2 | (33/33) Accurately ripped
3 | (33/33) Accurately ripped
4 | (33/33) Accurately ripped
5 | (33/33) Accurately ripped
6 | (33/33) Accurately ripped
7 | (33/33) Accurately ripped
8 | (33/33) Accurately ripped
9 | (33/33) Accurately ripped
10 | (33/33) Accurately ripped
11 | (33/33) Accurately ripped
12 | (33/33) Accurately ripped
13 | (33/33) Accurately ripped
14 | (33/33) Accurately ripped
15 | (33/33) Accurately ripped
16 | (33/33) Accurately ripped
17 | (32/33) Accurately ripped
18 | (33/33) Accurately ripped
19 | (32/33) Accurately ripped
[AccurateRip ID: 0037a58f-02fdbf3e-02121f13] found.
Track [ CRC | V2 ] Status
01 [91093966|3d263dc7] (06+05/13) Accurately ripped
02 [19641315|a684333d] (06+05/13) Accurately ripped
03 [c1989566|cc10411c] (06+04/12) Accurately ripped
04 [56f4a58b|bbb2e9a3] (06+05/13) Accurately ripped
05 [1975b328|7daf8159] (06+05/13) Accurately ripped
06 [5d2acd6b|9187e82d] (06+05/13) Accurately ripped
07 [fd8257af|67ca8b2f] (06+05/13) Accurately ripped
08 [107755c6|d0958250] (06+05/13) Accurately ripped
09 [a8e9d29e|18df8135] (06+05/13) Accurately ripped
10 [502b1163|76d521db] (06+05/13) Accurately ripped
11 [6dda1786|900f3c14] (06+04/12) Accurately ripped
12 [1c78c1d1|e91a76c7] (06+05/13) Accurately ripped
13 [fb405db0|65eb670f] (06+05/13) Accurately ripped
14 [7150ec98|31b367e5] (06+05/13) Accurately ripped
15 [fd2a3940|bc3a73b0] (06+05/13) Accurately ripped
16 [250d57fb|adf89f75] (06+05/13) Accurately ripped
17 [a20a4361|bd8094f0] (06+04/12) Accurately ripped
18 [d3d609d0|256281db] (06+05/13) Accurately ripped
19 [58154c62|53c2f1d0] (05+05/12) Accurately ripped
Offsetted by -664:
01 [96c10bae] (00/13) No match (V2 was not tested)
02 [ca43321d] (00/13) No match (V2 was not tested)
03 [9cfac32e] (00/12) No match (V2 was not tested)
04 [e0e28e43] (00/13) No match (V2 was not tested)
05 [c1b6fbd0] (00/13) No match (V2 was not tested)
06 [23824933] (00/13) No match (V2 was not tested)
07 [224ded9f] (00/13) No match (V2 was not tested)
08 [c775f63e] (00/13) No match (V2 was not tested)
09 [ef1300de] (00/13) No match (V2 was not tested)
10 [3d2425fb] (00/13) No match (V2 was not tested)
11 [c8ffa40e] (00/12) No match (V2 was not tested)
12 [38baf0d9] (00/13) No match (V2 was not tested)
13 [9a480ef0] (00/13) No match (V2 was not tested)
14 [3fe1f298] (00/13) No match (V2 was not tested)
15 [5798af00] (00/13) No match (V2 was not tested)
16 [68943eeb] (00/13) No match (V2 was not tested)
17 [03285aa1] (00/12) No match (V2 was not tested)
18 [07b6aee8] (00/13) No match (V2 was not tested)
19 [4af9f642] (00/12) No match (V2 was not tested)

Track Peak [ CRC32 ] [W/O NULL] [ LOG ]
– 99,8 [59E39AFA] [113EF902] CRC32
01 92,8 [20146425] [9FC389C4]
02 95,1 [F57C7A78] [9AFE7DC9]
03 95,1 [6B981F2D] [5A5A24A8]
04 99,6 [B7262B07] [75BF07B9]
05 95,6 [7F891AB4] [2C003A23]
06 95,1 [91F88F3C] [FDA4D202]
07 90,3 [12F648D7] [A0F03C93]
08 95,1 [CC422998] [4B278ABB]
09 92,8 [06C8BF1E] [D963A5DE]
10 98,6 [AF49B661] [38091023]
11 95,1 [DA8482C8] [895BB2DE]
12 99,5 [B3A289CD] [5B2BEB1B]
13 97,1 [EE2F3D3E] [188EEC4B]
14 99,5 [61F7B0EC] [6E66326F]
15 97,1 [E1126E27] [00F06D97]
16 92,8 [8B91D930] [01172CFA]
17 97,1 [BD05B201] [2D09B97D]
18 95,1 [C97969E2] [4090E4F8]
19 99,8 [27108806] [07409840]

Thanks to the Original ripper (unknown)!

Download: