Subcategories

ABBA - Seven Albums on Blue Polar Discs (1976-1982) {1983-1984, W-Germany 1st press}

Posted By: BlondStyle
ABBA - Seven Albums on Blue Polar Discs (1976-1982) {1983-1984, W-Germany 1st press}

ABBA - Seven Albums on Blue Polar Discs (1976-1982) {1983-1984, W-Germany 1st press}
Pop/Rock, Disco | EAC Rip | FLAC, Img+CUE + LOG + Artwork-600-1200dpi (JPEG) | 05:46:04 h. | 2,51 Gb
Label: Polar Music International AB (West Germany) | Released: 1983-1984
ABBA - Seven Albums on Blue Polar Discs (1976-1982) {1983-1984, W-Germany 1st press}

The initial Polydor Abba CDs released in 1982 were only available in territories where PolyGram had the Abba licence but this was to change in 1983 as Polar entered the CD market. In reality, Polar’s entry into the CD market masked a simple case of outsourcing as PolyGram were simply asked to press up copies of their Abba titles with Polar catalogue numbers and packaging. While PolyGram would continue to supply their local markets with red coated Polydor CDs, Abba’s other European licencees would be sent the ‘Polar’ CDs. The most striking difference between Polydor and Polar CDs were in their physical appearance. Polar discs ended up with one of the more attractive and timeless coatings of the early CD era: an appropriate mix of royal blue on light blue. The 1982 copyright references were also updated to 1983 and more comprehensive credits were added to the discs. In this new relationship, Polar seems to have had as little input on releases as did when the CD version of The Visitors was being produced the previous year. In that case, Polar was presented with the CD version as fait accompli by PolyGram. Coated Polar CDs from this era are much more common than their coated Polydor counterparts and prices tend to start at around €15. 1983 was a generally quiet year for Abba CD releases although PolyGram would compensate for that in 1984.

~ABBA~


ABBA - Seven Albums on Blue Polar Discs (1976-1982) {1983-1984, W-Germany 1st press}


ABBA - Seven Albums on Blue Polar Discs (1976-1982)


ABBA - Seven Albums on Blue Polar Discs (1976-1982) {1983-1984, W-Germany 1st press}

ABBA - Arrival (1976)
Pop/Rock, Dance-Pop, Disco | EAC Rip | FLAC, Img+CUE+LOG+Artwork-600dpi(JPEG) | 33:32 Min | 223,26 Mb
Label: Polar Music International AB (W-Germany) | Released: 1984

Arrival is the fourth studio album by the Swedish pop group ABBA. It was originally released in Sweden on 11 October 1976 by Polar Records. Recording sessions began in August 1975 and continued until September 1976 at Metronome and Glen studios in Stockholm, Sweden. It became ABBA's most successful album to date, producing three of their biggest hits: "Dancing Queen", "Money, Money, Money" and "Knowing Me, Knowing You". Upon its original 1976 release, "Fernando", released as a single earlier the same year, did not appear on Arrival, but it was included on the South African, Australian, and New Zealand versions. Arrival was the best-selling album of 1977 in the United Kingdom and was certified gold by the Recording Industry Association of America.
ABBA - Seven Albums on Blue Polar Discs (1976-1982) {1983-1984, W-Germany 1st press}


Release of the album: 1976, October, 11 [LP Polar, Cat.# POLS 272, Sweden]
Release of this CD: 1984 [CD Polar Music International AB (W-Germany), Cat.# POLCD 272 / UPC: 042282131928]
℗ 1976 & © 1984 Polar Music International AB
CD is manufactured by PolyGram in Hanover, West Germany
Printed and made in West Germany

Tracklist:

01. "When I Kissed the Teacher" (03:03)
(Andersson / Ulvaeus)
02. "Dancing Queen" (03:53)
(Anderson / Andersson / Ulvaeus)
03. "My Love, My Life" (03:53)
(Anderson / Andersson / Ulvaeus)
04. "Dum Dum Diddle" (02:55)
(Andersson / Ulvaeus)
05. "Knowing Me, Knowing You" (04:03)
(Anderson / Andersson / Ulvaeus)
06. "Money, Money, Money" (03:07)
(Andersson / Ulvaeus)
07. "That's Me" (03:18)
(Anderson / Andersson / Ulvaeus)
08. "Why Did It Have To Be Me?" (03:23)
(Andersson / Ulvaeus)
09. "Tiger" (02:56)
(Andersson / Ulvaeus)
10. "Arrival" (03:02)
(Andersson / Ulvaeus)

Exact Audio Copy V1.0 beta 3 from 29. August 2011

Отчёт EAC об извлечении, выполненном 27. апреля 2014, 15:58

Abba / Arrival

Дисковод: Optiarc DVD RW AD-7561A Adapter: 0 ID: 0

Режим чтения : Достоверность
Использование точного потока : Да
Отключение кэша аудио : Да
Использование указателей C2 : Нет

Коррекция смещения при чтении : 6
Способность читать области Lead-in и Lead-out : Нет
Заполнение пропущенных сэмплов тишиной : Да
Удаление блоков с тишиной в начале и конце : Нет
При вычислениях CRC использовались нулевые сэмплы : Да
Интерфейс : Установленный внешний ASPI-интерфейс

Выходной формат : Пользовательский кодировщик
Выбранный битрейт : 128 kBit/s
Качество : Высокий
Добавление ID3-тега : Нет
Утилита сжатия : C:\Program Files\Exact Audio Copy\FLAC\FLAC.EXE
Дополнительные параметры : -6 -V -T "ARTIST=%artist%" -T "TITLE=%title%" -T "ALBUM=%albumtitle%" -T "DATE=%year%" -T "TRACKNUMBER=%tracknr%" -T "GENRE=%genre%" -T "COMMENT=%comment%" -T "BAND=%albuminterpret%" -T "ALBUMARTIST=%albuminterpret%" -T "COMPOSER=%composer%" %haslyrics%–tag-from-file=LYRICS="%lyricsfile%"%haslyrics% -T "DISCNUMBER=%cdnumber%" -T "TOTALDISCS=%totalcds%" -T "TOTALTRACKS=%numtracks%" %hascover%–picture="%coverfile%"%hascover% %source% -o %dest%


TOC извлечённого CD

Трек | Старт | Длительность | Начальный сектор | Конечный сектор
––––––––––––––––––––––––––––––––––-
1 | 0:00.32 | 3:03.03 | 32 | 13759
2 | 3:03.35 | 3:52.72 | 13760 | 31231
3 | 6:56.32 | 3:53.33 | 31232 | 48739
4 | 10:49.65 | 2:54.65 | 48740 | 61854
5 | 13:44.55 | 4:02.47 | 61855 | 80051
6 | 17:47.27 | 3:07.00 | 80052 | 94076
7 | 20:54.27 | 3:17.43 | 94077 | 108894
8 | 24:11.70 | 3:22.67 | 108895 | 124111
9 | 27:34.62 | 2:56.18 | 124112 | 137329
10 | 30:31.05 | 3:01.47 | 137330 | 150951


Характеристики диапазона извлечения и сообщения об ошибках

Выбранный диапазон

Имя файла C:\Users\SERGEY\Music\ABBA\Arrival\Abba - Arrival.wav

Пиковый уровень 92.3 %
Скорость извлечения 3.8 X
Качество диапазона 100.0 %
CRC теста 99CAB47F
CRC копии 99CAB47F
Копирование… OK

Ошибок не произошло


AccurateRip: сводка

Трек 1 : извлечено точно (доверие 10) [442F30C5] (AR v2)
Трек 2 : извлечено точно (доверие 10) [5F4D2249] (AR v2)
Трек 3 : извлечено точно (доверие 10) [191CAB04] (AR v2)
Трек 4 : извлечено точно (доверие 10) [8348676C] (AR v2)
Трек 5 : извлечено точно (доверие 10) [D9C73AE5] (AR v2)
Трек 6 : извлечено точно (доверие 10) [6FEDAAA1] (AR v2)
Трек 7 : извлечено точно (доверие 10) [71A89782] (AR v2)
Трек 8 : извлечено точно (доверие 10) [A934382C] (AR v2)
Трек 9 : извлечено точно (доверие 10) [C3C48550] (AR v2)
Трек 10 : извлечено точно (доверие 10) [5124F7A2] (AR v2)

Все треки извлечены точно

Конец отчёта

–– CUETools DB Plugin V2.1.3

[CTDB TOCID: 8mzyZf0w9TQ3uGWs0hnbBwtBhCc-] found, Submit result: discs with pregaps not supported in this protocol version
[b8916586] (27/27) Differs in 0 samples @
You can use CUETools to repair this rip.

foobar2000 1.3.9 / Dynamic Range Meter 1.1.1
log date: 2016-03-13 14:22:46

––––––––––––––––––––––––––––––––––––––––
Analyzed: Abba / Arrival
––––––––––––––––––––––––––––––––––––––––

DR Peak RMS Duration Track
––––––––––––––––––––––––––––––––––––––––
DR13 -4.39 dB -19.10 dB 3:03 01-When I Kissed the Teacher
DR12 -3.39 dB -18.02 dB 3:53 02-Dancing Queen
DR10 -5.98 dB -19.35 dB 3:53 03-My Love, My Life
DR14 -2.34 dB -18.68 dB 2:55 04-Dum Dum Diddle
DR13 -2.50 dB -17.64 dB 4:03 05-Knowing Me, Knowing You
DR13 -0.69 dB -18.40 dB 3:07 06-Money, Money, Money
DR14 -1.15 dB -18.10 dB 3:18 07-That's Me
DR12 -2.83 dB -17.76 dB 3:23 08-Why Did It Have to Be Me
DR13 -3.04 dB -17.47 dB 2:56 09-Tiger
DR9 -5.21 dB -18.05 dB 3:02 10-Arrival
––––––––––––––––––––––––––––––––––––––––

Number of tracks: 10
Official DR value: DR12

Samplerate: 44100 Hz
Channels: 2
Bits per sample: 16
Bitrate: 831 kbps
Codec: FLAC
================================================================================


=============================


ABBA - Seven Albums on Blue Polar Discs (1976-1982) {1983-1984, W-Germany 1st press}

ABBA - The Album (1977)
Pop/Rock, Pop, Disco | EAC Rip | FLAC, Img+CUE+LOG+Artwork-600-1200dpi(JPEG)| 40:13 Min | 273,88 Mb
Label: Polar Music International AB (W-Germany) | Released: 1984

ABBA: The Album is the fifth studio album by the Swedish pop group ABBA. It was released in Scandinavia on 12 December 1977 through Polar Music, but due to the massive pre-orders the UK pressing plants were not able to press sufficient copies before Christmas 1977 and so it was not released in the UK until January 1978. The album was released in conjunction with ABBA: The Movie, with several of the songs featured in the film. The album contained two UK number-one singles, "Take a Chance on Me" and "The Name of the Game", as well as European hits "Eagle" and "Thank You for the Music".
ABBA - Seven Albums on Blue Polar Discs (1976-1982) {1983-1984, W-Germany 1st press}


Release of the album: 1977, December, 12 [LP Polar, Cat.# POLS 282, Sweden]
Release of this CD: 1984 [CD Polar Music International AB (W-Germany), Cat.# POLCD 282 / UPC: 042282121721]
℗ 1977 & © 1984 Polar Music International AB
CD is manufactured by PolyGram in Hanover, West Germany
Printed and made in West Germany

Tracklist:

01. "Eagle" (05:48)
(Andersson / Ulvaeus)
02. "Take A Chance On Me" (04:05)
(Andersson / Ulvaeus)
03. "One Man, One Woman" (04:33)
(Andersson / Ulvaeus)
04. "The Name Of The Game" (04:52)
(Anderson / Andersson / Ulvaeus)
05. "Move On" (04:43)
(Anderson / Andersson / Ulvaeus)
06. "Hole In Your Soul" (03:46)
(Andersson / Ulvaeus)
07. "The Girl With The Golden Hair" (3 Scenes From A Mini-Musical):
A. "Thank You For The Music" (03:50)
(Andersson / Ulvaeus)
B. "I Wonder (Departure)" (04:33)
(Anderson / Andersson / Ulvaeus)
C. "I'm A Marionette" (04:03)
(Andersson / Ulvaeus)

Exact Audio Copy V1.0 beta 3 from 29. August 2011

Отчёт EAC об извлечении, выполненном 25. апреля 2014, 22:13

ABBA / The Album

Дисковод: Optiarc DVD RW AD-7561A Adapter: 0 ID: 0

Режим чтения : Достоверность
Использование точного потока : Да
Отключение кэша аудио : Да
Использование указателей C2 : Нет

Коррекция смещения при чтении : 6
Способность читать области Lead-in и Lead-out : Нет
Заполнение пропущенных сэмплов тишиной : Да
Удаление блоков с тишиной в начале и конце : Нет
При вычислениях CRC использовались нулевые сэмплы : Да
Интерфейс : Установленный внешний ASPI-интерфейс

Выходной формат : Пользовательский кодировщик
Выбранный битрейт : 128 kBit/s
Качество : Высокий
Добавление ID3-тега : Нет
Утилита сжатия : C:\Program Files\Exact Audio Copy\FLAC\FLAC.EXE
Дополнительные параметры : -6 -V -T "ARTIST=%artist%" -T "TITLE=%title%" -T "ALBUM=%albumtitle%" -T "DATE=%year%" -T "TRACKNUMBER=%tracknr%" -T "GENRE=%genre%" -T "COMMENT=%comment%" -T "BAND=%albuminterpret%" -T "ALBUMARTIST=%albuminterpret%" -T "COMPOSER=%composer%" %haslyrics%–tag-from-file=LYRICS="%lyricsfile%"%haslyrics% -T "DISCNUMBER=%cdnumber%" -T "TOTALDISCS=%totalcds%" -T "TOTALTRACKS=%numtracks%" %hascover%–picture="%coverfile%"%hascover% %source% -o %dest%


TOC извлечённого CD

Трек | Старт | Длительность | Начальный сектор | Конечный сектор
––––––––––––––––––––––––––––––––––-
1 | 0:00.32 | 5:47.63 | 32 | 26119
2 | 5:48.20 | 4:04.52 | 26120 | 44471
3 | 9:52.72 | 4:32.73 | 44472 | 64944
4 | 14:25.70 | 4:52.25 | 64945 | 86869
5 | 19:18.20 | 4:43.27 | 86870 | 108121
6 | 24:01.47 | 3:45.48 | 108122 | 125044
7 | 27:47.20 | 3:50.05 | 125045 | 142299
8 | 31:37.25 | 4:32.60 | 142300 | 162759
9 | 36:10.10 | 4:03.27 | 162760 | 181011


Характеристики диапазона извлечения и сообщения об ошибках

Выбранный диапазон

Имя файла C:\Users\SERGEY\Music\ABBA\The Album\ABBA - The Album.wav

Пиковый уровень 91.3 %
Скорость извлечения 4.4 X
Качество диапазона 100.0 %
CRC теста 307BED5A
CRC копии 307BED5A
Копирование… OK

Ошибок не произошло


AccurateRip: сводка

Трек 1 : извлечено точно (доверие 13) [18774272] (AR v2)
Трек 2 : извлечено точно (доверие 13) [F4E6C669] (AR v2)
Трек 3 : извлечено точно (доверие 13) [FDB67528] (AR v2)
Трек 4 : извлечено точно (доверие 13) [62F5A643] (AR v2)
Трек 5 : извлечено точно (доверие 13) [CB682829] (AR v2)
Трек 6 : извлечено точно (доверие 13) [65714F87] (AR v2)
Трек 7 : извлечено точно (доверие 12) [6556014C] (AR v2)
Трек 8 : извлечено точно (доверие 13) [A2FBDA32] (AR v2)
Трек 9 : извлечено точно (доверие 13) [4E501D58] (AR v2)

Все треки извлечены точно

Конец отчёта

–– CUETools DB Plugin V2.1.3

[CTDB TOCID: Yi2xBWZnFiJFhSzsNl.BB2qmSH0-] found, Submit result: discs with pregaps not supported in this protocol version
[78e718fa] (1/1) Differs in 0 samples @
You can use CUETools to repair this rip.

foobar2000 1.3.9 / Dynamic Range Meter 1.1.1
log date: 2016-03-13 14:24:19

––––––––––––––––––––––––––––––––––––––––
Analyzed: ABBA / The Album
––––––––––––––––––––––––––––––––––––––––

DR Peak RMS Duration Track
––––––––––––––––––––––––––––––––––––––––
DR13 -1.18 dB -15.27 dB 5:48 01-Eagle
DR14 -1.48 dB -16.57 dB 4:05 02-Take A Chance On Me
DR13 -1.65 dB -17.27 dB 4:33 03-One Man, One Woman
DR14 -1.21 dB -17.59 dB 4:52 04-The Name Of The Game
DR11 -1.35 dB -15.49 dB 4:43 05-Move On
DR12 -0.83 dB -14.96 dB 3:46 06-Hole In Your Soul
DR12 -1.27 dB -17.53 dB 3:50 07-Thank You For The Music
DR12 -1.56 dB -17.50 dB 4:33 08-I Wonder (Departure)
DR12 -0.78 dB -15.06 dB 4:03 09-I'm A Marionette
––––––––––––––––––––––––––––––––––––––––

Number of tracks: 9
Official DR value: DR12

Samplerate: 44100 Hz
Channels: 2
Bits per sample: 16
Bitrate: 866 kbps
Codec: FLAC
================================================================================


=============================


ABBA - Seven Albums on Blue Polar Discs (1976-1982) {1983-1984, W-Germany 1st press}

ABBA - Voulez-Vous (1979)
Pop/Rock, Dance-Pop, Disco | EAC Rip | FLAC, Img+CUE+LOG+Artwork-600dpi (JPEG) | 41:55 Min | 328,82 Mb
Label: Polar Music International AB (W-Germany) | Released: 1984

Voulez-Vous is the sixth studio album by Swedish group ABBA, released in 1979. It was the first ABBA album to be recorded at Polar Studios in Stockholm, and the only ABBA album to include a studio recording made outside Sweden. Some of the songs were secretly written and demoed at Compass Point Studios in Nassau, Bahamas, and the title track was recorded at Criteria Studios in Miami. Voulez-Vous was first released on CD in 1984. The album has been digitally remastered and reissued four times; first in 1997, then in 2001 and in 2005 as part of the The Complete Studio Recordings box set, and yet again in 2010 for the Voulez-Vous Deluxe Edition.
ABBA - Seven Albums on Blue Polar Discs (1976-1982) {1983-1984, W-Germany 1st press}


Release of the album: 1979, April, 23 [LP Polar, Cat.# POLS 292, Sweden]
Release of this CD: 1984 [CD Polar Music International AB (W-Germany), Cat.# POLCD 292 / No Barcode]
℗ 1979 & © 1984 Polar Music International AB
CD is manufactured by PolyGram in Hanover, West Germany
Printed and made in West Germany

Tracklist:

01. "As Good As New" (03:26)
(Andersson / Ulvaeus)
02. "Voulez-Vous" (05:08)
(Andersson / Ulvaeus)
03. "I Have A Dream" (04:44)
(Andersson / Ulvaeus)
04. "Angeleyes" (04:22)
(Andersson / Ulvaeus)
05. "The King Has Lost His Crown" (03:34)
(Andersson / Ulvaeus)
06. "Does Your Mother Know" (03:16)
(Andersson / Ulvaeus)
07. "If It Wasn't For The Nights" (05:11)
(Andersson / Ulvaeus)
08. "Chiquitita" (05:26)
(Andersson / Ulvaeus)
09. "Lovers (Live A Little Longer)" (03:31)
(Andersson / Ulvaeus)
10. "Kisses Of Fire" (03:17)
(Andersson / Ulvaeus)

Exact Audio Copy V1.0 beta 3 from 29. August 2011

Отчёт EAC об извлечении, выполненном 19. июля 2015, 10:20

Abba / Voulez-Vous

Дисковод: Optiarc DVD RW AD-7561A Adapter: 0 ID: 0

Режим чтения : Достоверность
Использование точного потока : Да
Отключение кэша аудио : Да
Использование указателей C2 : Нет

Коррекция смещения при чтении : 6
Способность читать области Lead-in и Lead-out : Нет
Заполнение пропущенных сэмплов тишиной : Да
Удаление блоков с тишиной в начале и конце : Нет
При вычислениях CRC использовались нулевые сэмплы : Да
Интерфейс : Установленный внешний ASPI-интерфейс

Выходной формат : Пользовательский кодировщик
Выбранный битрейт : 1024 kBit/s
Качество : Высокий
Добавление ID3-тега : Нет
Утилита сжатия : C:\Program Files\Exact Audio Copy\FLAC\FLAC.EXE
Дополнительные параметры : -6 -V -T "ARTIST=%artist%" -T "TITLE=%title%" -T "ALBUM=%albumtitle%" -T "DATE=%year%" -T "TRACKNUMBER=%tracknr%" -T "GENRE=%genre%" -T "COMMENT=%comment%" -T "BAND=%albuminterpret%" -T "ALBUMARTIST=%albuminterpret%" -T "COMPOSER=%composer%" %haslyrics%–tag-from-file=LYRICS="%lyricsfile%"%haslyrics% -T "DISCNUMBER=%cdnumber%" -T "TOTALDISCS=%totalcds%" -T "TOTALTRACKS=%numtracks%" %hascover%–picture="%coverfile%"%hascover% %source% -o %dest%


TOC извлечённого CD

Трек | Старт | Длительность | Начальный сектор | Конечный сектор
––––––––––––––––––––––––––––––––––-
1 | 0:00.32 | 3:25.63 | 32 | 15469
2 | 3:26.20 | 5:08.35 | 15470 | 38604
3 | 8:34.55 | 4:43.72 | 38605 | 59901
4 | 13:18.52 | 4:22.03 | 59902 | 79554
5 | 17:40.55 | 3:34.20 | 79555 | 95624
6 | 21:15.00 | 3:15.60 | 95625 | 110309
7 | 24:30.60 | 5:11.05 | 110310 | 133639
8 | 29:41.65 | 5:26.20 | 133640 | 158109
9 | 35:08.10 | 3:30.52 | 158110 | 173911
10 | 38:38.62 | 3:17.03 | 173912 | 188689


Характеристики диапазона извлечения и сообщения об ошибках

Выбранный диапазон

Имя файла C:\Users\SERGEY\Music\ABBA\ABBA- 1st Red Polydor, Blue Polar, Discomate, Atlantic press\Voulez-Vous\Voulez-Vous - Blie Polar POLCD 292\Abba - Voulez-Vous.wav

Пиковый уровень 84.3 %
Скорость извлечения 3.4 X
Качество диапазона 100.0 %
CRC теста 2AD41790
CRC копии 2AD41790
Копирование… OK

Ошибок не произошло


AccurateRip: сводка

Трек 1 : извлечено точно (доверие 4) [A9451E03] (AR v2)
Трек 2 : извлечено точно (доверие 3) [3D1BC30B] (AR v2)
Трек 3 : извлечено точно (доверие 4) [D0AF67D4] (AR v2)
Трек 4 : извлечено точно (доверие 4) [F3452D80] (AR v2)
Трек 5 : извлечено точно (доверие 4) [07263CDE] (AR v2)
Трек 6 : извлечено точно (доверие 4) [2FADA1B9] (AR v2)
Трек 7 : извлечено точно (доверие 4) [21003529] (AR v2)
Трек 8 : извлечено точно (доверие 3) [C5837EFE] (AR v2)
Трек 9 : извлечено точно (доверие 4) [23DAE0E0] (AR v2)
Трек 10 : извлечено точно (доверие 4) [80018A80] (AR v2)

Все треки извлечены точно

Конец отчёта

–– CUETools DB Plugin V2.1.3

[CTDB TOCID: lFsRH9HUTt2LdYGb9Y0v.Sevhsc-] found, Submit result: discs with pregaps not supported in this protocol version
[2c672139] (4/4) Differs in 0 samples @
You can use CUETools to repair this rip.

foobar2000 1.3.9 / Dynamic Range Meter 1.1.1
log date: 2016-03-13 14:26:07

––––––––––––––––––––––––––––––––––––––––
Analyzed: Abba / Voulez-Vous
––––––––––––––––––––––––––––––––––––––––

DR Peak RMS Duration Track
––––––––––––––––––––––––––––––––––––––––
DR13 -1.48 dB -17.39 dB 3:26 01-As Good As New
DR13 -1.80 dB -16.98 dB 5:08 02-Voulez-Vous
DR13 -5.71 dB -22.23 dB 4:44 03-I Have a Dream
DR13 -1.89 dB -17.09 dB 4:22 04-Angel Eyes
DR13 -3.15 dB -18.86 dB 3:34 05-The King Has Lost His Crown
DR13 -2.02 dB -16.89 dB 3:16 06-Does Your Mother Know
DR13 -2.44 dB -17.26 dB 5:11 07-If It Wasn't For the Nights
DR13 -1.83 dB -18.72 dB 5:26 08-Chiquitita
DR14 -2.08 dB -18.00 dB 3:31 09-Lovers (Live a Little Longer)
DR13 -2.19 dB -18.95 dB 3:17 10-Kisses Of Fire
––––––––––––––––––––––––––––––––––––––––

Number of tracks: 10
Official DR value: DR13

Samplerate: 44100 Hz
Channels: 2
Bits per sample: 16
Bitrate: 882 kbps
Codec: FLAC
================================================================================


=============================


ABBA - Seven Albums on Blue Polar Discs (1976-1982) {1983-1984, W-Germany 1st press}

ABBA - Greatest Hits Vol. 2 (1979)
Pop/Rock, Dance-Pop, Disco | EAC Rip | FLAC, Img+CUE+LOG+Artwork-1200dpi(JPEG) | 58:23 Min | 438,98 Mb
Label: Polar Music International AB (W-Germany) | Released: 1983

Greatest Hits Vol. 2 is a compilation album by Swedish pop group ABBA, released in October 1979 to coincide with their tour of North America and Europe (taking place between September and November 1979). It was ABBA's second chart-topping album of the year, the first being Voulez-Vous, and contained the brand new single "Gimme! Gimme! Gimme! (A Man After Midnight)", recorded in August 1979. A round-up of ABBA’s hits since their first compilation album (released in 1975), the album exclusively included material recorded between the years 1976 and 1979 (albums Arrival, The Album and Voulez-Vous plus non-album single "Summer Night City") - with one exception, "Rock Me" from 1975 album ABBA, issued as a single and became a top 5 hit in Australia and New Zealand after the release of the band's first hits package Greatest Hits and also part of the setlist on the 1979 world tour. "Angeleyes" was included primarily due to its success as a single in the UK, where it was the lead track of a double A-side with "Voulez-Vous". Elsewhere, "Voulez-Vous" had been the A-side in its own right but it was not included on the album. However, the track "I Wonder (Departure)" was not believed to have been released as a single anywhere, but was featured. Greatest Hits Vol. 2 received massive commercial success in Japan, selling in excess of 920,000 units on the chart (it was the best-selling album by non-domestic artists at the time, until Michael Jackson's Thriller and the soundtrack of the motion picture Flashdance each sold over 1 million copies in the 1980s). It is certified Gold in the U.S. Greatest Hits Vol. 2 was released on CD in 1982 By Polydor but was deleted from their ABBA CD range in 1992 when it was replaced with ABBA Gold. It was also released in the US by Atlantic Records in 1983 with the same mastering as the Polydor CD but was discontinued there in the late 1980s as well.
ABBA - Seven Albums on Blue Polar Discs (1976-1982) {1983-1984, W-Germany 1st press}


Release of the album: 1979, October, 29 [LP Polar, Cat.# POLS 312, Sweden]
Release of this CD: 1984 [CD Polar Music International AB (W-Germany), Cat.# POLCD 312 / No Barcode]
℗ & © 1975, 1976, 1977, 1978 & 1979 Polar Music International AB
© 1983 Polar Music International AB, Stockholm
CD is manufactured by PolyGram in Hanover, West Germany
Printed and made in West Germany

Tracklist:

01. "Gimme! Gimme! Gimme! (A Man After Midnight)" (04:50)
(Andersson / Ulvaeus)
02. "Knowing Me, Knowing You" (04:02)
(Anderson / Andersson / Ulvaeus)
03. "Take a Chance on Me" (03:59)
(Andersson / Ulvaeus)
04. "Money, Money, Money" (03:07)
(Andersson / Ulvaeus)
05. "Rock Me" (03:03)
(Andersson / Ulvaeus)
06. "Eagle" (05:50)
(Andersson / Ulvaeus)
07. "Angeleyes" (04:19)
(Andersson / Ulvaeus)
08. "Dancing Queen" (03:50)
(Anderson / Andersson / Ulvaeus)
09. "Does Your Mother Know" (03:13)
(Andersson / Ulvaeus)
10. "Chiquitita" (05:23)
(Andersson / Ulvaeus)
11. "Summer Night City" (03:32)
(Andersson / Ulvaeus)
12. "I Wonder (Departure)" (04:33)
(Anderson / Andersson / Ulvaeus)
13. "The Name Of The Game" (04:52)
(Anderson / Andersson / Ulvaeus)
14. "Thank You For The Music" (03:48)
(Andersson / Ulvaeus)

Exact Audio Copy V1.0 beta 3 from 29. August 2011

Отчёт EAC об извлечении, выполненном 4. сентября 2014, 8:14

Abba / Greatest Hits Vol. 2

Дисковод: Optiarc DVD RW AD-7561A Adapter: 0 ID: 0

Режим чтения : Достоверность
Использование точного потока : Да
Отключение кэша аудио : Да
Использование указателей C2 : Нет

Коррекция смещения при чтении : 6
Способность читать области Lead-in и Lead-out : Нет
Заполнение пропущенных сэмплов тишиной : Да
Удаление блоков с тишиной в начале и конце : Нет
При вычислениях CRC использовались нулевые сэмплы : Да
Интерфейс : Установленный внешний ASPI-интерфейс

Выходной формат : Пользовательский кодировщик
Выбранный битрейт : 1024 kBit/s
Качество : Высокий
Добавление ID3-тега : Нет
Утилита сжатия : C:\Program Files\Exact Audio Copy\FLAC\FLAC.EXE
Дополнительные параметры : -6 -V -T "ARTIST=%artist%" -T "TITLE=%title%" -T "ALBUM=%albumtitle%" -T "DATE=%year%" -T "TRACKNUMBER=%tracknr%" -T "GENRE=%genre%" -T "COMMENT=%comment%" -T "BAND=%albuminterpret%" -T "ALBUMARTIST=%albuminterpret%" -T "COMPOSER=%composer%" %haslyrics%–tag-from-file=LYRICS="%lyricsfile%"%haslyrics% -T "DISCNUMBER=%cdnumber%" -T "TOTALDISCS=%totalcds%" -T "TOTALTRACKS=%numtracks%" %hascover%–picture="%coverfile%"%hascover% %source% -o %dest%


TOC извлечённого CD

Трек | Старт | Длительность | Начальный сектор | Конечный сектор
––––––––––––––––––––––––––––––––––-
1 | 0:00.32 | 4:49.45 | 32 | 21751
2 | 4:50.02 | 4:01.60 | 21752 | 39886
3 | 8:51.62 | 3:59.35 | 39887 | 57846
4 | 12:51.22 | 3:07.20 | 57847 | 71891
5 | 15:58.42 | 3:03.45 | 71892 | 85661
6 | 19:02.12 | 5:49.65 | 85662 | 111901
7 | 24:52.02 | 4:19.15 | 111902 | 131341
8 | 29:11.17 | 3:50.35 | 131342 | 148626
9 | 33:01.52 | 3:13.23 | 148627 | 163124
10 | 36:15.00 | 5:23.25 | 163125 | 187374
11 | 41:38.25 | 3:32.15 | 187375 | 203289
12 | 45:10.40 | 4:33.35 | 203290 | 223799
13 | 49:44.00 | 4:51.70 | 223800 | 245694
14 | 54:35.70 | 3:47.42 | 245695 | 262761


Характеристики диапазона извлечения и сообщения об ошибках

Выбранный диапазон

Имя файла C:\Users\SERGEY\Music\ABBA\Greatest Hits Vol. 2 - Blue Polar POLCD 312\Abba - Greatest Hits Vol. 2.wav

Пиковый уровень 98.6 %
Скорость извлечения 4.1 X
Качество диапазона 99.9 %
CRC теста 08A147A2
CRC копии 08A147A2
Копирование… OK

Ошибок не произошло


AccurateRip: сводка

Трек 1 : извлечено точно (доверие 26) [02B9318F] (AR v2)
Трек 2 : извлечено точно (доверие 26) [EB58D179] (AR v2)
Трек 3 : извлечено точно (доверие 26) [7DFDE155] (AR v2)
Трек 4 : извлечено точно (доверие 25) [46ECD25C] (AR v2)
Трек 5 : извлечено точно (доверие 26) [97105BB0] (AR v2)
Трек 6 : извлечено точно (доверие 26) [42284A5D] (AR v2)
Трек 7 : извлечено точно (доверие 26) [91971826] (AR v2)
Трек 8 : извлечено точно (доверие 26) [64EE5120] (AR v2)
Трек 9 : извлечено точно (доверие 26) [D6E0E24D] (AR v2)
Трек 10 : извлечено точно (доверие 25) [4AF3BBA5] (AR v2)
Трек 11 : извлечено точно (доверие 25) [C68E2022] (AR v2)
Трек 12 : извлечено точно (доверие 26) [715F9963] (AR v2)
Трек 13 : извлечено точно (доверие 25) [CCA3D01F] (AR v2)
Трек 14 : извлечено точно (доверие 24) [4E938DB5] (AR v2)

Все треки извлечены точно

Конец отчёта

–– CUETools DB Plugin V2.1.3

[CTDB TOCID: FponJaRtc1gI4.QR7ZxnxGoyTIY-] found, Submit result: discs with pregaps not supported in this protocol version
[4ede017e] (35/35) Differs in 34922 samples @00:00:12-00:00:41
You can use CUETools to repair this rip.

foobar2000 1.3.9 / Dynamic Range Meter 1.1.1
log date: 2016-03-13 14:23:29

––––––––––––––––––––––––––––––––––––––––
Analyzed: Abba / Greatest Hits Vol. 2
––––––––––––––––––––––––––––––––––––––––

DR Peak RMS Duration Track
––––––––––––––––––––––––––––––––––––––––
DR14 -1.67 dB -17.57 dB 4:50 01-Gimme Gimme Gimme (A Man After Midnight)
DR13 -0.80 dB -16.85 dB 4:02 02-Knowing Me Knowing You
DR14 -1.27 dB -17.34 dB 3:59 03-Take A Chance On Me
DR14 -0.12 dB -18.79 dB 3:07 04-Money Money Money
DR13 -1.52 dB -17.03 dB 3:04 05-Rock Me
DR13 -1.36 dB -15.95 dB 5:50 06-Eagle
DR13 -1.01 dB -16.08 dB 4:19 07-Angeleyes
DR12 -2.19 dB -16.51 dB 3:50 08-Dancing Queen
DR13 -1.09 dB -16.28 dB 3:13 09-Does Your Mother Know
DR13 -2.02 dB -18.66 dB 5:23 10-Chiquitita
DR13 -1.51 dB -16.52 dB 3:32 11-Summer Night City
DR12 -2.35 dB -19.75 dB 4:33 12-I Wonder (Departure)
DR14 -1.01 dB -18.49 dB 4:52 13-The Name Of The Game
DR13 -2.91 dB -19.32 dB 3:48 14-Thank You For The Music
––––––––––––––––––––––––––––––––––––––––

Number of tracks: 14
Official DR value: DR13

Samplerate: 44100 Hz
Channels: 2
Bits per sample: 16
Bitrate: 888 kbps
Codec: FLAC
================================================================================


=============================


ABBA - Seven Albums on Blue Polar Discs (1976-1982) {1983-1984, W-Germany 1st press}

ABBA - Super Trouper (1980)
Pop/Rock, Dance-Pop, Disco | EAC Rip | FLAC, Img+CUE+LOG+Artwork-1200dpi(JPEG) | 42:05 Min | 350,71 Mb
Label: Polar Music International AB (W-Germany) | Released: 1983

Super Trouper is the seventh studio album by Swedish pop group ABBA, first released in 1980. It features the #1 singles "The Winner Takes It All" and "Super Trouper". The album became the biggest-selling of 1980 in the UK.
ABBA - Seven Albums on Blue Polar Discs (1976-1982) {1983-1984, W-Germany 1st press}


Release of the album: 1980, November, 3 [LP Polar, Cat.# POLS 322, Sweden]
Release of this CD: 1983 [CD Polar Music International AB (W-Germany), Cat.# POLCD 322 / No Barcode]
℗ & © 1980 Polar Music International AB, Stockholm
© 1983 Polar Music International AB
CD is manufactured by PolyGram in Hanover, West Germany
Printed and made in West Germany

Tracklist:

01. "Super Trouper" (04:12)
(Andersson / Ulvaeus)
02. "The Winner Takes It All" (04:55)
(Andersson / Ulvaeus)
03. "On And On And On" (03:41)
(Andersson / Ulvaeus)
04. "Andante, Andante" (04:40)
(Andersson / Ulvaeus)
05. "Me And I" (04:55)
(Andersson / Ulvaeus)
06. "Happy New Year" (04:23)
(Andersson / Ulvaeus)
07. "Our Last Summer" (04:20)
(Andersson / Ulvaeus)
08. "The Piper" (03:27)
(Andersson / Ulvaeus)
09. "Lay All Your Love On Me" (04:35)
(Andersson / Ulvaeus)
10. "The Way Old Friends Do (Live)" (02:58)
(Andersson / Ulvaeus)

Exact Audio Copy V1.0 beta 3 from 29. August 2011

Отчёт EAC об извлечении, выполненном 4. сентября 2014, 7:39

ABBA / Super Trouper

Дисковод: Optiarc DVD RW AD-7561A Adapter: 0 ID: 0

Режим чтения : Достоверность
Использование точного потока : Да
Отключение кэша аудио : Да
Использование указателей C2 : Нет

Коррекция смещения при чтении : 6
Способность читать области Lead-in и Lead-out : Нет
Заполнение пропущенных сэмплов тишиной : Да
Удаление блоков с тишиной в начале и конце : Нет
При вычислениях CRC использовались нулевые сэмплы : Да
Интерфейс : Установленный внешний ASPI-интерфейс

Выходной формат : Пользовательский кодировщик
Выбранный битрейт : 1024 kBit/s
Качество : Высокий
Добавление ID3-тега : Нет
Утилита сжатия : C:\Program Files\Exact Audio Copy\FLAC\FLAC.EXE
Дополнительные параметры : -6 -V -T "ARTIST=%artist%" -T "TITLE=%title%" -T "ALBUM=%albumtitle%" -T "DATE=%year%" -T "TRACKNUMBER=%tracknr%" -T "GENRE=%genre%" -T "COMMENT=%comment%" -T "BAND=%albuminterpret%" -T "ALBUMARTIST=%albuminterpret%" -T "COMPOSER=%composer%" %haslyrics%–tag-from-file=LYRICS="%lyricsfile%"%haslyrics% -T "DISCNUMBER=%cdnumber%" -T "TOTALDISCS=%totalcds%" -T "TOTALTRACKS=%numtracks%" %hascover%–picture="%coverfile%"%hascover% %source% -o %dest%


TOC извлечённого CD

Трек | Старт | Длительность | Начальный сектор | Конечный сектор
––––––––––––––––––––––––––––––––––-
1 | 0:00.32 | 4:11.68 | 32 | 18924
2 | 4:12.25 | 4:55.20 | 18925 | 41069
3 | 9:07.45 | 3:40.47 | 41070 | 57616
4 | 12:48.17 | 4:39.43 | 57617 | 78584
5 | 17:27.60 | 4:55.02 | 78585 | 100711
6 | 22:22.62 | 4:23.25 | 100712 | 120461
7 | 26:46.12 | 4:19.48 | 120462 | 139934
8 | 31:05.60 | 3:26.45 | 139935 | 155429
9 | 34:32.30 | 4:35.27 | 155430 | 176081
10 | 39:07.57 | 2:57.65 | 176082 | 189421


Характеристики диапазона извлечения и сообщения об ошибках

Выбранный диапазон

Имя файла C:\Users\SERGEY\Music\ABBA\Super Trooper - Blue Polar POLCD 322\ABBA - Super Trouper.wav

Пиковый уровень 98.8 %
Скорость извлечения 4.1 X
Качество диапазона 99.9 %
CRC теста CDACA4BC
CRC копии CDACA4BC
Копирование… OK

Ошибок не произошло


AccurateRip: сводка

Трек 1 : извлечено точно (доверие 4) [345DEA83] (AR v2)
Трек 2 : извлечено точно (доверие 4) [5E0C8639] (AR v2)
Трек 3 : извлечено точно (доверие 5) [F5AA4255] (AR v2)
Трек 4 : извлечено точно (доверие 5) [DB133EE7] (AR v2)
Трек 5 : извлечено точно (доверие 5) [667F4F60] (AR v2)
Трек 6 : извлечено точно (доверие 5) [2E62147A] (AR v2)
Трек 7 : извлечено точно (доверие 5) [EE1586E4] (AR v2)
Трек 8 : извлечено точно (доверие 5) [C30D7DAC] (AR v2)
Трек 9 : извлечено точно (доверие 4) [9D169A50] (AR v2)
Трек 10 : извлечено точно (доверие 5) [02721972] (AR v2)

Все треки извлечены точно

Конец отчёта

–– CUETools DB Plugin V2.1.3

[CTDB TOCID: YMLmN3E_1Vu34jXK8b9rcfThqUA-] found, Submit result: discs with pregaps not supported in this protocol version
[287f659c] (100/117) Differs in 15247 samples @00:00:09-00:00:39
[33631ba3] (017/117) Differs in 12949 samples @00:00:06-00:00:36,30:33:41
You can use CUETools to repair this rip.

foobar2000 1.3.9 / Dynamic Range Meter 1.1.1
log date: 2016-03-13 14:23:54

––––––––––––––––––––––––––––––––––––––––
Analyzed: ABBA / Super Trouper
––––––––––––––––––––––––––––––––––––––––

DR Peak RMS Duration Track
––––––––––––––––––––––––––––––––––––––––
DR14 -0.46 dB -17.28 dB 4:12 01-Super Trouper
DR14 -1.57 dB -19.34 dB 4:55 02-The Winner Takes It All
DR14 -0.10 dB -17.37 dB 3:41 03-On And On And On
DR13 -2.15 dB -18.74 dB 4:40 04-Andante, Andante
DR14 -0.63 dB -17.07 dB 4:55 05-Me And I
DR13 -1.70 dB -18.80 dB 4:23 06-Happy New Year
DR12 -1.67 dB -16.69 dB 4:20 07-Our Last Summer
DR12 -2.64 dB -16.77 dB 3:27 08-The Piper
DR13 -1.28 dB -17.06 dB 4:35 09-Lay All Your Love On Me
DR11 -2.66 dB -18.49 dB 2:58 10-The Way Old Friends Do
––––––––––––––––––––––––––––––––––––––––

Number of tracks: 10
Official DR value: DR13

Samplerate: 44100 Hz
Channels: 2
Bits per sample: 16
Bitrate: 857 kbps
Codec: FLAC
================================================================================


=============================


ABBA - Seven Albums on Blue Polar Discs (1976-1982) {1983-1984, W-Germany 1st press}

ABBA - The Visitors (1981)
Pop/Rock, Dance-Pop, Disco | EAC Rip | FLAC, Img+CUE+LOG+Artwork-1200dpi(JPEG) | 38:01 Min | 241,27 Mb
Label: Polar Music International AB (W-Germany) | Released: 1983

The Visitors is the eighth and final studio album by Swedish pop group ABBA, released on 30 November 1981. With The Visitors, ABBA took several steps away from the "lighter" pop music they had recorded previously and the album is often regarded as a more complex and mature effort. The opening track, "The Visitors", with its ominous synthesizer sounds and the distinctive lead vocal by Frida, announced a change in musical style. With Benny and Frida going their separate ways, the pain of splitting up was explored yet again in "When All Is Said and Done". The major hit single on the album, "One of Us" also depicted the end of a love story. Elsewhere there were current Cold War themes - highly topical at the time - and further songs of isolation and regret. The Visitors album was one of the first records ever to be recorded and mixed digitally, and was the first in history to be released on the new CD format in 1982 on Atlantic.
ABBA - Seven Albums on Blue Polar Discs (1976-1982) {1983-1984, W-Germany 1st press}


Release of the album: 1981, November, 30 [LP Polar, Cat.# POLS 342, Sweden]
Release of this CD: 1983 [CD Polar Music International AB (W-Germany), Cat.# POLCD 342 / No Barcode]
℗ & © 1981 Polar Music International AB, Stockholm
© 1983 Polar Music International AB, Stockholm
CD is manufactured by PolyGram in Hanover, West Germany
Printed and made in West Germany

Tracklist:

01. "The Visitors" (05:46)
(Andersson / Ulvaeus)
02. "Head Over Heels" (03:48)
(Andersson / Ulvaeus)
03. "When All Is Said And Done" (03:20)
(Andersson / Ulvaeus)
04. "Soldiers" (04:41)
(Andersson / Ulvaeus)
05. "I Let The Music Speak" (05:24)
(Andersson / Ulvaeus)
06. "One Of Us" (03:57)
(Andersson / Ulvaeus)
07. "Two For The Price Of One" (03:38)
(Andersson / Ulvaeus)
08. "Slipping Through My Fingers" (03:54)
(Andersson / Ulvaeus)
09. "Like An Angel Passing Through My Room" (03:34)
(Andersson / Ulvaeus)

Exact Audio Copy V1.0 beta 3 from 29. August 2011

Отчёт EAC об извлечении, выполненном 27. апреля 2014, 17:26

Abba / The Visitors

Дисковод: Optiarc DVD RW AD-7561A Adapter: 0 ID: 0

Режим чтения : Достоверность
Использование точного потока : Да
Отключение кэша аудио : Да
Использование указателей C2 : Нет

Коррекция смещения при чтении : 6
Способность читать области Lead-in и Lead-out : Нет
Заполнение пропущенных сэмплов тишиной : Да
Удаление блоков с тишиной в начале и конце : Нет
При вычислениях CRC использовались нулевые сэмплы : Да
Интерфейс : Установленный внешний ASPI-интерфейс

Выходной формат : Пользовательский кодировщик
Выбранный битрейт : 128 kBit/s
Качество : Высокий
Добавление ID3-тега : Нет
Утилита сжатия : C:\Program Files\Exact Audio Copy\FLAC\FLAC.EXE
Дополнительные параметры : -6 -V -T "ARTIST=%artist%" -T "TITLE=%title%" -T "ALBUM=%albumtitle%" -T "DATE=%year%" -T "TRACKNUMBER=%tracknr%" -T "GENRE=%genre%" -T "COMMENT=%comment%" -T "BAND=%albuminterpret%" -T "ALBUMARTIST=%albuminterpret%" -T "COMPOSER=%composer%" %haslyrics%–tag-from-file=LYRICS="%lyricsfile%"%haslyrics% -T "DISCNUMBER=%cdnumber%" -T "TOTALDISCS=%totalcds%" -T "TOTALTRACKS=%numtracks%" %hascover%–picture="%coverfile%"%hascover% %source% -o %dest%


TOC извлечённого CD

Трек | Старт | Длительность | Начальный сектор | Конечный сектор
––––––––––––––––––––––––––––––––––-
1 | 0:00.32 | 5:45.65 | 32 | 25971
2 | 5:46.22 | 3:47.60 | 25972 | 43056
3 | 9:34.07 | 3:19.53 | 43057 | 58034
4 | 12:53.60 | 4:40.45 | 58035 | 79079
5 | 17:34.30 | 5:23.45 | 79080 | 103349
6 | 22:58.00 | 3:57.22 | 103350 | 121146
7 | 26:55.22 | 3:38.33 | 121147 | 137529
8 | 30:33.55 | 3:53.60 | 137530 | 155064
9 | 34:27.40 | 3:34.00 | 155065 | 171114


Характеристики диапазона извлечения и сообщения об ошибках

Выбранный диапазон

Имя файла C:\Users\SERGEY\Music\ABBA\The Visitors\Abba - The Visitors.wav

Пиковый уровень 100.0 %
Скорость извлечения 4.2 X
Качество диапазона 99.9 %
CRC теста F878BEFD
CRC копии F878BEFD
Копирование… OK

Ошибок не произошло


AccurateRip: сводка

Трек 1 : извлечено точно (доверие 13) [EDA44989] (AR v2)
Трек 2 : извлечено точно (доверие 14) [1FD51990] (AR v2)
Трек 3 : извлечено точно (доверие 14) [1068A32C] (AR v2)
Трек 4 : извлечено точно (доверие 14) [D7FDECB3] (AR v2)
Трек 5 : извлечено точно (доверие 13) [D7DFAE5E] (AR v2)
Трек 6 : извлечено точно (доверие 13) [C1C1F18B] (AR v2)
Трек 7 : извлечено точно (доверие 12) [6A7B962A] (AR v2)
Трек 8 : извлечено точно (доверие 14) [BCAC7686] (AR v2)
Трек 9 : извлечено точно (доверие 14) [FA3345D7] (AR v2)

Все треки извлечены точно

Конец отчёта

–– CUETools DB Plugin V2.1.3

[CTDB TOCID: I4uo.bJbOmrmTnBBJQvgwJQ0jDw-] found, Submit result: discs with pregaps not supported in this protocol version
[c3726a0c] (109/109) Differs in 0 samples @
You can use CUETools to repair this rip.

foobar2000 1.3.9 / Dynamic Range Meter 1.1.1
log date: 2016-03-13 14:25:44

––––––––––––––––––––––––––––––––––––––––
Analyzed: Abba / The Visitors
––––––––––––––––––––––––––––––––––––––––

DR Peak RMS Duration Track
––––––––––––––––––––––––––––––––––––––––
DR17 0.00 dB -20.88 dB 5:46 01-The Visitors
DR17 -1.28 dB -20.26 dB 3:48 02-Head Over Heels
DR16 -0.35 dB -19.01 dB 3:20 03-When All Is Said And Done
DR16 -0.25 dB -18.09 dB 4:41 04-Soldiers
DR13 -2.79 dB -20.06 dB 5:24 05-I Let The Music Speak
DR18 -0.29 dB -20.30 dB 3:57 06-One Of Us
DR15 -1.36 dB -19.96 dB 3:38 07-Two For The Price Of One
DR12 -3.90 dB -19.51 dB 3:54 08-Slipping Through My Fingers
DR14 -7.14 dB -26.50 dB 3:34 09-Like An Angel Passing Through My Room
––––––––––––––––––––––––––––––––––––––––

Number of tracks: 9
Official DR value: DR15

Samplerate: 44100 Hz
Channels: 2
Bits per sample: 16
Bitrate: 778 kbps
Codec: FLAC
================================================================================


=============================


ABBA - Seven Albums on Blue Polar Discs (1976-1982) {1983-1984, W-Germany 1st press}

ABBA - The Singles - The First Ten Years (1982)
Pop/Rock, Dance-Pop, Disco | EAC Rip | FLAC, Img+CUE+LOG+Artwork-1200dpi(JPEG) | 91:54 Min | 651,25 Mb
Label: Polar Music International AB (W-Germany) | Released: 1983

1982 was ABBA’s final year together as a group. They had originally intended to record a new studio album, like they had done almost every year since they first came together. But as the four members felt the energy run out of the group, they shelved these plans and instead decided to release a double album collection of their singles from 1972 to 1982. The album contained most of the band's hit singles from their ten years together as recording artists, and included two new tracks: "The Day Before You Came" and "Under Attack". The Singles: The First Ten Years was released on CD By Atlantic Records in 1983, but was deleted in the late 1980s. In 2001, the album was replaced by The Definitive Collection. The Singles: The First Ten Years does not include non-UK singles such as "Honey, Honey", "Eagle" or "When All Is Said and Done", and it also excludes several of ABBA's UK single hits including the 1974 remix of "Ring Ring", "Angeleyes", "Head over Heels", and the 12" single hit "Lay All Your Love on Me". The album features a 3:58 edited version of "The Name of the Game" instead of the full 4:51 version; this edit (which omits the second verse) was released as a promotional single in the USA in 1977, and was mistakenly included on this compilation.
ABBA - Seven Albums on Blue Polar Discs (1976-1982) {1983-1984, W-Germany 1st press}

ABBA - Seven Albums on Blue Polar Discs (1976-1982) {1983-1984, W-Germany 1st press}


Release of the album: 1982, November, 8 [2xLP Polar, Cat.# 2335 263, 2612 040, Sweden]
Release of this CD Set: 1983 [2xCD Polar Music International AB (W-Germany), Cat.# POLCD 400(1)-2 / No Barcode]
℗ & © 1973-1982 Polar Music International AB, Stockholm
© 1982 Polar Music International AB
CD is manufactured by PolyGram in Hanover, West Germany
Printed and made in West Germany

Tracklist:

Disc 1:

01. "Ring Ring" (03:06)
(B. Andersson, S. Anderson, B. Ulvaeus, N. Sedaka, P. Cody)
02. "Waterloo" (02:47)
(B. Andersson, S. Anderson, B. Ulvaeus)
03. "So Long" (03:08)
(B. Andersson, B. Ulvaeus)
04. "I Do, I Do, I Do, I Do, I Do" (03:19)
(B. Andersson, S. Anderson, B. Ulvaeus)
05. "SOS" (03:23)
(B. Andersson, S. Anderson, B. Ulvaeus)
06. "Mamma Mia" (03:33)
(B. Andersson, S. Anderson, B. Ulvaeus)
07. "Fernando" (04:13)
(B. Andersson, B. Ulvaeus)
08. "Dancing Queen" (03:51)
(B. Andersson, S. Anderson, B. Ulvaeus)
09. "Money, Money, Money" (03:08)
(B. Andersson, B. Ulvaeus)
10. "Knowing Me, Knowing You" (04:02)
(B. Andersson, S. Anderson, B. Ulvaeus)
11. "The Name of the Game" (Edited Version) (04:00)
(B. Andersson, S. Anderson, B. Ulvaeus)
12. "Take A Chance On Me" (04:02)
(B. Andersson, B. Ulvaeus)
13. "Summer Night City" (03:31)
(B. Andersson, B. Ulvaeus)

Disc 2:

01. "Chiquitita" (05:25)
(B. Andersson, B. Ulvaeus)
02. "Does Your Mother Know" (03:15)
(B. Andersson, B. Ulvaeus)
03. "Voulez-Vous" (05:07)
(B. Andersson, B. Ulvaeus)
04. "Gimme! Gimme! Gimme! (A Man After Midnight)" (04:50)
(B. Andersson, B. Ulvaeus)
05. "I Have A Dream" (04:41)
(B. Andersson, B. Ulvaeus)
06. "The Winner Takes It All" (04:55)
(B. Andersson, B. Ulvaeus)
07. "Super Trouper" (04:13)
(B. Andersson, B. Ulvaeus)
08. "One Of Us" (03:56)
(B. Andersson, B. Ulvaeus)
09. "The Day Before You Came" (05:49)
(B. Andersson, B. Ulvaeus)
10. "Under Attack" (03:40)
(B. Andersson, B. Ulvaeus)

Exact Audio Copy V1.0 beta 3 from 29. August 2011

Отчёт EAC об извлечении, выполненном 5. июля 2014, 21:17

ABBA / The Singles - The First Ten Years CD 1

Дисковод: Optiarc DVD RW AD-7561A Adapter: 0 ID: 0

Режим чтения : Достоверность
Использование точного потока : Да
Отключение кэша аудио : Да
Использование указателей C2 : Нет

Коррекция смещения при чтении : 6
Способность читать области Lead-in и Lead-out : Нет
Заполнение пропущенных сэмплов тишиной : Да
Удаление блоков с тишиной в начале и конце : Нет
При вычислениях CRC использовались нулевые сэмплы : Да
Интерфейс : Установленный внешний ASPI-интерфейс

Выходной формат : Пользовательский кодировщик
Выбранный битрейт : 1024 kBit/s
Качество : Высокий
Добавление ID3-тега : Нет
Утилита сжатия : C:\Program Files\Exact Audio Copy\FLAC\FLAC.EXE
Дополнительные параметры : -6 -V -T "ARTIST=%artist%" -T "TITLE=%title%" -T "ALBUM=%albumtitle%" -T "DATE=%year%" -T "TRACKNUMBER=%tracknr%" -T "GENRE=%genre%" -T "COMMENT=%comment%" -T "BAND=%albuminterpret%" -T "ALBUMARTIST=%albuminterpret%" -T "COMPOSER=%composer%" %haslyrics%–tag-from-file=LYRICS="%lyricsfile%"%haslyrics% -T "DISCNUMBER=%cdnumber%" -T "TOTALDISCS=%totalcds%" -T "TOTALTRACKS=%numtracks%" %hascover%–picture="%coverfile%"%hascover% %source% -o %dest%


TOC извлечённого CD

Трек | Старт | Длительность | Начальный сектор | Конечный сектор
––––––––––––––––––––––––––––––––––-
1 | 0:00.32 | 3:05.43 | 32 | 13949
2 | 3:06.00 | 2:46.65 | 13950 | 26464
3 | 5:52.65 | 3:07.57 | 26465 | 40546
4 | 9:00.47 | 3:18.48 | 40547 | 55444
5 | 12:19.20 | 3:23.00 | 55445 | 70669
6 | 15:42.20 | 3:33.35 | 70670 | 86679
7 | 19:15.55 | 4:13.15 | 86680 | 105669
8 | 23:28.70 | 3:51.27 | 105670 | 123021
9 | 27:20.22 | 3:08.18 | 123022 | 137139
10 | 30:28.40 | 4:02.22 | 137140 | 155311
11 | 34:30.62 | 4:00.30 | 155312 | 173341
12 | 38:31.17 | 4:02.18 | 173342 | 191509
13 | 42:33.35 | 3:30.42 | 191510 | 207301


Характеристики диапазона извлечения и сообщения об ошибках

Выбранный диапазон

Имя файла C:\Users\SERGEY\Music\ABBA\The Singles The First Ten Years\The Singles The First Ten Years - Blue Polar 401-2\Disc 1\ABBA - The Singles - The First Ten Years CD 1.wav

Пиковый уровень 97.5 %
Скорость извлечения 3.4 X
Качество диапазона 99.9 %
CRC теста 0BFAA5D9
CRC копии 0BFAA5D9
Копирование… OK

Ошибок не произошло


AccurateRip: сводка

Трек 1 : извлечено точно (доверие 40) [1B3FA129] (AR v2)
Трек 2 : извлечено точно (доверие 40) [D7BC7FEC] (AR v2)
Трек 3 : извлечено точно (доверие 40) [FB3539A8] (AR v2)
Трек 4 : извлечено точно (доверие 39) [9A5B5060] (AR v2)
Трек 5 : извлечено точно (доверие 40) [BDCFAB00] (AR v2)
Трек 6 : извлечено точно (доверие 39) [634E9982] (AR v2)
Трек 7 : извлечено точно (доверие 39) [1051D8F0] (AR v2)
Трек 8 : извлечено точно (доверие 38) [8C21AF9D] (AR v2)
Трек 9 : извлечено точно (доверие 40) [AC5C7724] (AR v2)
Трек 10 : извлечено точно (доверие 41) [3C4679A2] (AR v2)
Трек 11 : извлечено точно (доверие 38) [21E760AB] (AR v2)
Трек 12 : извлечено точно (доверие 40) [4F9035BC] (AR v2)
Трек 13 : извлечено точно (доверие 41) [54C79828] (AR v2)

Все треки извлечены точно

Конец отчёта

–– CUETools DB Plugin V2.1.3

[CTDB TOCID: sG_.yzft58ZLX8fL06ZvmYdpHIY-] found, Submit result: discs with pregaps not supported in this protocol version
[b38a9431] (03/10) Differs in 4490 samples @00:00:38-00:00:41,25:34:13,25:41:73,25:49:03,25:52:58,25:54:06,25:55:42
[6a0865d6] (07/10) Differs in 4432 samples @00:00:38-00:00:41
You can use CUETools to repair this rip.

Exact Audio Copy V1.0 beta 3 from 29. August 2011

Отчёт EAC об извлечении, выполненном 5. июля 2014, 21:53

ABBA / The Singles - The First Ten Years CD 2

Дисковод: Optiarc DVD RW AD-7561A Adapter: 0 ID: 0

Режим чтения : Достоверность
Использование точного потока : Да
Отключение кэша аудио : Да
Использование указателей C2 : Нет

Коррекция смещения при чтении : 6
Способность читать области Lead-in и Lead-out : Нет
Заполнение пропущенных сэмплов тишиной : Да
Удаление блоков с тишиной в начале и конце : Нет
При вычислениях CRC использовались нулевые сэмплы : Да
Интерфейс : Установленный внешний ASPI-интерфейс

Выходной формат : Пользовательский кодировщик
Выбранный битрейт : 1024 kBit/s
Качество : Высокий
Добавление ID3-тега : Нет
Утилита сжатия : C:\Program Files\Exact Audio Copy\FLAC\FLAC.EXE
Дополнительные параметры : -6 -V -T "ARTIST=%artist%" -T "TITLE=%title%" -T "ALBUM=%albumtitle%" -T "DATE=%year%" -T "TRACKNUMBER=%tracknr%" -T "GENRE=%genre%" -T "COMMENT=%comment%" -T "BAND=%albuminterpret%" -T "ALBUMARTIST=%albuminterpret%" -T "COMPOSER=%composer%" %haslyrics%–tag-from-file=LYRICS="%lyricsfile%"%haslyrics% -T "DISCNUMBER=%cdnumber%" -T "TOTALDISCS=%totalcds%" -T "TOTALTRACKS=%numtracks%" %hascover%–picture="%coverfile%"%hascover% %source% -o %dest%


TOC извлечённого CD

Трек | Старт | Длительность | Начальный сектор | Конечный сектор
––––––––––––––––––––––––––––––––––-
1 | 0:00.32 | 5:24.68 | 32 | 24399
2 | 5:25.25 | 3:15.25 | 24400 | 39049
3 | 8:40.50 | 5:07.10 | 39050 | 62084
4 | 13:47.60 | 4:49.45 | 62085 | 83804
5 | 18:37.30 | 4:41.07 | 83805 | 104886
6 | 23:18.37 | 4:54.70 | 104887 | 127006
7 | 28:13.32 | 4:12.63 | 127007 | 145969
8 | 32:26.20 | 3:55.42 | 145970 | 163636
9 | 36:21.62 | 5:48.63 | 163637 | 189799
10 | 42:10.50 | 3:40.27 | 189800 | 206326


Характеристики диапазона извлечения и сообщения об ошибках

Выбранный диапазон

Имя файла C:\Users\SERGEY\Music\ABBA\The Singles The First Ten Years\The Singles The First Ten Years - Blue Polar 401-2\Disc 2\ABBA - The Singles - The First Ten Years CD 2.wav

Пиковый уровень 99.8 %
Скорость извлечения 4.1 X
Качество диапазона 100.0 %
CRC теста 8E1D496E
CRC копии 8E1D496E
Копирование… OK

Ошибок не произошло


AccurateRip: сводка

Трек 1 : извлечено точно (доверие 32) [6450635D] (AR v2)
Трек 2 : извлечено точно (доверие 31) [31696791] (AR v2)
Трек 3 : извлечено точно (доверие 31) [943A8C0B] (AR v2)
Трек 4 : извлечено точно (доверие 31) [5A78B0FA] (AR v2)
Трек 5 : извлечено точно (доверие 31) [1F3860C8] (AR v2)
Трек 6 : извлечено точно (доверие 31) [E70537E8] (AR v2)
Трек 7 : извлечено точно (доверие 31) [4A5ADC21] (AR v2)
Трек 8 : извлечено точно (доверие 31) [8E62992F] (AR v2)
Трек 9 : извлечено точно (доверие 32) [8BF8571A] (AR v2)
Трек 10 : извлечено точно (доверие 30) [3020E9AA] (AR v2)

Все треки извлечены точно

Конец отчёта

–– CUETools DB Plugin V2.1.3

[CTDB TOCID: cvWz02O7j405EsHfIbZHiUDQodY-] found, Submit result: discs with pregaps not supported in this protocol version
[8532ecfd] (114/116) Differs in 6210 samples @00:00:36-00:00:41
[272f0bac] (002/116) No match
You can use CUETools to repair this rip.

foobar2000 1.3.9 / Dynamic Range Meter 1.1.1
log date: 2016-03-13 14:24:48

––––––––––––––––––––––––––––––––––––––––
Analyzed: ABBA / The Singles - The First Ten Years CD 1
––––––––––––––––––––––––––––––––––––––––

DR Peak RMS Duration Track
––––––––––––––––––––––––––––––––––––––––
DR13 -0.46 dB -14.53 dB 3:06 01-Ring Ring
DR12 -0.71 dB -14.37 dB 2:47 02-Waterloo
DR13 -0.60 dB -15.97 dB 3:08 03-So Long
DR11 -0.56 dB -12.88 dB 3:19 04-I Do, I Do, I Do, I Do, I Do
DR13 -1.85 dB -16.66 dB 3:23 05-S.O.S.
DR14 -2.29 dB -19.54 dB 3:33 06-Mamma Mia
DR13 -0.90 dB -17.30 dB 4:13 07-Fernando
DR12 -0.25 dB -14.59 dB 3:51 08-Dancing Queen
DR14 -0.22 dB -17.52 dB 3:08 09-Money, Money, Money
DR14 -0.87 dB -16.84 dB 4:02 10-Knowing Me, Knowing You
DR16 -1.69 dB -20.11 dB 4:00 11-The Name Of The Game
DR15 -1.38 dB -17.78 dB 4:02 12-Take A Chance On Me
DR14 -0.51 dB -16.61 dB 3:31 13-Summer Night City
––––––––––––––––––––––––––––––––––––––––

Number of tracks: 13
Official DR value: DR13

Samplerate: 44100 Hz
Channels: 2
Bits per sample: 16
Bitrate: 856 kbps
Codec: FLAC
================================================================================

foobar2000 1.3.9 / Dynamic Range Meter 1.1.1
log date: 2016-03-13 14:25:13

––––––––––––––––––––––––––––––––––––––––
Analyzed: ABBA / The Singles - The First Ten Years CD 2
––––––––––––––––––––––––––––––––––––––––

DR Peak RMS Duration Track
––––––––––––––––––––––––––––––––––––––––
DR14 -0.20 dB -18.72 dB 5:25 01-Chiquitita
DR14 -0.48 dB -16.97 dB 3:15 02-Does Your Mother Know
DR15 -2.23 dB -18.56 dB 5:07 03-Voulez-Vous
DR15 -3.11 dB -20.39 dB 4:50 04-Gimme! Gimme! Gimme! (A Man After Midnight)
DR14 -2.42 dB -19.73 dB 4:41 05-I Have A Dream
DR13 -0.55 dB -17.54 dB 4:55 06-The Winner Takes It All
DR14 -0.73 dB -17.41 dB 4:13 07-Super Trouper
DR16 -1.35 dB -19.76 dB 3:56 08-One Of Us
DR15 -1.30 dB -18.74 dB 5:49 09-The Day Before You Came
DR15 -0.02 dB -19.89 dB 3:40 10-Under Attack
––––––––––––––––––––––––––––––––––––––––

Number of tracks: 10
Official DR value: DR14

Samplerate: 44100 Hz
Channels: 2
Bits per sample: 16
Bitrate: 840 kbps
Codec: FLAC
================================================================================

All thanks to xxxguy70


See also: