Subcategories

AC/DC: Discography (1975 - 2014) [Vinyl Rip 16/44 & mp3-320]

Posted By: v3122
AC/DC: Discography (1975 - 2014) [Vinyl Rip 16/44 & mp3-320]

AC/DC: Discography (1975 - 2014)
18 x Vinyl Rip 16/44 | Flac(Image + Cue) > 5310 Mb
MP3 CBR 320Kbps > 1788 Mb | Artwork(jpg) > 982 Mb
Hard Rock / Rock & Roll

AC/DC are an Australian rock band, formed in Sydney in 1973 by brothers Malcolm and Angus Young. A hard rock/blues rock band, they have also been considered a heavy metal band, although they have always dubbed their music simply "rock and roll".

AC/DC underwent several line-up changes before releasing their first album, High Voltage, in 1975. Membership subsequently stabilised until bassist Mark Evans was replaced by Cliff Williams in 1977 for the album Powerage. Within months of recording the album Highway to Hell, lead singer and co-songwriter Bon Scott died on 19 February 1980 after a night of heavy alcohol consumption. The group considered disbanding, but buoyed by support from Scott's parents, decided to continue and set about finding a new vocalist. Ex-Geordie singer Brian Johnson was auditioned and selected to replace Scott. Later that year, the band released the new album Back in Black, which was made as a tribute to Bon Scott. The album launched them to new heights of success and became their all-time best-seller.

The band's next album, For Those About to Rock We Salute You, was their first album to reach number one in the United States. Drummer Phil Rudd was fired in 1983 and replaced by ex-A II Z drummer Simon Wright, who left to join Dio in 1989. The band experienced a resurgence in the early 1990s with the release of The Razors Edge. Phil Rudd returned in 1994 after Chris Slade, who was with the band from 1989 to 1994, was asked to leave in favour of him, and contributed to the band's 1995 album Ballbreaker. Stiff Upper Lip, released in 2000, was well received by critics. The band's studio album Black Ice, released in 2008, was the second highest-selling album of that year, and their biggest chart hit since For Those About to Rock, eventually reaching No.1 on all charts worldwide. The band's line-up remained the same until 2014 with Malcolm Young's retirement due to early-onset dementia and Rudd's legal troubles. In 2016, Johnson was advised to stop touring on account of worsening hearing loss, and Guns N' Roses frontman Axl Rose stepped in as the band's vocalist for the remainder of that year's dates. Long-term bass player Cliff Williams retired from the band at the end of their 2016 Rock or Bust world tour.

AC/DC have sold more than 200 million records worldwide, including 71.5 million albums in the United States, adding them to the list of highest-certified music artists in the United States and the list of best-selling music artists. Back in Black has sold an estimated 50 million units worldwide, making it the second-highest-selling album by any artist – and the highest-selling album by any band. The album has sold 22 million units in the US, where it is the sixth-highest-selling album of all time. AC/DC ranked fourth on VH1's list of the "100 Greatest Artists of Hard Rock" and were named the seventh "Greatest Heavy Metal Band of All Time" by MTV. In 2004, AC/DC ranked No. 72 on the Rolling Stone list of the "100 Greatest Artists of All Time". Producer Rick Rubin, who wrote an essay on the band for the Rolling Stone list, referred to AC/DC as "the greatest rock and roll band of all time". In 2010, AC/DC were ranked number 23 in the VH1 list of the "100 Greatest Artists of All Time"…

~ wiki
AC/DC: Discography (1975 - 2014) [Vinyl Rip 16/44 & mp3-320]

Tracklist VNL01 - 1975 - High Voltage:
APLP.009, New Zealand

1. "Baby, Please Don't Go"
2. "She's Got Balls"
3. "Little Lover"
4. "Stick Around"
5. "Soul Stripper"
6. "You Ain't Got A Hold On Me"
7. "Love Song"
8. "Show Business"

foobar2000 1.2.9 / Dynamic Range Meter 1.1.1
log date: 2017-12-18 23:34:07

––––––––––––––––––––––––––––––––––––––––
Analyzed: AC/DC / High Voltage
––––––––––––––––––––––––––––––––––––––––

DR Peak RMS Duration Track
––––––––––––––––––––––––––––––––––––––––
DR12 0.00 dB -14.21 dB 4:53 01-Baby Please Don't Go
DR12 0.00 dB -15.29 dB 4:54 02-She's Got Balls
DR13 0.00 dB -16.27 dB 5:48 03-Little Lover
DR13 -0.08 dB -15.66 dB 4:43 04-Stick Around
DR12 -0.71 dB -15.58 dB 6:32 05-Soul Stripper
DR13 -0.66 dB -15.43 dB 3:37 06-You Ain't Got A Hold On Me
DR13 0.00 dB -15.93 dB 5:28 07-Love Song
DR12 -0.17 dB -13.61 dB 4:50 08-Show Business
––––––––––––––––––––––––––––––––––––––––

Number of tracks: 8
Official DR value: DR12

Samplerate: 44100 Hz
Channels: 2
Bits per sample: 16
Bitrate: 898 kbps
Codec: FLAC
================================================================================



AC/DC: Discography (1975 - 2014) [Vinyl Rip 16/44 & mp3-320]

Tracklist VNL02 - 1975 - T.N.T:
APLP.016, New Zealand

1. "It's a Long Way to the Top (If You Wanna Rock 'n' Roll)"
2. "Rock 'n' Roll Singer"
3. "The Jack"
4. "Live Wire"
5. "T.N.T."
6. "Rocker"
7. "Can I Sit Next to You Girl"
8. "High Voltage"
9. "School Days"

foobar2000 1.2.9 / Dynamic Range Meter 1.1.1
log date: 2017-12-18 23:34:21

––––––––––––––––––––––––––––––––––––––––
Analyzed: AC/DC / T.N.T.
––––––––––––––––––––––––––––––––––––––––

DR Peak RMS Duration Track
––––––––––––––––––––––––––––––––––––––––
DR11 -0.02 dB -13.13 dB 5:17 01-It's A Long Way To The Top (If You Wanna Rock 'N' Roll)
DR12 0.00 dB -13.76 dB 5:06 02-The Rock 'N' Roll Singer
DR12 -0.16 dB -14.45 dB 5:54 03-The Jack
DR12 0.00 dB -14.26 dB 5:50 04-Live Wire
DR11 -0.01 dB -13.53 dB 3:36 05-T.N.T.
DR11 0.00 dB -11.89 dB 2:59 06-Rocker
DR12 0.00 dB -14.35 dB 4:13 07-Can I Sit Next To You Girl
DR12 0.00 dB -13.33 dB 4:21 08-High Voltage
DR14 -0.28 dB -16.33 dB 5:20 09-School Days
––––––––––––––––––––––––––––––––––––––––

Number of tracks: 9
Official DR value: DR12

Samplerate: 44100 Hz
Channels: 2
Bits per sample: 16
Bitrate: 877 kbps
Codec: FLAC
================================================================================



AC/DC: Discography (1975 - 2014) [Vinyl Rip 16/44 & mp3-320]

Tracklist VNL03 - 1976 - Dirty Deeds Done Dirt Cheap:
APLP.020, New Zealand

1. "Dirty Deeds Done Dirt Cheap"
2. "Ain't No Fun (Waiting Round to Be a Millionaire)"
3. "There's Gonna Be Some Rockin'"
4. "Problem Child"
5. "Squealer"
6. "Big Balls"
7. "R.I.P. (Rock in Peace)"
8. "Ride On"
9. "Jailbreak"

foobar2000 1.2.9 / Dynamic Range Meter 1.1.1
log date: 2017-12-18 23:34:34

––––––––––––––––––––––––––––––––––––––––
Analyzed: AC/DC / Dirty Deeds Done Dirt Cheap
––––––––––––––––––––––––––––––––––––––––

DR Peak RMS Duration Track
––––––––––––––––––––––––––––––––––––––––
DR12 0.00 dB -13.32 dB 4:13 01-Dirty Deeds Done Dirt Cheap
DR11 0.00 dB -12.63 dB 7:36 02-Ain't No Fun
DR11 -0.25 dB -12.59 dB 3:19 03-There's Gonna Be Some Rockin'
DR11 -0.26 dB -12.44 dB 5:46 04-Problem Child
DR11 -0.11 dB -13.23 dB 5:17 05-Squealer
DR12 -0.09 dB -13.99 dB 2:38 06-Big Balls
DR11 -0.46 dB -12.90 dB 3:38 07-R.I.P. (Rock In Peace)
DR11 -0.20 dB -14.57 dB 5:50 08-Ride On
DR11 0.00 dB -13.31 dB 4:44 09-Jailbreak
––––––––––––––––––––––––––––––––––––––––

Number of tracks: 9
Official DR value: DR11

Samplerate: 44100 Hz
Channels: 2
Bits per sample: 16
Bitrate: 869 kbps
Codec: FLAC
================================================================================



AC/DC: Discography (1975 - 2014) [Vinyl Rip 16/44 & mp3-320]

Tracklist VNL04 - 1977 - Let There Be Rock:
APLP.022, New Zealand

01. "Go Down"
02. "Dog Eat Dog"
03. "Let There Be Rock"
04. "Bad Boy Boogie"
05. "Problem Child"
06. "Overdose"
07. "Hell Ain't A Bad Place To Be"
08. "Whole Lotta Rosie"

foobar2000 1.2.9 / Dynamic Range Meter 1.1.1
log date: 2017-12-18 23:34:47

––––––––––––––––––––––––––––––––––––––––
Analyzed: AC/DC / Let There Be Rock
––––––––––––––––––––––––––––––––––––––––

DR Peak RMS Duration Track
––––––––––––––––––––––––––––––––––––––––
DR12 0.00 dB -14.13 dB 5:26 01-Go Down
DR12 0.00 dB -13.46 dB 3:37 02-Dog Eat Dog
DR11 0.00 dB -13.01 dB 6:09 03-Let There Be Rock
DR12 0.00 dB -13.60 dB 4:31 04-Bad Boy Boogie
DR12 -0.08 dB -13.26 dB 6:09 05-Overdose
DR12 -0.80 dB -14.54 dB 4:46 06-Crabsody In Blue
DR12 0.00 dB -14.08 dB 4:23 07-Hell Ain't A Bad Place To Be
DR12 0.00 dB -13.42 dB 5:24 08-Whole Lotta Rosie
––––––––––––––––––––––––––––––––––––––––

Number of tracks: 8
Official DR value: DR12

Samplerate: 44100 Hz
Channels: 2
Bits per sample: 16
Bitrate: 889 kbps
Codec: FLAC
================================================================================



AC/DC: Discography (1975 - 2014) [Vinyl Rip 16/44 & mp3-320]

Tracklist VNL05 - 1978 - If You Want Blood You've Got It:
ATL 50 532, Germany

01. Riff Raff
02. Hell Ain't A Bad Place To Be
03. Bad Boy Boogie
04. The Jack
05. Problem Child
06. Whole Lotta Rosie
07. Rock'n'roll Damnation
08. High Voltage
09. Let There Be Rock
10. Rocker

foobar2000 1.2.9 / Dynamic Range Meter 1.1.1
log date: 2017-12-18 23:35:02

––––––––––––––––––––––––––––––––––––––––
Analyzed: AC/DC / If You Want Blood You've Got It
––––––––––––––––––––––––––––––––––––––––

DR Peak RMS Duration Track
––––––––––––––––––––––––––––––––––––––––
DR13 -0.74 dB -15.45 dB 5:58 01-Riff Raff
DR13 -0.05 dB -14.73 dB 4:12 02-Hell Ain't A Bad Place To Be
DR13 0.00 dB -15.65 dB 7:30 03-Bad Boy Boogie
DR13 0.00 dB -16.66 dB 5:48 04-The Jack
DR13 -0.83 dB -15.10 dB 4:38 05-Problem Child
DR12 -0.34 dB -14.51 dB 4:13 06-Whole Lotta Rosie
DR12 0.00 dB -14.19 dB 3:35 07-Rock'n'Roll Damnation
DR13 0.00 dB -14.63 dB 5:06 08-High Voltage
DR11 -0.55 dB -14.72 dB 8:33 09-Let There Be Rock
DR12 0.00 dB -13.89 dB 3:15 10-Rocker
––––––––––––––––––––––––––––––––––––––––

Number of tracks: 10
Official DR value: DR13

Samplerate: 44100 Hz
Channels: 2
Bits per sample: 16
Bitrate: 948 kbps
Codec: FLAC
================================================================================



AC/DC: Discography (1975 - 2014) [Vinyl Rip 16/44 & mp3-320]

Tracklist VNL06 - 1978 - Powerage:
P-10533A, Japan

1. "Rock 'n' Roll Damnation"
2. "Down Payment Blues"
3. "Gimme a Bullet"
4. "Riff Raff"
5. "Sin City"
6. "What's Next to the Moon"
7. "Gone Shootin'"
8. "Up to My Neck in You"
9. "Kicked in the Teeth"

foobar2000 1.2.9 / Dynamic Range Meter 1.1.1
log date: 2017-12-18 23:35:14

––––––––––––––––––––––––––––––––––––––––
Analyzed: AC/DC / Powerage
––––––––––––––––––––––––––––––––––––––––

DR Peak RMS Duration Track
––––––––––––––––––––––––––––––––––––––––
DR14 0.00 dB -15.96 dB 3:38 01-Rock 'N' Roll Damnation
DR12 0.00 dB -14.65 dB 6:05 02-Down Payment Blues
DR14 0.00 dB -15.02 dB 3:24 03-Gimme A Bullet
DR12 -0.04 dB -14.58 dB 5:12 04-Riff Raff
DR13 0.00 dB -14.74 dB 4:45 05-Sin City
DR13 0.00 dB -15.45 dB 3:35 06-What's Next To The Moon
DR14 -0.27 dB -16.19 dB 5:08 07-Gone Shootin'
DR12 -0.39 dB -13.80 dB 4:15 08-Up To My Neck In You
DR12 -0.08 dB -14.57 dB 3:56 09-Kicked In The Teeth
––––––––––––––––––––––––––––––––––––––––

Number of tracks: 9
Official DR value: DR13

Samplerate: 44100 Hz
Channels: 2
Bits per sample: 16
Bitrate: 942 kbps
Codec: FLAC
================================================================================



AC/DC: Discography (1975 - 2014) [Vinyl Rip 16/44 & mp3-320]

Tracklist VNL07 - 1979 - Highway To Hell:
APLP.040, Australia

1. "Highway to Hell"
2. "Girls Got Rhythm"
3. "Walk All Over You"
4. "Touch Too Much"
5. "Beating Around the Bush"
6. "Shot Down in Flames"
7. "Get It Hot"
8. "If You Want Blood (You've Got It)"
9. "Love Hungry Man"
10. "Night Prowler"

foobar2000 1.2.9 / Dynamic Range Meter 1.1.1
log date: 2017-12-18 23:35:32

––––––––––––––––––––––––––––––––––––––––
Analyzed: AC/DC / Highway To Hell
––––––––––––––––––––––––––––––––––––––––

DR Peak RMS Duration Track
––––––––––––––––––––––––––––––––––––––––
DR13 -0.17 dB -15.99 dB 3:27 01-Highway To Hell
DR12 -0.57 dB -14.37 dB 3:23 02-Girls Got Rhythm
DR12 -0.42 dB -15.41 dB 5:09 03-Walk All Over You
DR13 0.00 dB -14.57 dB 4:25 04-Touch Too Much
DR12 -0.03 dB -14.23 dB 3:56 05-Beating Around The Bush
DR12 -0.09 dB -14.90 dB 3:21 06-Shot Down In Flames
DR13 -0.45 dB -15.36 dB 2:34 07-Get It Hot
DR12 -0.03 dB -14.27 dB 4:35 08-If You Want Blood (You've Got It)
DR12 -0.85 dB -15.76 dB 4:15 09-Love Hungry Man
DR12 -0.22 dB -15.26 dB 6:14 10-Night Prowler
––––––––––––––––––––––––––––––––––––––––

Number of tracks: 10
Official DR value: DR12

Samplerate: 44100 Hz
Channels: 2
Bits per sample: 16
Bitrate: 951 kbps
Codec: FLAC
================================================================================



AC/DC: Discography (1975 - 2014) [Vinyl Rip 16/44 & mp3-320]

Tracklist VNL08 - 1980 - Back In Black:
P-10906A, Japan

1. "Hells Bells"
2. "Shoot to Thrill"
3. "What Do You Do for Money Honey"
4. "Givin' the Dog a Bone"
5. "Let Me Put My Love into You"
6. "Back in Black"
7. "You Shook Me All Night Long"
8. "Have a Drink on Me"
9. "Shake a Leg"
10. "Rock and Roll Ain't Noise Pollution"

foobar2000 1.2.9 / Dynamic Range Meter 1.1.1
log date: 2017-12-18 23:35:44

––––––––––––––––––––––––––––––––––––––––
Analyzed: AC/DC / Back In Black
––––––––––––––––––––––––––––––––––––––––

DR Peak RMS Duration Track
––––––––––––––––––––––––––––––––––––––––
DR14 -0.03 dB -15.20 dB 5:11 01-Hells Bells
DR13 -0.36 dB -15.14 dB 5:15 02-Shoot To Thrill
DR13 0.00 dB -14.02 dB 3:33 03-What Do You Do For Money Honey
DR13 0.00 dB -14.12 dB 3:30 04-Givin The Dog A Bone
DR13 0.00 dB -14.63 dB 4:14 05-Let Me Put My Love Into You
DR13 0.00 dB -14.54 dB 4:14 06-Back In Black
DR12 0.00 dB -13.87 dB 3:28 07-You Shook Me All Night Long
DR12 0.00 dB -13.48 dB 3:57 08-Have A Drink On Me
DR12 0.00 dB -13.61 dB 4:04 09-Shake A Leg
DR14 -0.16 dB -15.59 dB 4:13 10-Rock And Roll Ain't Noise Pollution
––––––––––––––––––––––––––––––––––––––––

Number of tracks: 10
Official DR value: DR13

Samplerate: 44100 Hz
Channels: 2
Bits per sample: 16
Bitrate: 955 kbps
Codec: FLAC
================================================================================



AC/DC: Discography (1975 - 2014) [Vinyl Rip 16/44 & mp3-320]

Tracklist VNL09 - 1981 - For Those About To Rock:
APLP.053, Australia

1. "For Those About to Rock (We Salute You)"
2. "I Put the Finger on You"
3. "Let's Get It Up"
4. "Inject the Venom"
5. "Snowballed"
6. "Evil Walks"
7. "C.O.D."
8. "Breaking the Rules"
9. "Night of the Long Knives"
10. "Spellbound"

foobar2000 1.2.9 / Dynamic Range Meter 1.1.1
log date: 2017-12-18 23:36:01

––––––––––––––––––––––––––––––––––––––––
Analyzed: AC/DC / For Those About To Rock (We Salute You)
––––––––––––––––––––––––––––––––––––––––

DR Peak RMS Duration Track
––––––––––––––––––––––––––––––––––––––––
DR13 0.00 dB -14.17 dB 5:42 01-For Those About To Rock (We Salute You)
DR12 0.00 dB -13.89 dB 3:25 02-I Put The Finger On You
DR13 0.00 dB -14.54 dB 3:52 03-Let's Get It Up
DR12 0.00 dB -13.75 dB 3:30 04-Inject The Venom
DR12 0.00 dB -13.06 dB 3:23 05-Snowballed
DR12 -0.05 dB -13.33 dB 4:22 06-Evil Walks
DR12 0.00 dB -13.57 dB 3:18 07-C.O.D.
DR12 0.00 dB -14.29 dB 4:22 08-Breaking The Rules
DR13 0.00 dB -13.78 dB 3:25 09-Night Of The Long Knives
DR12 0.00 dB -13.45 dB 4:29 10-Spellbound
––––––––––––––––––––––––––––––––––––––––

Number of tracks: 10
Official DR value: DR12

Samplerate: 44100 Hz
Channels: 2
Bits per sample: 16
Bitrate: 933 kbps
Codec: FLAC
================================================================================



AC/DC: Discography (1975 - 2014) [Vinyl Rip 16/44 & mp3-320]

Tracklist VNL10 - 1983 - Flick Of The Switch:
APLP.061, Australia

1. "Rising Power"
2. "This House Is on Fire"
3. "Flick of the Switch"
4. "Nervous Shakedown"
5. "Landslide"
6. "Guns for Hire"
7. "Deep in the Hole"
8. "Bedlam in Belgium"
9. "Badlands"
10. "Brain Shake"

foobar2000 1.2.9 / Dynamic Range Meter 1.1.1
log date: 2017-12-18 23:36:13

––––––––––––––––––––––––––––––––––––––––
Analyzed: AC/DC / Flick Of The Switch
––––––––––––––––––––––––––––––––––––––––

DR Peak RMS Duration Track
––––––––––––––––––––––––––––––––––––––––
DR12 0.00 dB -13.39 dB 3:43 01-Rising Power
DR13 0.00 dB -13.68 dB 3:23 02-This House Is On Fire
DR11 0.00 dB -12.26 dB 3:13 03-Flick Of The Switch
DR13 0.00 dB -14.01 dB 4:26 04-Nervous Shakedown
DR11 0.00 dB -12.89 dB 3:56 05-Landslide
DR12 0.00 dB -12.87 dB 3:24 06-Guns For Hire
DR12 0.00 dB -13.33 dB 3:19 07-Deep In The Hole
DR12 0.00 dB -13.34 dB 3:51 08-Bedlam In Belgium
DR12 -0.30 dB -13.57 dB 3:38 09-Badlands
DR12 0.00 dB -12.99 dB 4:01 10-Brain Shake
––––––––––––––––––––––––––––––––––––––––

Number of tracks: 10
Official DR value: DR12

Samplerate: 44100 Hz
Channels: 2
Bits per sample: 16
Bitrate: 944 kbps
Codec: FLAC
================================================================================



AC/DC: Discography (1975 - 2014) [Vinyl Rip 16/44 & mp3-320]

Tracklist VNL11 - 1985 - Fly On The Wall:
APLP.431066, Australia

1. "Fly on the Wall"
2. "Shake Your Foundations"
3. "First Blood"
4. "Danger"
5. "Sink the Pink"
6. "Playing With Girls"
7. "Stand Up"
8. "Hell or High Water"
9. "Back in Business"
10. "Send for the Man"

foobar2000 1.2.9 / Dynamic Range Meter 1.1.1
log date: 2017-12-18 23:36:25

––––––––––––––––––––––––––––––––––––––––
Analyzed: AC/DC / Fly On The Wall
––––––––––––––––––––––––––––––––––––––––

DR Peak RMS Duration Track
––––––––––––––––––––––––––––––––––––––––
DR13 0.00 dB -14.34 dB 3:44 01-Fly On The Wall
DR12 0.00 dB -13.47 dB 4:11 02-Shake Your Foundations
DR12 0.00 dB -14.13 dB 3:46 03-First Blood
DR13 0.00 dB -14.51 dB 4:22 04-Danger
DR13 0.00 dB -13.87 dB 4:14 05-Sink The Pink
DR13 0.00 dB -13.72 dB 3:45 06-Playing With Girls
DR13 0.00 dB -14.75 dB 3:54 07-Stand Up
DR12 0.00 dB -13.35 dB 4:32 08-Hell Or High Water
DR13 -0.03 dB -14.35 dB 4:24 09-Back In Business
DR13 0.00 dB -15.11 dB 3:27 10-Send For The Man
––––––––––––––––––––––––––––––––––––––––

Number of tracks: 10
Official DR value: DR13

Samplerate: 44100 Hz
Channels: 2
Bits per sample: 16
Bitrate: 964 kbps
Codec: FLAC
================================================================================



AC/DC: Discography (1975 - 2014) [Vinyl Rip 16/44 & mp3-320]

Tracklist VNL12 - 1986 - Who Made Who:
APLP.431068, Australia

01. Who Made Who
02. You Shook Me All Night Long
03. D.T.
04. Sink The Pink
05. Ride On
06. Hells Bells
07. Shake Your Foundations
08. Chase The Ace
09. For Those About To Rock (We Salute You)

foobar2000 1.2.9 / Dynamic Range Meter 1.1.1
log date: 2017-12-18 23:36:35

––––––––––––––––––––––––––––––––––––––––
Analyzed: AC/DC / Who Made Who
––––––––––––––––––––––––––––––––––––––––

DR Peak RMS Duration Track
––––––––––––––––––––––––––––––––––––––––
DR12 0.00 dB -13.20 dB 3:27 01-Who Made Who
DR13 0.00 dB -13.99 dB 3:31 02-You Shook Me All Night Long
DR12 -0.27 dB -15.87 dB 2:54 03-D.T.
DR13 0.00 dB -14.36 dB 4:13 04-Sink The Pink
DR13 -0.06 dB -16.38 dB 5:51 05-Ride On
DR13 0.00 dB -14.61 dB 5:13 06-Hells Bells
DR13 0.00 dB -14.83 dB 3:53 07-Shake Your Foundations
DR13 0.00 dB -14.61 dB 3:02 08-Chase The Ace
DR13 0.00 dB -15.16 dB 5:46 09-For Those About To Rock (We Salute You)
––––––––––––––––––––––––––––––––––––––––

Number of tracks: 9
Official DR value: DR13

Samplerate: 44100 Hz
Channels: 2
Bits per sample: 16
Bitrate: 909 kbps
Codec: FLAC
================================================================================



AC/DC: Discography (1975 - 2014) [Vinyl Rip 16/44 & mp3-320]

Tracklist VNL13 - 1988 - Blow Up Your Video:
APLP.072, Australia

1. "Heatseeker"
2. "That's the Way I Wanna Rock 'n' Roll"
3. "Meanstreak"
4. "Go Zone"
5. "Kissin' Dynamite"
6. "Nick of Time"
7. "Some Sin for Nuthin'"
8. "Ruff Stuff"
9. "Two's Up"
10. "This Means War"

foobar2000 1.2.9 / Dynamic Range Meter 1.1.1
log date: 2017-12-18 23:36:51

––––––––––––––––––––––––––––––––––––––––
Analyzed: AC/DC / Blow Up Your Video
––––––––––––––––––––––––––––––––––––––––

DR Peak RMS Duration Track
––––––––––––––––––––––––––––––––––––––––
DR14 0.00 dB -15.17 dB 3:51 01-Heatseeker
DR13 0.00 dB -15.81 dB 3:46 02-That's The Way I Wanna Rock N Roll
DR14 -0.52 dB -16.18 dB 4:09 03-Mean Streak
DR13 0.00 dB -15.42 dB 4:27 04-Go Zone
DR14 0.00 dB -15.92 dB 3:59 05-Kissin' Dynamite
DR13 0.00 dB -15.46 dB 4:19 06-Nick Of Time
DR14 0.00 dB -15.24 dB 4:12 07-Some Sin For Nuthin'
DR14 0.00 dB -16.28 dB 4:31 08-Ruff Stuff
DR14 0.00 dB -15.79 dB 5:21 09-Two's Up
DR12 0.00 dB -14.51 dB 4:25 10-This Means War
––––––––––––––––––––––––––––––––––––––––

Number of tracks: 10
Official DR value: DR13

Samplerate: 44100 Hz
Channels: 2
Bits per sample: 16
Bitrate: 951 kbps
Codec: FLAC
================================================================================



AC/DC: Discography (1975 - 2014) [Vinyl Rip 16/44 & mp3-320]

Tracklist VNL14 - 1990 - The Razor's Edge:
467462 1, Australia

1. "Thunderstruck"
2. "Fire Your Guns"
3. "Moneytalks"
4. "The Razors Edge"
5. "Mistress for Christmas"
6. "Rock Your Heart Out"
7. "Are You Ready"
8. "Got You by the Balls"
9. "Shot of Love"
10. "Lets Make It"
11. "Goodbye & Good Riddance to Bad Luck"
12. "If You Dare"

foobar2000 1.2.9 / Dynamic Range Meter 1.1.1
log date: 2017-12-18 23:37:05

––––––––––––––––––––––––––––––––––––––––
Analyzed: AC/DC / The Razor's Edge
––––––––––––––––––––––––––––––––––––––––

DR Peak RMS Duration Track
––––––––––––––––––––––––––––––––––––––––
DR13 0.00 dB -15.26 dB 4:52 01-Thunderstruck
DR13 0.00 dB -13.84 dB 2:54 02-Fire Your Guns
DR13 0.00 dB -14.57 dB 3:46 03-Moneytalks
DR13 -0.08 dB -15.44 dB 4:23 04-The Razors Edge
DR13 0.00 dB -16.29 dB 4:00 05-Mistress For Christmas
DR13 0.00 dB -15.04 dB 4:07 06-Rock Your Heart Out
DR13 0.00 dB -15.42 dB 4:10 07-Are You Ready
DR14 0.00 dB -15.87 dB 4:30 08-Got You By The Balls
DR14 0.00 dB -15.12 dB 3:57 09-Shot Of Love
DR13 -0.02 dB -15.21 dB 3:32 10-Let's Make It
DR13 -0.04 dB -15.51 dB 3:14 11-Goodbye And Good Riddance To Bad Luck
DR13 0.00 dB -14.85 dB 3:09 12-If You Dare
––––––––––––––––––––––––––––––––––––––––

Number of tracks: 12
Official DR value: DR13

Samplerate: 44100 Hz
Channels: 2
Bits per sample: 16
Bitrate: 955 kbps
Codec: FLAC
================================================================================



AC/DC: Discography (1975 - 2014) [Vinyl Rip 16/44 & mp3-320]

Tracklist VNL15 - 1995 - Ballbreake:
61780-1, USA

01. "Hard As A Rock"
02. "Cover You In Oil"
03. "The Furor"
04. "Boogie Man"
05. "The Honey Roll"
06. "Burnin' Alive"
07. "Hail Caesar"
08. "Love Bomb"
09. "Caught With You Pants Down"
10. "Whiskey On The Rocks"
11. "Ballbreaker"

foobar2000 1.2.9 / Dynamic Range Meter 1.1.1
log date: 2017-12-18 23:37:20

––––––––––––––––––––––––––––––––––––––––
Analyzed: AC/DC / Ballbreaker
––––––––––––––––––––––––––––––––––––––––

DR Peak RMS Duration Track
––––––––––––––––––––––––––––––––––––––––
DR13 0.00 dB -15.64 dB 4:31 01-Hard As A Rock
DR13 0.00 dB -15.45 dB 4:33 02-Cover You In Oil
DR13 -0.08 dB -15.25 dB 4:10 03-The Furor
DR13 0.00 dB -15.42 dB 4:07 04-Boogie Man
DR13 0.00 dB -14.26 dB 5:35 05-The Honey Roll
DR13 -0.04 dB -15.01 dB 5:05 06-Burnin' Alive
DR13 -0.15 dB -15.76 dB 5:15 07-Hail Caesar
DR12 -0.25 dB -14.48 dB 3:14 08-Love Bomb
DR13 -0.04 dB -14.80 dB 4:15 09-Caught With You Pants Down
DR13 -0.39 dB -15.41 dB 4:35 10-Whiskey On The Rocks
DR13 -0.07 dB -14.54 dB 4:33 11-Ballbreaker
––––––––––––––––––––––––––––––––––––––––

Number of tracks: 11
Official DR value: DR13

Samplerate: 44100 Hz
Channels: 2
Bits per sample: 16
Bitrate: 916 kbps
Codec: FLAC
================================================================================



AC/DC: Discography (1975 - 2014) [Vinyl Rip 16/44 & mp3-320]

Tracklist VNL16 - 2000 - Stiff Upper Lip:
7559-62494-1, Germany

01. "Stiff Upper Lip"
02. "Meltdown"
03. "House of Jazz"
04. "Hold Me Back"
05. "Safe in New York City"
06. "Can't Stand Still"
07. "Can't Stop Rock 'n' Roll"
08. "Satellite Blues"
09. "Damned"
10. "Come and Get It"
11. "All Screwed Up"
12. "Give It Up"

foobar2000 1.2.9 / Dynamic Range Meter 1.1.1
log date: 2017-12-18 23:37:33

––––––––––––––––––––––––––––––––––––––––
Analyzed: AC/DC / Stiff Upper Lip
––––––––––––––––––––––––––––––––––––––––

DR Peak RMS Duration Track
––––––––––––––––––––––––––––––––––––––––
DR12 0.00 dB -14.17 dB 3:35 01-Stiff Upper Lip
DR11 -0.11 dB -13.59 dB 3:41 02-Meltdown
DR12 -0.34 dB -14.23 dB 3:57 03-House Of Jazz
DR12 -0.09 dB -14.75 dB 4:00 04-Hold Me Back
DR12 -0.43 dB -14.03 dB 4:00 05-Safe In New York City
DR13 0.00 dB -15.02 dB 3:40 06-Can't Stand Still
DR12 -0.21 dB -14.30 dB 4:03 07-Can't Stop Rock 'n' Roll
DR11 0.00 dB -14.33 dB 3:47 08-Satellite Blues
DR12 -0.06 dB -14.39 dB 3:53 09-Damned
DR11 -0.40 dB -14.12 dB 4:04 10-Come And Get It
DR12 -0.34 dB -14.45 dB 4:37 11-All Screwed Up
DR11 -0.60 dB -13.67 dB 3:55 12-Give It Up
––––––––––––––––––––––––––––––––––––––––

Number of tracks: 12
Official DR value: DR12

Samplerate: 44100 Hz
Channels: 2
Bits per sample: 16
Bitrate: 952 kbps
Codec: FLAC
================================================================================



AC/DC: Discography (1975 - 2014) [Vinyl Rip 16/44 & mp3-320]

Tracklist VNL17 - 2008 - Black Ice:
88697 38377 1, EU

01. "Rock N Roll Train"
02. "Skies On Fire"
03. "Big Jack"
04. "Anything Goes"
05. "War Machine"
06. "Smash N Grab"
07. "Spoilin' For A Fight"
08. "Wheels"
09. "Decibel"
10. "Stormy May Day"
11. "She Likes Rock N Roll"
12. "Money Made"
13. "Rock N Roll Dream"
14. "Rocking All The Way"
15. "Black Ice"

foobar2000 1.2.9 / Dynamic Range Meter 1.1.1
log date: 2017-12-18 23:37:48

––––––––––––––––––––––––––––––––––––––––
Analyzed: AC/DC / Black Ice
––––––––––––––––––––––––––––––––––––––––

DR Peak RMS Duration Track
––––––––––––––––––––––––––––––––––––––––
DR11 -0.29 dB -13.20 dB 4:20 01-Rock N Roll Train
DR12 0.00 dB -13.53 dB 3:34 02-Skies On Fire
DR12 -0.44 dB -13.49 dB 3:57 03-Big Jack
DR13 0.00 dB -14.59 dB 3:22 04-Anything Goes
DR11 0.00 dB -13.05 dB 3:10 05-War Machine
DR11 -0.17 dB -13.26 dB 4:07 06-Smash N Grab
DR12 0.00 dB -13.34 dB 3:17 07-Spoilin' For A Fight
DR11 -0.11 dB -12.88 dB 3:31 08-Wheels
DR11 -0.03 dB -13.00 dB 3:34 09-Decibel
DR13 0.00 dB -15.16 dB 3:09 10-Stormy May Day
DR11 -0.08 dB -13.31 dB 3:53 11-She Likes Rock N Roll
DR12 -0.03 dB -14.30 dB 4:16 12-Money Made
DR12 -0.40 dB -15.01 dB 4:41 13-Rock N Roll Dream
DR12 0.00 dB -13.05 dB 3:22 14-Rocking All The Way
DR11 0.00 dB -12.94 dB 3:26 15-Black Ice
––––––––––––––––––––––––––––––––––––––––

Number of tracks: 15
Official DR value: DR12

Samplerate: 44100 Hz
Channels: 2
Bits per sample: 16
Bitrate: 956 kbps
Codec: FLAC
================================================================================



AC/DC: Discography (1975 - 2014) [Vinyl Rip 16/44 & mp3-320]

Tracklist VNL18 - 2014 - Rock or Bust:
88875 03484 1, EU

01. Rock Or Bust
02. Play Ball
03. Rock The Blues Away
04. Miss Adventure
05. Dogs Of War
06. Got Some Rock & Roll Thunder
07. Hard Times
08. Baptism By Fire
09. Rock The House
10. Sweet Candy
11. Emission Control

foobar2000 1.2.9 / Dynamic Range Meter 1.1.1
log date: 2017-12-18 23:37:59

––––––––––––––––––––––––––––––––––––––––
Analyzed: AC/DC / Rock or Bust
––––––––––––––––––––––––––––––––––––––––

DR Peak RMS Duration Track
––––––––––––––––––––––––––––––––––––––––
DR11 0.00 dB -12.66 dB 3:04 01-Rock Or Bust
DR10 -0.22 dB -12.00 dB 2:46 02-Play Ball
DR11 0.00 dB -12.85 dB 3:25 03-Rock The Blues Away
DR11 0.00 dB -13.40 dB 2:57 04-Miss Adventure
DR11 0.00 dB -14.07 dB 3:36 05-Dogs Of War
DR12 -0.02 dB -14.00 dB 3:22 06-Got Some Rock & Roll Thunder
DR11 -0.63 dB -12.62 dB 2:45 07-Hard Times
DR11 -0.26 dB -12.95 dB 3:30 08-Baptism By Fire
DR11 -0.35 dB -12.80 dB 2:43 09-Rock The House
DR12 -0.17 dB -13.96 dB 3:10 10-Sweet Candy
DR12 0.00 dB -13.78 dB 3:42 11-Emission Control
––––––––––––––––––––––––––––––––––––––––

Number of tracks: 11
Official DR value: DR11

Samplerate: 44100 Hz
Channels: 2
Bits per sample: 16
Bitrate: 1018 kbps
Codec: FLAC
================================================================================




Original ripper: Valeron
Original format: 24/192
Vinyl Condition: Near Mint to Mint
Direct Drive Turntable: Dual 505-4 + Benz-Micro Glider SH, Pioneer PL-7L + ZYX R1000 Airy 3 gold
Amplifier: PS audio Phono Stage + Tube Preamp (Telefunken)
ADC: TASCAM HS-P82, Motu mk3

Downsampled to 16/44

Pink Floyd - Echoes: The Best Of Pink Floyd (2001) [Vinyl Rip 16/44]
Alice Cooper - Paranormal (2017) [Vinyl Rip 16/44 & mp3-320]
Manfred Mann's Earth Band: Collection (1967 - 2014) [Vinyl Rip 16/44 & mp3-320]
Rainbow: Discography (1975 - 1986) [Vinyl Rip 16/44 & mp3-320]



Janis Joplin – The Classic LP Collection (2011) [Vinyl Rip 16/44 & mp3-320]
Donovan: Collection (1965 - 1971) [Vinyl Rip 16/44 & mp3-320]
Amanda Lear: Collection (1978 - 1986) [Vinyl Rip 16/44 & mp3-320]
The Byrds - The Byrds' Greatest Hits (1967) [Vinyl Rip 16/44 & mp3-320]
Space & Didier Marouani: Collection (1977 - 1987) [Vinyl Rip 16/44 & mp3-320]
The Rolling Stones - Double Deluxe (1970) [Vinyl Rip 16/44 & mp3-320]
Rod Stewart: Collection (1969 - 1988) [Vinyl Rip 16/44 & mp3-320]
Rick Wakeman: Collection (1973 - 1981) [Vinyl Rip 16/44 & mp3-320]
Kraftwerk: Collection (1974 - 1991) [Vinyl Rip 16/44 & mp3-320]
Jethro Tull - 20 Years Of J. T. The Definitive Collection (1988) [Vinyl Rip 16/44 & mp3-320]
Testament: Discography (1987-2016) [Vinyl Rip 16/44 & mp3-320]
Roger Waters: Vinyl Collection (1970 - 1992) [Vinyl Rip 16/44 & mp3-320]
Rare Earth: Collection (1969 - 1978) [Vinyl Rip 16/44 & mp3-320]
David Gilmour - Rattle That Lock (2015) [Vinyl Rip 16/44 & mp3-320]
Tarja: Collection (2007 - 2016) [Vinyl Rip 16/44 & mp3-320]
Depeche Mode: Collection (1981 - 2013) [Vinyl Rip 16/44 & mp3-320]
Pink Floyd: Remastered Collection (1967 - 2016) [Vinyl Rip 16/44 & mp3-320]
Sade: Discography (1984 - 2010) [Vinyl Rip 16/44 & MP3-320]
Deep Purple: Collection (1968 - 2017) [Vinyl Rip 16/44 & mp3-320]
Queen: Collection (1973 - 1995) [Vinyl Rip 16/44 & MP3-320]
The Cars: Collection (1978 - 1987) [Vinyl Rip 16/44 & mp3-320]
Metallica: Discography (1983 - 2016) [Vinyl Rip 16/44 & mp3-320]
Bon Jovi - The Albums (2017) [Vinyl Rip 16/44 & mp3-320, Limited Edition Box set]
The Doors: Collection (1967 - 1971) [Vinyl Rip 16/44 & mp3-320]
Black Sabbath: Collection (1970 - 2013) [Vinyl Rip 16/44 & mp3-320]
The Beatles: Discography (1963 - 1988) [Vinyl Rip 16/44 & mp3-320]
Joe Cocker: Collection (1969 - 1991) [Vinyl Rip 16/44 & mp3-320]
Frank Zappa: Collection (1969 - 1981) [Vinyl Rip 16/44 & mp3-320]
Ten Years After: Collection (1967 - 1974) [Vinyl Rip 16/44 & mp3-320]
Dire Straits: Discography (1978 - 1991) [Vinyl Rip 16/44 & mp3-320]
Bonnie Tyler: Collection (1977 - 1986) [Vinyl Rip 16/44 & mp3-320]
The Beatles: Stereo Vinyl Box Set (2012) [Vinyl Rip 16/44 & mp3-320]
Wolfgang Amadeus Mozart - Die Violin Konzerte (1968) [Vinyl Rip 16/44 & mp3-320]
Eagles - The Studio Albums 1972-1979 (2013) [Vinyl Rip 16/44 & mp3-320]
Pink Floyd: Discography (1967 - 2014) [Vinyl Rip 16/44 & mp3-320]
Led Zeppelin: Discography (1969 - 1982) [Vinyl Rip 16/44 & mp3-320]
Manowar: Collection (1982 - 2012) [Vinyl Rip 16/44 & mp3-320]
A-HA: Collection (1985-2015) [Vinyl Rip 16/44 & mp3-320]
Decca, Wiener Philharmoniker - 6 Classic Analogue LPs (2014) [Vinyl Rip 16/44]
Beethoven - Chicago Symphony Orchestra / Sir Georg Solti ‎– The Nine Symphonies (1975) [Vinyl Rip 16/44 & mp3-320]
Scorpions: Collection (1974 - 2015) [Vinyl Rip 16/44 & mp3-320]

AC/DC or AC/DC in my Blog

Download AC/DC: Discography (1975 - 2014):