Subcategories

AC/DC: No Bull (1996) Director's Cut

Posted By: Mindsnatcher
AC/DC: No Bull (1996) Director's Cut

AC/DC: No Bull (1996) Director's Cut
Full Blu-ray | bdmv/m2ts | AVC @ 48.0 Mbps | 1920 x 1080 | 2hr 3min | 44.0 GB (including EXTRAS)
Audio: English AC-3 True HD 6 Channel @ 640 Kbps | Subtitles: none
Genre: Music, Concert, Hard rock, Rock n Roll


AC/DC: No Bull (1996) Director's Cut
AC/DC: No Bull (1996) Director's Cut
AC/DC: No Bull (1996) Director's Cut



Video
ID : 4113 (0x1011)
Menu ID : 1 (0x1)
Format : VC-1
Format profile : Advanced@L3
Codec ID : 234
Duration : 2h 3mn
Bit rate : 31.0 Mbps
Width : 1 920 pixels
Height : 1 080 pixels
Display aspect ratio : 16:9
Frame rate : 29.970 fps
Color space : YUV
Chroma subsampling : 4:2:0
Bit depth : 8 bits
Scan type : Interlaced
Scan order : Top Field First
Compression mode : Lossy
Bits/(Pixel*Frame) : 0.499
Stream size : 26.8 GiB (82%)

Audio #1
ID : 4352 (0x1100)
Menu ID : 1 (0x1)
Format : PCM
Format settings, Endianness : Big
Format settings, Sign : Signed
Muxing mode : Blu-ray
Codec ID : 128
Duration : 2h 3mn
Bit rate mode : Constant
Bit rate : 4 608 Kbps
Channel(s) : 2 channels
Channel positions : Front: L R
Sampling rate : 96.0 KHz
Bit depth : 24 bits
Stream size : 3.98 GiB (12%)

Audio #2
ID : 4353 (0x1101)
Menu ID : 1 (0x1)
Format : TrueHD / AC-3
Mode extension : CM (complete main)
Format settings, Endianness : Big
Muxing mode : Stream extension
Codec ID : 131
Duration : 2h 3mn
Bit rate mode : Variable / Constant
Bit rate : 640 Kbps
Maximum bit rate : 9 504 Kbps
Channel(s) : 6 channels
Channel positions : Front: L C R, Side: L R, LFE
Sampling rate : 96.0 KHz / 48.0 KHz
Bit depth : 16 bits
Stream size : 566 MiB (2%)


Concert filmed in 1996 in the Plaza de Toros de Las Ventas, in Madrid, Spain, on Super 16 film.


Tracks:

1 - Back In Black
2 - Shot Down In Flames
3 - Thunderstruck
4 - Girl's Got Rhythm
5 - Hard As A Rock
6 - Shoot To Thrill
7 - Boogie Man
8 - Hail Caesar
9 - Hells Bells
10 - Dog Eat Dog
11 - The Jack
12 - Ballbreaker
13 - Rock And Roll Ain't Noise Pollution
14 - Dirty Deeds Done Dirt Cheap
15 - You Shook Me All Night Long
16 - Whole Lotta Rosie
17 - T -N -T -
18 - Let There Be Rock
19 - Highway To Hell
20 - For Those About To Rock (We Salute You)

and more

MORE AC/DC:

1. AC/DC: Live at River Plate (2009)
2. AC/DC: Live at Live at Donington (1991)
3. AC/DC Family Jewels (2005)
4. AC/DC: Let There Be Rock (1980)


ALL MY PUBLICATIONS
NITROFLARE