Subcategories

A Flock Of Seagulls - Remixes & Rarities (2017)

Posted By: SERTiL
A Flock Of Seagulls - Remixes & Rarities (2017)

A Flock Of Seagulls - Remixes & Rarities
EAC Rip | FLAC (tracks)+cue, log, m3u, artwork | 136:39 min | 946 MB
Label: Cherry Pop - CRPOPD 179 | Tracks: 27 | Rls.date: 2017
New Wave, Synth-Pop

A unique 2CD collection sourced from A Flock Of Seagulls' 7" and 12" singles and featuring rare mixes, remixes and b-sides - many appearing on CD for the first time in the UK. The tracks cover the band's most successful period of 1982 to 1986 and includes seven 7" versions, four 12" versions and numerous remixes and extended versions. We have sourced the material from the original production master tapes. Originally hailing from Liverpool, the band took their name from a line in the song 'Toiler On The Sea' by The Stranglers. The band signed to Jive Records and released 5 studio albums spanning 1982 to 1995. The band enjoyed success around the World but America was a particularly fruitful continent for them. The band hit the upper reaches of the U.S. Hot 100, U.S. Mainstream Rock and U.S Dance charts with 'I Ran (So Far Away)' and 'Wishing (If I Had A Photograph Of You). There remains a lasting interest in the band and their musical legacy.

A Flock Of Seagulls - Remixes & Rarities (2017)


TRACKLIST CD1
1. I Ran (So Far Away) (U.S. 7" Version)
2. Space Age Love Song (7" Version)
3. Wishing (If I Had a Photograph of You) (7" Version)
4. Nightmares (7" Version)
5. Rosenmontag (Shorter Version)
6. Transfer Affection (7" Version)
7. I Ran (Live)
8. It's Not Me Talking (7" Version)
9. Never Again (7" Version)
10. Wishing (If I Had a Photograph of You) (Long Version)
11. Nightmares (12" Version)
12. Committed (Short Version)
13. The Traveller (Live)
14. The More You Live the More You Love (Full Moon Mix)

Exact Audio Copy V1.0 beta 4 from 7. December 2014

EAC extraction logfile from 27. March 2017, 12:12

A Flock Of Seagulls / Remixes & Rarities (CD1)

Used drive : MATSHITADVD-RAM UJ8D2Q Adapter: 1 ID: 0

Read mode : Secure
Utilize accurate stream : Yes
Defeat audio cache : Yes
Make use of C2 pointers : No

Read offset correction : 103
Overread into Lead-In and Lead-Out : No
Fill up missing offset samples with silence : Yes
Delete leading and trailing silent blocks : No
Null samples used in CRC calculations : Yes
Used interface : Native Win32 interface for Win NT & 2000
Gap handling : Appended to previous track

Used output format : User Defined Encoder
Selected bitrate : 896 kBit/s
Quality : High
Add ID3 tag : No
Command line compressor : C:\Program Files (x86)\Exact Audio Copy\Flac\flac.exe
Additional command line options : -8 -V -T "ARTIST=%artist%" -T "TITLE=%title%" -T "ALBUM=%albumtitle%" -T "DATE=%year%" -T "TRACKNUMBER=%tracknr%" -T "TOTALTRACKS=%numtracks%" -T "GENRE=%genre%" -T "ALBUMARTIST=%albumartist%" -T "ALBUM ARTIST=%albumartist%" -T "COMMENT=EAC Secure Mode, Test & Copy, AccurateRip, FLAC -8" %source%


TOC of the extracted CD

Track | Start | Length | Start sector | End sector
––––––––––––––––––––––––––––-
1 | 0:00.00 | 3:40.25 | 0 | 16524
2 | 3:40.25 | 3:22.00 | 16525 | 31674
3 | 7:02.25 | 4:12.52 | 31675 | 50626
4 | 11:15.02 | 4:12.23 | 50627 | 69549
5 | 15:27.25 | 4:04.55 | 69550 | 87904
6 | 19:32.05 | 4:18.65 | 87905 | 107319
7 | 23:50.70 | 5:15.35 | 107320 | 130979
8 | 29:06.30 | 3:35.61 | 130980 | 147165
9 | 32:42.16 | 3:43.20 | 147166 | 163910
10 | 36:25.36 | 9:10.59 | 163911 | 205219
11 | 45:36.20 | 5:04.39 | 205220 | 228058
12 | 50:40.59 | 2:53.26 | 228059 | 241059
13 | 53:34.10 | 3:31.52 | 241060 | 256936
14 | 57:05.62 | 6:13.45 | 256937 | 284956


Track 1

Filename C:\Users\paul\AppData\Local\VirtualStore\Program Files (x86)\Exact Audio Copy\Flac\01 - I Ran (So Far Away) (U.S. 7'' Version).wav

Pre-gap length 0:00:02.00

Peak level 99.6 %
Extraction speed 2.5 X
Track quality 100.0 %
Test CRC 6F2C8D99
Copy CRC 6F2C8D99
Track not present in AccurateRip database
Copy OK

Track 2

Filename C:\Users\paul\AppData\Local\VirtualStore\Program Files (x86)\Exact Audio Copy\Flac\02 - Space Age Love Song (7'' Version).wav

Pre-gap length 0:00:00.67

Peak level 99.7 %
Extraction speed 2.6 X
Track quality 100.0 %
Test CRC 76FB1187
Copy CRC 76FB1187
Track not present in AccurateRip database
Copy OK

Track 3

Filename C:\Users\paul\AppData\Local\VirtualStore\Program Files (x86)\Exact Audio Copy\Flac\03 - Wishing (If I Had A Photgraph Of You) (7'' Version).wav

Pre-gap length 0:00:01.13

Peak level 99.6 %
Extraction speed 2.9 X
Track quality 100.0 %
Test CRC 394670C2
Copy CRC 394670C2
Track not present in AccurateRip database
Copy OK

Track 4

Filename C:\Users\paul\AppData\Local\VirtualStore\Program Files (x86)\Exact Audio Copy\Flac\04 - Nightmares (7'' Version).wav

Pre-gap length 0:00:01.11

Peak level 99.6 %
Extraction speed 2.1 X
Track quality 99.9 %
Test CRC 7495984E
Copy CRC 7495984E
Track not present in AccurateRip database
Copy OK

Track 5

Filename C:\Users\paul\AppData\Local\VirtualStore\Program Files (x86)\Exact Audio Copy\Flac\05 - Rosenmontag (Shorter Version).wav

Pre-gap length 0:00:01.22

Peak level 99.6 %
Extraction speed 2.7 X
Track quality 100.0 %
Test CRC FFF14DB5
Copy CRC FFF14DB5
Track not present in AccurateRip database
Copy OK

Track 6

Filename C:\Users\paul\AppData\Local\VirtualStore\Program Files (x86)\Exact Audio Copy\Flac\06 - Transfer Affection (7'' Version).wav

Pre-gap length 0:00:01.28

Peak level 99.6 %
Extraction speed 3.6 X
Track quality 100.0 %
Test CRC 8BA31B56
Copy CRC 8BA31B56
Track not present in AccurateRip database
Copy OK

Track 7

Filename C:\Users\paul\AppData\Local\VirtualStore\Program Files (x86)\Exact Audio Copy\Flac\07 - I Ran (So Far Away) (Live).wav

Pre-gap length 0:00:01.13

Peak level 99.6 %
Extraction speed 3.8 X
Track quality 100.0 %
Test CRC 39E05A21
Copy CRC 39E05A21
Track not present in AccurateRip database
Copy OK

Track 8

Filename C:\Users\paul\AppData\Local\VirtualStore\Program Files (x86)\Exact Audio Copy\Flac\08 - (It's Not Me) Talking (7'' Version).wav

Pre-gap length 0:00:01.06

Peak level 99.6 %
Extraction speed 2.8 X
Track quality 99.9 %
Test CRC A255DA09
Copy CRC A255DA09
Track not present in AccurateRip database
Copy OK

Track 9

Filename C:\Users\paul\AppData\Local\VirtualStore\Program Files (x86)\Exact Audio Copy\Flac\09 - Never Again (7'' Version).wav

Pre-gap length 0:00:01.17

Peak level 99.6 %
Extraction speed 4.1 X
Track quality 100.0 %
Test CRC 1A3DA70A
Copy CRC 1A3DA70A
Track not present in AccurateRip database
Copy OK

Track 10

Filename C:\Users\paul\AppData\Local\VirtualStore\Program Files (x86)\Exact Audio Copy\Flac\10 - Wishing (If I Had A Photgraph Of You) (Long Version).wav

Pre-gap length 0:00:00.73

Peak level 99.6 %
Extraction speed 3.9 X
Track quality 99.9 %
Test CRC DBBDF06A
Copy CRC DBBDF06A
Track not present in AccurateRip database
Copy OK

Track 11

Filename C:\Users\paul\AppData\Local\VirtualStore\Program Files (x86)\Exact Audio Copy\Flac\11 - Nightmares (12'' Version).wav

Pre-gap length 0:00:01.13

Peak level 99.6 %
Extraction speed 4.5 X
Track quality 100.0 %
Test CRC F3E5CC80
Copy CRC F3E5CC80
Track not present in AccurateRip database
Copy OK

Track 12

Filename C:\Users\paul\AppData\Local\VirtualStore\Program Files (x86)\Exact Audio Copy\Flac\12 - Committed (Short Version).wav

Pre-gap length 0:00:01.19

Peak level 99.6 %
Extraction speed 4.2 X
Track quality 100.0 %
Test CRC 63DACAAD
Copy CRC 63DACAAD
Track not present in AccurateRip database
Copy OK

Track 13

Filename C:\Users\paul\AppData\Local\VirtualStore\Program Files (x86)\Exact Audio Copy\Flac\13 - The Traveller (Live).wav

Pre-gap length 0:00:01.05

Peak level 99.6 %
Extraction speed 4.7 X
Track quality 100.0 %
Test CRC E40B7989
Copy CRC E40B7989
Track not present in AccurateRip database
Copy OK

Track 14

Filename C:\Users\paul\AppData\Local\VirtualStore\Program Files (x86)\Exact Audio Copy\Flac\14 - The More You Live The More You Love (Full Moon Mix).wav

Pre-gap length 0:00:01.02

Peak level 99.6 %
Extraction speed 4.6 X
Track quality 100.0 %
Test CRC 312CF1BC
Copy CRC 312CF1BC
Track not present in AccurateRip database
Copy OK


None of the tracks are present in the AccurateRip database

No errors occurred

End of status report

–– CUETools DB Plugin V2.1.4

[CTDB TOCID: Bkg0qtRvx2ryTPNnv.8coQCDOYE-] found
Submit result: already submitted
Track | CTDB Status
1 | (2/2) Accurately ripped
2 | (2/2) Accurately ripped
3 | (2/2) Accurately ripped
4 | (2/2) Accurately ripped
5 | (2/2) Accurately ripped
6 | (2/2) Accurately ripped
7 | (2/2) Accurately ripped
8 | (2/2) Accurately ripped
9 | (2/2) Accurately ripped
10 | (2/2) Accurately ripped
11 | (2/2) Accurately ripped
12 | (2/2) Accurately ripped
13 | (2/2) Accurately ripped
14 | (2/2) Accurately ripped


==== Log checksum BAB2BD1163E7860DE2E8E33C761BF2434959D59C64AB6836B0D97EED99BE250F ====


A Flock Of Seagulls - Remixes & Rarities (2017)


TRACKLIST CD2
1. I Ran (Longer Version)
2. Never Again (the Dancer) (12" Version)
3. Heartbeat Like a Drum (Full Length Version)
4. Wishing (If I Had a Photograph of You) (U.S. Edit 12" Promo Version)
5. The Flight of Yuri Gagarin (Full Length Version)
6. Rosenmontag (Long Version)
7. Nightmares (U.S. 12" Promo Version)
8. I Ran (So Far Away) (Edited Version)
9. Never Again (the Dancer) (Re-Mix)
10. Space Age Love Song (Live)
11. Wishing (If I Had a Photograph of You) (Short Version)
12. Who's That Girl (She's Got It) (Instrumental)
13. Single Medley

Exact Audio Copy V1.0 beta 4 from 7. December 2014

EAC extraction logfile from 28. March 2017, 20:05

A Flock Of Seagulls / Remixes & Rarities (CD2)

Used drive : MATSHITADVD-RAM UJ8D2Q Adapter: 1 ID: 0

Read mode : Secure
Utilize accurate stream : Yes
Defeat audio cache : Yes
Make use of C2 pointers : No

Read offset correction : 103
Overread into Lead-In and Lead-Out : No
Fill up missing offset samples with silence : Yes
Delete leading and trailing silent blocks : No
Null samples used in CRC calculations : Yes
Used interface : Native Win32 interface for Win NT & 2000
Gap handling : Appended to previous track

Used output format : User Defined Encoder
Selected bitrate : 896 kBit/s
Quality : High
Add ID3 tag : No
Command line compressor : C:\Program Files (x86)\Exact Audio Copy\Flac\flac.exe
Additional command line options : -8 -V -T "ARTIST=%artist%" -T "TITLE=%title%" -T "ALBUM=%albumtitle%" -T "DATE=%year%" -T "TRACKNUMBER=%tracknr%" -T "TOTALTRACKS=%numtracks%" -T "GENRE=%genre%" -T "ALBUMARTIST=%albumartist%" -T "ALBUM ARTIST=%albumartist%" -T "COMMENT=EAC Secure Mode, Test & Copy, AccurateRip, FLAC -8" %source%


TOC of the extracted CD

Track | Start | Length | Start sector | End sector
––––––––––––––––––––––––––––-
1 | 0:00.00 | 5:08.07 | 0 | 23106
2 | 5:08.07 | 5:15.00 | 23107 | 46731
3 | 10:23.07 | 6:57.72 | 46732 | 78078
4 | 17:21.04 | 6:03.08 | 78079 | 105311
5 | 23:24.12 | 7:01.71 | 105312 | 136957
6 | 30:26.08 | 8:04.67 | 136958 | 173324
7 | 38:31.00 | 4:37.09 | 173325 | 194108
8 | 43:08.09 | 3:59.03 | 194109 | 212036
9 | 47:07.12 | 7:43.36 | 212037 | 246797
10 | 54:50.48 | 3:45.74 | 246798 | 263746
11 | 58:36.47 | 4:59.21 | 263747 | 286192
12 | 63:35.68 | 4:20.00 | 286193 | 305692
13 | 67:55.68 | 5:36.12 | 305693 | 330904


Track 1

Filename C:\Users\paul\AppData\Local\VirtualStore\Program Files (x86)\Exact Audio Copy\Flac\01 - I Ran (So Far Away) (Longer Version).wav

Pre-gap length 0:00:02.00

Peak level 99.6 %
Extraction speed 2.0 X
Track quality 99.9 %
Test CRC 9F086470
Copy CRC 9F086470
Track not present in AccurateRip database
Copy OK

Track 2

Filename C:\Users\paul\AppData\Local\VirtualStore\Program Files (x86)\Exact Audio Copy\Flac\02 - Never Again (The Dancer) (12'' Version).wav

Pre-gap length 0:00:01.66

Peak level 100.0 %
Extraction speed 2.9 X
Track quality 100.0 %
Test CRC 0CE8AF07
Copy CRC 0CE8AF07
Track not present in AccurateRip database
Copy OK

Track 3

Filename C:\Users\paul\AppData\Local\VirtualStore\Program Files (x86)\Exact Audio Copy\Flac\03 - Heartbeat Like A Drum (Full Length Version).wav

Pre-gap length 0:00:00.70

Peak level 100.0 %
Extraction speed 2.7 X
Track quality 99.9 %
Test CRC D561372E
Copy CRC D561372E
Track not present in AccurateRip database
Copy OK

Track 4

Filename C:\Users\paul\AppData\Local\VirtualStore\Program Files (x86)\Exact Audio Copy\Flac\04 - Wishing (If I Had A Photgraph Of You) U.S.Edit 12'' Promo Version.wav

Pre-gap length 0:00:01.06

Peak level 99.6 %
Extraction speed 3.5 X
Track quality 100.0 %
Test CRC E614BC13
Copy CRC E614BC13
Track not present in AccurateRip database
Copy OK

Track 5

Filename C:\Users\paul\AppData\Local\VirtualStore\Program Files (x86)\Exact Audio Copy\Flac\05 - The Last Flight Of Yuri Gagarin (Full Length Version).wav

Pre-gap length 0:00:00.60

Peak level 99.6 %
Extraction speed 3.2 X
Track quality 99.9 %
Test CRC 5A9B440B
Copy CRC 5A9B440B
Track not present in AccurateRip database
Copy OK

Track 6

Filename C:\Users\paul\AppData\Local\VirtualStore\Program Files (x86)\Exact Audio Copy\Flac\06 - Rosenmontag (Long Version).wav

Pre-gap length 0:00:01.05

Peak level 99.7 %
Extraction speed 4.2 X
Track quality 100.0 %
Test CRC A676B144
Copy CRC A676B144
Track not present in AccurateRip database
Copy OK

Track 7

Filename C:\Users\paul\AppData\Local\VirtualStore\Program Files (x86)\Exact Audio Copy\Flac\07 - Nightmares (U.S.12'' Promo Version).wav

Pre-gap length 0:00:01.09

Peak level 99.6 %
Extraction speed 4.2 X
Track quality 100.0 %
Test CRC 6AAF7116
Copy CRC 6AAF7116
Track not present in AccurateRip database
Copy OK

Track 8

Filename C:\Users\paul\AppData\Local\VirtualStore\Program Files (x86)\Exact Audio Copy\Flac\08 - I Ran (So Far Away) (Edited Version).wav

Pre-gap length 0:00:01.03

Peak level 99.7 %
Extraction speed 3.2 X
Track quality 99.9 %
Test CRC A69F3ECF
Copy CRC A69F3ECF
Track not present in AccurateRip database
Copy OK

Track 9

Filename C:\Users\paul\AppData\Local\VirtualStore\Program Files (x86)\Exact Audio Copy\Flac\09 - Never Again (The Dancer) (Re-Mix).wav

Pre-gap length 0:00:00.66

Peak level 99.6 %
Extraction speed 3.9 X
Track quality 99.9 %
Test CRC DB8964E5
Copy CRC DB8964E5
Track not present in AccurateRip database
Copy OK

Track 10

Filename C:\Users\paul\AppData\Local\VirtualStore\Program Files (x86)\Exact Audio Copy\Flac\10 - Space Age Love Song (Live).wav

Pre-gap length 0:00:00.69

Peak level 100.0 %
Extraction speed 4.5 X
Track quality 100.0 %
Test CRC C82ACA10
Copy CRC C82ACA10
Track not present in AccurateRip database
Copy OK

Track 11

Filename C:\Users\paul\AppData\Local\VirtualStore\Program Files (x86)\Exact Audio Copy\Flac\11 - Wishing (If I Had A Photgraph Of You) (Short Version).wav

Pre-gap length 0:00:01.01

Peak level 99.6 %
Extraction speed 4.8 X
Track quality 100.0 %
Test CRC 1C0B4E73
Copy CRC 1C0B4E73
Track not present in AccurateRip database
Copy OK

Track 12

Filename C:\Users\paul\AppData\Local\VirtualStore\Program Files (x86)\Exact Audio Copy\Flac\12 - Who's That Girl (She's Got It) (Instrumental).wav

Pre-gap length 0:00:01.11

Peak level 100.0 %
Extraction speed 4.9 X
Track quality 100.0 %
Test CRC F202639F
Copy CRC F202639F
Track not present in AccurateRip database
Copy OK

Track 13

Filename C:\Users\paul\AppData\Local\VirtualStore\Program Files (x86)\Exact Audio Copy\Flac\13 - Single Medley.wav

Pre-gap length 0:00:01.08

Peak level 99.6 %
Extraction speed 5.2 X
Track quality 100.0 %
Test CRC 1EEB56A8
Copy CRC 1EEB56A8
Track not present in AccurateRip database
Copy OK


None of the tracks are present in the AccurateRip database

No errors occurred

End of status report

–– CUETools DB Plugin V2.1.4

[CTDB TOCID: vG4yZqQQ4Ts0Mz8wfW9JcjXmtdM-] found
Submit result: vG4yZqQQ4Ts0Mz8wfW9JcjXmtdM- has been confirmed
Track | CTDB Status
1 | (3/3) Accurately ripped
2 | (3/3) Accurately ripped
3 | (3/3) Accurately ripped
4 | (3/3) Accurately ripped
5 | (3/3) Accurately ripped
6 | (3/3) Accurately ripped
7 | (3/3) Accurately ripped
8 | (3/3) Accurately ripped
9 | (3/3) Accurately ripped
10 | (3/3) Accurately ripped
11 | (3/3) Accurately ripped
12 | (3/3) Accurately ripped
13 | (3/3) Accurately ripped


==== Log checksum F230511571B03959A86A9795A2CDC5C8E96C2B2EC84F02AC5A38ADC1D036DC7E ====


A Flock Of Seagulls - Remixes & Rarities (2017)


Thanks to the Original customer.