Subcategories

A Giant Dog - Toy (2017)

Posted By: SERTiL
A Giant Dog - Toy (2017)

A Giant Dog - Toy
XLD Rip | FLAC (tracks)+cue, log, front cover | 39:40 min | 265 MB
Label: Merge Records ‎– MRG592 | Tracks: 13 | Rls.date: 2017
Garage Rock, Female Vocal

Toy, the fourth LP from A Giant Dog and their second for Merge, captures the Austin quintet at the height of their powers. A solid year of road-dogging and woodshedding has made the band tighter than ever, the charging dynamo of Andrew Cashen and Andy Bauer's guitars in lockstep with the primal chug of the rhythm section, Graham Low on bass and Daniel Blanchard on drums, in the latter's recorded debut. Singer Sabrina Ellis turns in another masterful performance, in equal parts brash, defiant, vulnerable, and raw.

Lyrically, Sabrina and Andrew have a gift for making their personal frustrations and fuck-ups, fears, lusts, and addictions feel universal. While they have always given voice to the weirdos and creeps, they dig even deeper on Toy. "I feel I've revealed more in this album than ever before," Sabrina confesses.

The band recorded Toy with Grammy-winning engineer Stuart Sikes (Loretta Lynn, Cat Power, The White Stripes, Reigning Sound), with Cashen producing it. "Andrew as producer makes a lot of sense," Sabrina says. "He composes the songs and knows better than anyone what they should sound like in the end. With him at the helm, we've arrived at a raw, truthful, risky, and rangy album."

TRACKLIST
1.Get Away
2.Fake Plastic Trees
3.Bendover
4.Toy Gun
5.Lucky Ponderosa
6.Photograph
7.Roller Coaster
8.Angst in My Pants
9.Tongue Tied
10.Hero for the Weekend
11.Making Movies
12.Night Terror
13.Survive

X Lossless Decoder version 20170710 (150.2)

XLD extraction logfile from 2017-07-26 19:18:49 -0400

A Giant Dog / Toy

Used drive : HL-DT-ST DVDRAM GP65NW60 (revision PF00)
Media type : Pressed CD

Ripper mode : XLD Secure Ripper
Disable audio cache : OK for the drive with a cache less than 1375KiB
Make use of C2 pointers : NO
Read offset correction : 102
Max retry count : 20
Gap status : Analyzed, Appended (except HTOA)

TOC of the extracted CD
Track | Start | Length | Start sector | End sector
––––––––––––––––––––––––––––-
1 | 00:00:00 | 02:31:06 | 0 | 11330
2 | 02:31:06 | 03:01:62 | 11331 | 24967
3 | 05:32:68 | 03:02:25 | 24968 | 38642
4 | 08:35:18 | 03:48:00 | 38643 | 55742
5 | 12:23:18 | 03:09:09 | 55743 | 69926
6 | 15:32:27 | 02:47:36 | 69927 | 82487
7 | 18:19:63 | 03:24:68 | 82488 | 97855
8 | 21:44:56 | 03:42:29 | 97856 | 114534
9 | 25:27:10 | 02:27:41 | 114535 | 125600
10 | 27:54:51 | 03:17:33 | 125601 | 140408
11 | 31:12:09 | 02:28:59 | 140409 | 151567
12 | 33:40:68 | 02:33:48 | 151568 | 163090
13 | 36:14:41 | 03:31:63 | 163091 | 178978

AccurateRip Summary
Disc not found in AccurateRip DB.

All Tracks
Album gain : -9.74 dB
Peak : 1.000000
Statistics
Read error : 0
Jitter error (maybe fixed) : 0
Retry sector count : 0
Damaged sector count : 0

Track 01
Filename : /Users/Shared/A Giant Dog - Toy (2017) [FLAC]/01 Get Away.flac
/Users/Shared/A Giant Dog - Toy (2017) [V0]/01 Get Away.mp3
Pre-gap length : 00:02:00

Track gain : -8.20 dB
Peak : 0.986145
CRC32 hash (test run) : 286D31B7
CRC32 hash : 286D31B7
CRC32 hash (skip zero) : 5901C416
AccurateRip v1 signature : EC4D19CB
AccurateRip v2 signature : A02D935B
->Track not present in AccurateRip database.
Statistics
Read error : 0
Jitter error (maybe fixed) : 0
Retry sector count : 0
Damaged sector count : 0

Track 02
Filename : /Users/Shared/A Giant Dog - Toy (2017) [FLAC]/02 Fake Plastic Trees.flac
/Users/Shared/A Giant Dog - Toy (2017) [V0]/02 Fake Plastic Trees.mp3

Track gain : -9.18 dB
Peak : 1.000000
CRC32 hash (test run) : FC637BEE
CRC32 hash : FC637BEE
CRC32 hash (skip zero) : 85A25C31
AccurateRip v1 signature : 59BF9167
AccurateRip v2 signature : 5788664B
->Track not present in AccurateRip database.
Statistics
Read error : 0
Jitter error (maybe fixed) : 0
Retry sector count : 0
Damaged sector count : 0

Track 03
Filename : /Users/Shared/A Giant Dog - Toy (2017) [FLAC]/03 Bendover.flac
/Users/Shared/A Giant Dog - Toy (2017) [V0]/03 Bendover.mp3

Track gain : -10.37 dB
Peak : 0.998779
CRC32 hash (test run) : 51F3805D
CRC32 hash : 51F3805D
CRC32 hash (skip zero) : BA294ABF
AccurateRip v1 signature : 9ACB7793
AccurateRip v2 signature : 24B5244A
->Track not present in AccurateRip database.
Statistics
Read error : 0
Jitter error (maybe fixed) : 0
Retry sector count : 0
Damaged sector count : 0

Track 04
Filename : /Users/Shared/A Giant Dog - Toy (2017) [FLAC]/04 Toy Gun.flac
/Users/Shared/A Giant Dog - Toy (2017) [V0]/04 Toy Gun.mp3

Track gain : -10.12 dB
Peak : 1.000000
CRC32 hash (test run) : 55960879
CRC32 hash : 55960879
CRC32 hash (skip zero) : ECDF0935
AccurateRip v1 signature : F1B30F77
AccurateRip v2 signature : 6691C6DD
->Track not present in AccurateRip database.
Statistics
Read error : 0
Jitter error (maybe fixed) : 0
Retry sector count : 0
Damaged sector count : 0

Track 05
Filename : /Users/Shared/A Giant Dog - Toy (2017) [FLAC]/05 Lucky Ponderosa.flac
/Users/Shared/A Giant Dog - Toy (2017) [V0]/05 Lucky Ponderosa.mp3

Track gain : -9.59 dB
Peak : 1.000000
CRC32 hash (test run) : 0B8AECAF
CRC32 hash : 0B8AECAF
CRC32 hash (skip zero) : C10B66DB
AccurateRip v1 signature : B25AAC48
AccurateRip v2 signature : 0FC1D28C
->Track not present in AccurateRip database.
Statistics
Read error : 0
Jitter error (maybe fixed) : 0
Retry sector count : 0
Damaged sector count : 0

Track 06
Filename : /Users/Shared/A Giant Dog - Toy (2017) [FLAC]/06 Photograph.flac
/Users/Shared/A Giant Dog - Toy (2017) [V0]/06 Photograph.mp3

Track gain : -9.69 dB
Peak : 1.000000
CRC32 hash (test run) : 8A320766
CRC32 hash : 8A320766
CRC32 hash (skip zero) : 8646FB34
AccurateRip v1 signature : 8A401E1D
AccurateRip v2 signature : 4E29ABF9
->Track not present in AccurateRip database.
Statistics
Read error : 0
Jitter error (maybe fixed) : 0
Retry sector count : 0
Damaged sector count : 0

Track 07
Filename : /Users/Shared/A Giant Dog - Toy (2017) [FLAC]/07 Roller Coaster.flac
/Users/Shared/A Giant Dog - Toy (2017) [V0]/07 Roller Coaster.mp3

Track gain : -9.41 dB
Peak : 1.000000
CRC32 hash (test run) : C7028E9B
CRC32 hash : C7028E9B
CRC32 hash (skip zero) : 6E1357F7
AccurateRip v1 signature : DDD79986
AccurateRip v2 signature : 8E6953F2
->Track not present in AccurateRip database.
Statistics
Read error : 0
Jitter error (maybe fixed) : 0
Retry sector count : 0
Damaged sector count : 0

Track 08
Filename : /Users/Shared/A Giant Dog - Toy (2017) [FLAC]/08 Angst In My Pants.flac
/Users/Shared/A Giant Dog - Toy (2017) [V0]/08 Angst In My Pants.mp3

Track gain : -10.05 dB
Peak : 0.999969
CRC32 hash (test run) : E0AA1AC3
CRC32 hash : E0AA1AC3
CRC32 hash (skip zero) : 079C16C5
AccurateRip v1 signature : F559FBEB
AccurateRip v2 signature : 3F8A2C27
->Track not present in AccurateRip database.
Statistics
Read error : 0
Jitter error (maybe fixed) : 0
Retry sector count : 0
Damaged sector count : 0

Track 09
Filename : /Users/Shared/A Giant Dog - Toy (2017) [FLAC]/09 Tongue Tied.flac
/Users/Shared/A Giant Dog - Toy (2017) [V0]/09 Tongue Tied.mp3

Track gain : -9.12 dB
Peak : 0.999969
CRC32 hash (test run) : FCAE2230
CRC32 hash : FCAE2230
CRC32 hash (skip zero) : 492CC896
AccurateRip v1 signature : 6603D1AF
AccurateRip v2 signature : B7B99657
->Track not present in AccurateRip database.
Statistics
Read error : 0
Jitter error (maybe fixed) : 0
Retry sector count : 0
Damaged sector count : 0

Track 10
Filename : /Users/Shared/A Giant Dog - Toy (2017) [FLAC]/10 Hero For The Weekend.flac
/Users/Shared/A Giant Dog - Toy (2017) [V0]/10 Hero For The Weekend.mp3

Track gain : -9.88 dB
Peak : 1.000000
CRC32 hash (test run) : BA0FA432
CRC32 hash : BA0FA432
CRC32 hash (skip zero) : F0D18C2D
AccurateRip v1 signature : C0402CED
AccurateRip v2 signature : 8AB2F35A
->Track not present in AccurateRip database.
Statistics
Read error : 0
Jitter error (maybe fixed) : 0
Retry sector count : 0
Damaged sector count : 0

Track 11
Filename : /Users/Shared/A Giant Dog - Toy (2017) [FLAC]/11 Making Movies.flac
/Users/Shared/A Giant Dog - Toy (2017) [V0]/11 Making Movies.mp3

Track gain : -9.82 dB
Peak : 0.999969
CRC32 hash (test run) : 699ED3F8
CRC32 hash : 699ED3F8
CRC32 hash (skip zero) : 29F6983F
AccurateRip v1 signature : E049A057
AccurateRip v2 signature : B4EA51DE
->Track not present in AccurateRip database.
Statistics
Read error : 0
Jitter error (maybe fixed) : 0
Retry sector count : 0
Damaged sector count : 0

Track 12
Filename : /Users/Shared/A Giant Dog - Toy (2017) [FLAC]/12 Night Terror.flac
/Users/Shared/A Giant Dog - Toy (2017) [V0]/12 Night Terror.mp3

Track gain : -10.08 dB
Peak : 0.999969
CRC32 hash (test run) : 84FBAB32
CRC32 hash : 84FBAB32
CRC32 hash (skip zero) : D0B0A5C5
AccurateRip v1 signature : E7B5DFEF
AccurateRip v2 signature : B0B1BDE2
->Track not present in AccurateRip database.
Statistics
Read error : 0
Jitter error (maybe fixed) : 0
Retry sector count : 0
Damaged sector count : 0

Track 13
Filename : /Users/Shared/A Giant Dog - Toy (2017) [FLAC]/13 Survive.flac
/Users/Shared/A Giant Dog - Toy (2017) [V0]/13 Survive.mp3

Track gain : -7.77 dB
Peak : 0.985016
CRC32 hash (test run) : 7D48872C
CRC32 hash : 7D48872C
CRC32 hash (skip zero) : 76C44321
AccurateRip v1 signature : 8D091EBF
AccurateRip v2 signature : 3F98AF39
->Track not present in AccurateRip database.
Statistics
Read error : 0
Jitter error (maybe fixed) : 0
Retry sector count : 0
Damaged sector count : 0

No errors occurred

End of status report

––-BEGIN XLD SIGNATURE––-
Dm6fuKpvwSHNjs.C1ML5QL1K3ReabMAM6.jnIDcKFcEcFFHJK2oNNO4n.lONHbEm3Z0KIsE4kKYzjmB5o3U6yKJM1ZYyYEH7DxI2lAa
––-END XLD SIGNATURE––-


Thanks to the Original customer.