Subcategories

AOR - Dreaming Of L.A (2003) [Remastered 2012]

Posted By: Andi_Deris
AOR - Dreaming Of L.A (2003) [Remastered 2012]

AOR - Dreaming Of L.A (2003) [Remastered 2012]
EAC Rip | FLAC: Image+Cue+Log | 482 Mb | MP3 CBR 320 kbps | 181 Mb | Scans | 67 Mb | Time: 01:09:24
Genre: Melodic Rock, AOR | Label: Yesterrock | Cat.№: Y2012-37

Classic remastered AOR reissue from 2003 featuring members of TOTO, Chicago, Tommy Denander, Steve Overland, David Roberts, Dane Donohue & the cream of musicians from the Melodic Rock / AOR scene !

In 2003, Frédéric Slama was back with a greater CD, which again featured the best musicians any Westcoast and melodic rock fan could possibly imagine : Bill Champlin (Chicago), Steve Overland (FM), Steve Lukather (Toto), Michael Landau, Bruce Gaitch, Brandon Fields among many others and two Westcoast legends who hadn't recorded anything for over 20 years: David Roberts & Dane Donohue ! This album was called « Dreaming Of L.A » and again co-produced by Tommy Denander and David Diggs.



AOR - Dreaming Of L.A (2003) [Remastered 2012]


Track Listing

01. You're My Obsession (03:35)
02. Lost In Your Eyes (04:34)
03. Malibu Escapade (04:07)
04. On Dangerous Ground (05:05)
05. Fly With Me (04:26)
06. Teach Me How To Love You Again (05:59)
07. Don't Give Up On Love (04:00)
08. Haunted By Your Smile (04:47)

Bonus tracks
09. Last Days In San Francisco (06:34)
10. Sensation (new version) (04:06)
11. Worlds Away (new version) (06:06)
12. Never Gonna Let Her Go (new version) (05:56)
Extra bonus tracks for this release
13. Only In My Dreams (05:15)
14. Like An Open Book (04:53)

Produced by Frédéric Slama

The Band

• Frédéric Slama: all instruments
• Tommy Denander: all instruments
• David Diggs: all instruments
• Bill Chapma, Steve Overland, David Roberts, Rick Riso, Chris Antblad, Rachel Diggs, Michael Kisur, David Chamberlin, Sarah Fontaine, Mélissa Fontaine: lead vocals
• Eddie Watkins Jr., Hussain Jiffry: bass
• Joey Heredia, Jeff Porcaro, Ed Greene: drums
• Brandon Fields, Tom Saviano, Dave Boruff: saxophone
• Göran Edman, Tom Bailey, Michael Ruff, Janey Clewer: backing vocals
• Steve Lukather, Michael Landau, Bruce Gaitsch, James Harrah, André Harold: guitars

AOR - Dreaming Of L.A (2003) [Remastered 2012]


Exact Audio Copy V1.0 beta 3 from 29. August 2011

EAC extraction logfile from 23. November 2012, 22:19

AOR / Dreaming Of L.A

Used drive : SlimtypeDVD A DS8A5SH Adapter: 0 ID: 1

Read mode : Secure
Utilize accurate stream : Yes
Defeat audio cache : Yes
Make use of C2 pointers : No

Read offset correction : 6
Overread into Lead-In and Lead-Out : No
Fill up missing offset samples with silence : Yes
Delete leading and trailing silent blocks : No
Null samples used in CRC calculations : Yes
Used interface : Native Win32 interface for Win NT & 2000

Used output format : User Defined Encoder
Selected bitrate : 320 kBit/s
Quality : High
Add ID3 tag : No
Command line compressor : C:\Program Files (x86)\Exact Audio Copy\Flac\flac.exe
Additional command line options : -V -8 -T "Date=%year%" -T "Genre=%genre%" %source%


TOC of the extracted CD

Track | Start | Length | Start sector | End sector
––––––––––––––––––––––––––––-
1 | 0:00.00 | 3:35.01 | 0 | 16125
2 | 3:35.01 | 4:34.01 | 16126 | 36676
3 | 8:09.02 | 4:07.01 | 36677 | 55202
4 | 12:16.03 | 5:05.01 | 55203 | 78078
5 | 17:21.04 | 4:26.01 | 78079 | 98029
6 | 21:47.05 | 5:59.01 | 98030 | 124955
7 | 27:46.06 | 4:00.01 | 124956 | 142956
8 | 31:46.07 | 4:47.01 | 142957 | 164482
9 | 36:33.08 | 6:34.01 | 164483 | 194033
10 | 43:07.09 | 4:06.01 | 194034 | 212484
11 | 47:13.10 | 6:06.01 | 212485 | 239935
12 | 53:19.11 | 5:56.01 | 239936 | 266636
13 | 59:15.12 | 5:15.01 | 266637 | 290262
14 | 64:30.13 | 4:53.01 | 290263 | 312238


Range status and errors

Selected range

Filename D:\My Music\AOR - 2003 Dreaming Of L.A\AOR - Dreaming Of L.A.wav

Peak level 100.0 %
Extraction speed 5.0 X
Range quality 100.0 %
Test CRC A29AB0E7
Copy CRC A29AB0E7
Copy OK

No errors occurred


AccurateRip summary

Track 1 not present in database
Track 2 not present in database
Track 3 not present in database
Track 4 not present in database
Track 5 not present in database
Track 6 not present in database
Track 7 not present in database
Track 8 not present in database
Track 9 not present in database
Track 10 not present in database
Track 11 not present in database
Track 12 not present in database
Track 13 not present in database
Track 14 not present in database

None of the tracks are present in the AccurateRip database

End of status report

==== Log checksum 2AB2A90C46CE2B4E6043A42F34825542C9402241CF38BFB5428C8240015E57C4 ====


Many thanks to the original uploader: kolushew