Subcategories

VA - A Selection of 15 DJ Mix CDs (2001-2006)

Posted By: mook45
VA - A Selection of 15 DJ Mix CDs (2001-2006)

VA - A Selection of 15 DJ Mix CDs (2001-2006)
EAC | FLAC IMG,CUE+LOG | MP3@320 | 400 dpi Scans
Funk/Psych/Hip Hop | FSo/FSe


If, like me your Christmas involves kicking back with your games console and a good mix CD, here's a few of the finest around.

VA - A Selection of 15 DJ Mix CDs (2001-2006)


Dr. Delay - Psycrunk (2006)
Lame 320/159MB
Flac 896/437MB
Genre: Psych mixed with Crunk
The hooligan elements of garage rock and hip hop meet
Tracks:
1. Ensemble Melodica Intro 1:00
2. Ensemble Melodica/Trick Daddy - Drop Low Low Low 2:23
3. Birdman - What Happened To That Boy Inst./Light Rain - Rabekin 2:33
4. Zsuzsa Konez - Eliszalit A Nyor/Big Boi - Kryptonite 3:23
5. 3 Hut-El - Omur Biter Yol Bitmez/Trillville - Watch Me Do This 3:25
6. New Hope - God Of All Of Us 2:30
7. New Hope - God Of All Of Us/Trick Daddy - Nann 1:41
8. Lil Wayne - The Block Is Hot Inst./Colonel Bagshot - 6 Day War 1:29
9. Vox Dei - Apocalipsis/Mind Garage - Doctor John 1:33
10. Lil Wayne - Fireman 2:19
11. Lil Wayne - Fireman Inst./Paul Revere & The Raiders - Rain Sleet Or Snow/CCS - Sunrise 1:32
12. Paul Revere & The Raiders - Rain Sleet Or Snow/Lil Scrappy - Be Real 1:49
13. Common People - Soon There'll Be Thunder 1:38
14. Mt. Rushmore - Toe Jam/Stetsasonic - On Fire 1:01
15. Jade - Paperman/Young Jeezy - Over Here 1:05
16. Frankie Miller - Supersnatch/Slim Thug - I Aint Heard Of That 4:33
17. The Millennium - Prelude 1:10
18. Trina - Don't Trip 3:15
19. The Vigs - In A Persian Market 2:34
20. Les Mogol - Madimak/Lil John - Get Low 1:44
21. Damon - Don't You Feel Me 1:17
22. Dungen - Festival/TLC Feat Lil John - Come Get Some 1:48
23. Baron - Cha Tatch Ka/Marques Houston - Do It 3:34
24. Jimi Hendrix - Crosstown Traffic 1:52
25. Philamore Lincoln - You're The One 1:23
26. Ill Wind - My Dark World 1:47
27. Radiohead - Where I End And You Begin/Triple 6 Mafia - Stay Fly 3:46
28. The Seeds - Just Let Go/ Triple 6 Mafia - Sippin On Some Sizzurp 3:04
29. Music Machine - Trouble/Trick Daddy - Shut Up 2:37
30. John Redbourn - Passing Time

VA - A Selection of 15 DJ Mix CDs (2001-2006)


James Hyman - DJ Mission Vol.007 (2004)
Lame 320/182MB
Flac 901/500MB
Genre: Party Mix
James Bond themed mix
Tracks:
1.1 Dr. Dre - Lolo (Intro)
1.2 Barry Adamson - 007, A Fantasy Bond Theme
1.3 Audio Shrapnel - James Bond/James Hyman - Intro
2.1 John Barry - Let's Go Get 'Em
2.2 Usher - Yeah (Acapella)
3 Usher - Yeah (Radio Edit)
4.1 Crooklyn Clan - E 'Say Wuut
4.2 Hip Hop Party Booster - Party Booster For DJs
5 Shirley Bassey - Diamonds Are Forever (Main Title)
6.1 M.O.P. / Mark Ronson - Ante Up (Acapella)
6.2 M.O.P. / Mark Ronson - Ante Up Whole Lotta Love (M.O.P Vs Led Zeppelin)
6.3 M.O.P. / Mark Ronson - Ante Knows (M.O.P Vs Queens Of The Stone Age)
7.1 Streets, The - Fit But You Know It (Radio Edit)
7.2 Streets, The - Fit But You Know It (Poj Edit)
8 Count Basie - The James Bond Theme
9.1 Perez 'Prez' Prado Vs Beyonce - Crazy Prado (Cropstar)
9.2 Beyonce* - Crazy In Love (Poj Remix)
10 Crooklyn Clan - Don't Jump Bitch Move
11 DJ Dangermouse - What More Can I Say?
12.1 Redhead Kingpin - Do The Right Thing (Acapella)
12.2 George McRae - I Get Lifted
13 Audio Shrapnel - I Know You Got Fish (Rakim Vs. Marillion)
14 Rhymefest - Jackin' (It Got Ugly)
15.1 John Barry - Opening Titles
15.2 Tim G - Toxic Secret (Queens Of The Stone Age Vs Britney Spears)
16.1 Agent Lovelette - Stand Up, Word Up
16.2 Cameo - Word Up (DJ Spinbad Mix)
17 Kelis - Milkshake (Acapella)
18 Go Home Productions - Relax Your Flava
19 Duran Duran - A View To A Kill
20 Chicken Lips - He Not In
21.1 Tiga - Pleasure From The Bass
21.2 Raze - Break 4 Love
22 Armand Van Helden - My My My
23 Marvin Hamlisch - Bond 77
24 Frenchbloke & Son - Sexy Model
25 Lulu - The Man With The Golden Gun
26 Nobody Likes A Snob - Lazy Onions (X-Press II Vs Booker T & The MGs)
27 Ukulele Orchestra Of Great Britain, The - Miss Dynamiteehee
28 Hayseed Dixie - Walk This Way
29 Queen - Fat Bottomed Girls (Digital Remaster)
30.1 Manifest - OG Returns
30.2 Monty Norman - James Bond Theme
31 Kanye West / Elton John - Thru The Wire (Still Standing)
32 Mr. Fitzpop - Frontin' Close (Pharell Vs. The Cure)
33.1 Air - Alpha Beta Gaga
33.2 Scissor Sisters - Take Your Mama (Radio Edit)
34.1 Louis Armstrong - We Have All The Time In The World
34.2 Ludacris - Stand Up
35.1 Crooklyn Clan - Where My Niggaz@!
35.2 Crooklyn Clan - Don't Jump Bitch Move
36 50 Cent - In The Club (Acapella)
37 50 Emotions - Da Best Club
38 G Sweet - Upside Down & Dirty (Diana Ross Vs Christina Aguilera)
39.1 Boney M - Sunny
39.2 Mark Ronson - Oooh Wee
40 Beastie Boys - Intergalactic Rock It Mediate (Soulwax Mix)
41 Crooklyn Clan - Wanna Jump!?
42 Mantronix Vs House Of Pain - King Of The Jump Around (Soulwax Mix)
43.1 Mantronix - King Of The Beats
43.2 Wings - Live And Let Die (Main Title)
44.1 Scissor Sisters - Take Ya Mama
44.2 George Martin - Bond Meets Solitaire
44.3 Scissor Sisters - Take Ya Mama (Acapella)
45 Dead Prez - Hip Hop
46 Acen - Trip To The Moon Pt. II
47 Bjork - You Only Live Twice
48 Carly Simon - Nobody Does It Better
49.1 Radiohead - Nobody Does It Better
49.2 Audio Shrapnel - James Bond/James Hyman - Outro
50 John Barry - Chateau Flight

VA - A Selection of 15 DJ Mix CDs (2001-2006)


Diplo & Tripledouble - Aeiou Two (2003)
Lame 320/190MB
Flac 900/521MB
Genre: Funky Psych
No tracklisting just the finest in worldwide cratedigging

VA - A Selection of 15 DJ Mix CDs (2001-2006)


Spank Rock - Couche-Tard (2005)
Lame 320/153MB
Flac 856/405MB
Genre: Party Mix
The greatest pop music of all time mixed with joyous abandom
Tracks:
1. Intro
2. Intro
3. Strange Brew Coochie Intro
4. The Coasters - 'Little Egypt'
5. Ying Yang Twins - 'Wait'
6. Wayne Fontana - 'Game Of Love'
7. Huey Lewis & The News - 'Power Of Love'
8. Freeez - 'Pop Goes My Love'
9. Dizzee Rascal - 'I Love You'
10. Spank Rock - 'Sweet Talk'
11. Miss Kittin & Felix Da Housecat - 'Silver Screen'
12. Rod Lee - 'Latin Groove'
13. Freestyle - 'Don't Stop The Rock'
14. Shannon - 'Give Me Tonite'
15. Roll Deep Crew - 'Shake A Leg'
16. Les Dantz And His Orchestra - 'Louie Louie'
17. Track 2:
18. Masta Killa - 'Digi Warfare'
19. Isaac Hayes - 'Run Fay Run'
20. Cybotron - 'Body Work'
21. 2 Live Crew - 'Pop That Coochie'
22. Aromadozeski - 'Strudle Strut'
23. Cajmer - 'Horny'
24. Prince Buster - 'Girl Why Don't You Answer'
25. Josh Wink feat. The Interpreters - 'Simple Man'
26. Kano - 'I'm Ready (Spank Rock Far Left Royal Castle Take 99'
27. Beginning Of The End - 'Funky Nassau'
28. Rice University Marching Band - 'Louie Louie'
29. Track 3:
30. Spank Rock feat. Pase Rock (of Five Deez) - 'Rick Rubin (Remix)'
31. Rick James - 'Give It To Me Baby (Instrumental)' vs XXXchange - 'Competition'
32. Phono - 'Trick Or Treat'
33. Freestyle - 'Automatic'
34. XXXchange - 'Speeditupussy'
35. DJ Patrick - 'Poo Poo Juice'
36. MU - 'Paris Hilton'
37. Amanda Blank - 'Get It Now'
38. 2 Live Crew - 'Get It Girl'
39. Edwyn Collins - 'A Girl Like You'
40. The Ventures - 'Louie Louie'
41. Track 4:
42. Project Jan & Project Jenny - 'China Town Bus'
43. Rod Lee - 'Crazy'
44. The Ojays - 'Money'
45. N.O.R.E. - 'What'
46. Bobby Hebb - 'Sunny'
47. Babba Brooks - 'Vitamin A'
48. Les Triplettes de Belleville - 'Belleville Rendez-vous'
49. Dukeyman - 'Shake'
50. Steely Dan - 'Do It Again'
51. Pharell feat. Ying Yang Twins - 'Stick That Thing Out'
52. Yello - 'Daily Disco'
53. Chipset & Rockwell - '50 Ways'
54. Richard Berry - 'Louie Louie (The Original)'
55. Track 5:
56. Dion - 'Runaround Sue'
57. Shirley Ellis - 'The Clapping Song'
58. Shirley Ellis - 'The Name Game'
59. Arthur Conley - 'Sweet Soul Music'
60. The Capitols - 'Cool Jerk'
61. Neil Diamond - 'Cherry Cherry'
62. Violent Femmes - 'Gone Daddy Gone'
63. Gloria Jones - 'Tainted Love'
64. Fine Young Cannibals - 'Good Thing'
65. B-52s - 'Dance This Mess Around
66. Toots And The Maytals - 'Louie Louie'

VA - A Selection of 15 DJ Mix CDs (2001-2006)


Spank Rock - Voilà! (2005)
Lame 320/132MB
Flac 919/371MB
Genre: Party Mix
No track listing; more of the above

VA - A Selection of 15 DJ Mix CDs (2001-2006)


DJ Miles - Funky Sole: Live In Holywood, California (2004)
Lame 320/188MB
Flac 927/534MB
Genre: Funk
One of the greatest funk mixes around
Tracks:
1. Cyrille Neville - "Gossip"
2. The Impalas - "Soul"
3. Ernie K Doe - "Here Come The Girls"
4. Clarence Reid - "Masterpiece"
5. Third Guitar - "Baby Don't Cry"
6. Carolyn Franklin - "Deal With It"
7. Delores Ealy - "The Honeydripper"
8. Beau Dollar - "Who Knows"
9. Jimi Hendrix - "Still Raining, Still Dreaming"
10. JBs - "Doing It To Death"
11. James Brown feat Clyde Stubblefield - "Funky Drummer" (DJ Muro remix)
12. James Brown - "She's The One" (remix)
13. Noraida - "Oye"
14. Express Yourself - "Charles Wright & The Watts 103rd St Band"
15. Toots & The Maytalls - "Funky Kingston"
16. Bumps Jackson - "Funky In Jamaica" (pt 2 - Miles Drum remix)
17. The Marvells - "Rocksteady"
18. The Crowns - "Jerking The Drop" (feat The Mohawks)
19. The Mohawks - "Champ"
20. Dee Edwards - "Why Can't There Be Love"
21. General Crook - "Gimme Some"
22. Robert Moore - "Everything's Gonna Be Alright"
23. All The People - "Cramp Your Style"
24. John Timmons - "Love At First Sight"
25. Reuben Howell - "You Made Your Bed"
26. Harlem Underground Band - "Dance Girl"
27. Edwin Starr - "I Just Wanna Do My Thing"
28. Side Effect - "Always There"
29. Rokk - "Patience"
30. Steely Dan - "Peg"
31. Radiance - "The Maestro" (edit)
32. Liquid Liquid - "Cavern"
33. Eddie Kendricks - "Date With The Rain" (DJ Dimitri edit)
34. James Knight & The Butlers - "Funky Cat"
35. The Soul Superiors Band - "The Lady"
36. Loyd Williams - "Be Mine Tonight"
37. Marcus Kelly & The Impassions - "Pushin' To The Top"
38. Stevie Wonder - "Light My Fire"
39. Joseph Henry & The Mighty Imperials - "Never Found A Girl"
40. Eugene Blacknell - "We Got To Live Together" (Miles drum remix)
41. Breakestra - "Show & Prove"
42. Chuck Carbo - "Can I Be Your Squeeze"
43. David Robinson - "I'm A Carpenter"
44. The Meters - "Live Wire"
45. Carleen & The Groovers - "Can We Rap"
46. Frank Williams & The Rocketeers feat Little Beaver & Helene Smith - "You Got To Be A Man"
47. Syl Johnson - "Dresses Too $hort"
48. Otis Goodwin & The Castanets - "Mini Skirt Dance"
49. Ricky Thomas - "Little Miss Funky Soul"

VA - A Selection of 15 DJ Mix CDs (2001-2006)


Hollertronix - Never Scared (2003)
Lame 320/188MB
Flac 927/534MB
Genre: Hip Hop/Dance Hall/Electro
No real track listing; great mix of then current RnB and classic dance music

VA - A Selection of 15 DJ Mix CDs (2001-2006)


Jay Glaze & Pro Celebrity Golf - Three Sinister Syllables (2004)
Lame 320/176MB
Flac 695/373MB
Genre: Cut & Paste
The Ullysses of mixes, must have took years to put together and repays 100s of listens

VA - A Selection of 15 DJ Mix CDs (2001-2006)


DJ Mike the 2600 King - Records Before Rent (2002)
Lame 320/144MB
Flac 610/271MB
Genre: Funk/Psych
Flawless crate digging mix
Tracks:
1. You Can Find Me Diggin Every Day in St. Louis / I'm the Breakbeat Guru 0:13
2. Outlaw Blues Band / Deep Gully 1:16
3. Jack McDuff / Hunk O Funk 1:54
4. The Romanceers / You're the Man 2:55
5. Doris Hockeypony / Temptation 1:52
6. Mt. Rushmore / Toe Jam 2:04
7. Motherlode / Soft Shell 1:01
8. Galt MacDermot / Ripped Apart by Metal Explosions 2:38
9. Sound Foundation / Bruised 3:11
10. Booker T & the MGs / Chicken Pox 1:25
11. Brother to Brother / Hey What's That You Say 1:52
12. Bob James / Look Alike 1:21
13. Lights Out San Francisco / Cleo's Back 3:02
14. James Moody / Dis-Kom-Blu-Bla-Late Me Baby 3:08
15. Syl Johnson / The Love You Left Behind 1:40
16. Idris Muhammad / Express Yourself 1:56
17. Skin Alley / So Many People 2:51
18. Thin Lizzy / Johnny the Fox 1:01
19. Rustix / Feelin' Alright 2:57
20. Ray Bloch Singers / Let the Sunshine in 2:07
21. Bar-Kays / Humpin' 1:06
22. Young-Holt Unlimited / Rubber Lips 1:47
23. Natural Gas / Live and Learn 4:14
24. Meters / The Same Old Thing 2:17
25. Giant / Plastic World 3:04
26. James Brown / People Get Up and Drive Your Funky Soul 0:38
27. Little Sonny / Memphis B.K. 3:05
28. Joe Nesmith / Able 2:10
29. Bonus Song For You to Jam Out to 2:30

VA - A Selection of 15 DJ Mix CDs (2001-2006)


DJ Mike the 2600 King - Heavy Session (2006)
Lame 320/156MB
Flac 916/438MB
Genre: Funk/Psych
No track listing; amazing mix of heavy psych and funk

VA - A Selection of 15 DJ Mix CDs (2001-2006)


MonkOne - Breakin' Rocks (2004)
Lame 320/164MB
Flac 900/457MB
Genre: Funky Rock
Cool classic Rock breaks mix
Tracks:
1. Liberace/Joe Cocker/Spooky Tooth/Henry Gross - Woman To Woman/Waiting For The Wind/That's No Lie
2. Paul Butterfield - I Don't Want To Go
3. Wet Willie/Mountain - Beggar Song/Long Red
4. David Bromberg/The Turtles - Sharon/Chief Kamanawanalea
5. Cold Blood - Kissing My Love
6. Grand Funk Railroad/Jefferson Airplane - Nothing Is The Same/Rock Music
8. Grootha/Kenny Rogers/First Edition/Neil Merryweather - Funky/Tulsa Turnaround/Sunshine Superman
9. Le Zeppelin/Denniis Coffey/Billy Joel - When The Levee Love/Whole Lotta Love/Stilletto
10. Sweetwater - Compared To What
11. Wynder K Frog/Lee Michaels/Steve Miller - Howl In Wolf's Clothing/Tell Me How Do You Feel/I Don't Want No Woman/Shoo Ba Doo Wa Wa Wa Wa
12. Billy Squier/Tommy Roe/The Byrds/Donovan/Flaming Ember - The Big Beat/Dizzy/Fido/Trudi/Gotta Get Away
13. Rare Birds - Dollars
14. Ballin' Jack/The Grassroots/Alice Cooper - Found A Child/You & Love Are The Same/Public Animal #9
15. Seatrain - Flute Thing
16. Shawn Phillips - Today

VA - A Selection of 15 DJ Mix CDs (2001-2006)


RJD2 - Your Face or Your Knee Caps (2001)
Lame 320/119MB
Flac 716/262MB
Genre: Funk/Soul
Classic funk breaks mix
Tracks:
1. “Jim Ingram - Black Woman” – 2:38
2. “The Nite Liters - Tanga Boo Gonk” – 1:22
3. “Gilbert O'Sullivan - Alone Again Naturally / Wild Style Dialogue - Zorro & Fab 5 Freddy” – 0:41
4. “Unknown” – 0:09
5. “Timmy Thomas - Sexy Woman” – 0:16
6. “Donny Hathaway - Magnificent Sanctuary Band / The Barons - Makin' It Better” – 1:03
7. “Oliver Sain - St Louis Breakdown” – 0:37
8. “Hot Ice Company - I Got The Love You Need” – 0:43
9. “The Soul Severes - I got it” – 0:41
10. “Syl Johnson - Concrete Reservation” – 0:11
11. “Albert King - I'll Play The Blues For You” – 0:28
12. “Jethro Tull - Cross Eyed Mary / Volume 10 - Pistol Grip Pump” – 1:41
13. “Different Strokes - Sing A Simple Song / Ike & Tina Turner - Bold Soul Sister / Sly & The Family Stone - Sing A Simple Song / Charles Earland - Sing A Simple Song” – 1:28
14. “Southside Movement - I've Been Watching You” – 1:22
15. “Lighthouse - The Love Of A Woman” – 1:20
16. “RJD2 - ? / Double Trouble - Stoop Rap (from Wild Style OST)” – 2:23
17. “Watts 103rd St Rhythm Band - Giggin Down 103rd” – 0:29
18. “King Curtis - Sweet Inspiration / ? ” – 1:50
19. “Monk Higgins - Gotta Be Funky” – 0:21
20. “Eddy Senay - Aint No Sunshine” – 0:31
21. “Charles Whitehead - Between The Lines” – 1:10
22. “African Music Machine - Mr. Brown” – 0:31
23. “Soul Tornadoes - Bobby's Mood” – 0:41
24. “Cold Blood - Baby I Love You” – 0:48
25. “Ben Vereen - I'll Keep My Light In My Window” – 0:10
26. “Allen Toussaint - Worldwide” – 0:31
27. “Steve Colt - Dynamite” – 1:26
28. “Rare Earth - (I Know) I'm Losing You” – 0:12
29. “Toddlin Town Sounds - It's Your Thing” – 0:29
30. “Ray Bryant - Up Above The Rock” – 0:48
31. “Eric & The Vikings - Get Off The Streets Y'all” – 1:14
32. “Jimmy Castor Bunch - Bad” – 1:00
33. “Soul Severes - I Got It” – 1:24
34. “James Brown - The Drunk” – 0:36
35. “Sisters and Brothers - Jed Clampett” – 2:09
36. “RJD2 - Let The Good Times Roll Part II / Mr. C & Funck Junction - Hot Butter 'n All” – 3:22
37. “RJD2 - Let The Good Times Roll Part I / Eric B & Rakim - Follow The Leader (a cappella)” – 2:33
38. “RJD2 - Rain” – 5:41
39. “RJD2 - Find You Out” – 5:02

VA - A Selection of 15 DJ Mix CDs (2001-2006)


The Soulsavers - Smoking & Drinking on a Tuesday Nite (2003)
Lame 320/171MB
Flac 860/458MB
Genre: Funky Psych/Country/Folk
No track listing; laid back crate digger mix from before they started hanging with Mark Lanegan

VA - A Selection of 15 DJ Mix CDs (2001-2006)


The Soulsavers - Fear and Loathing on the Wheels of Steel Vol.3 (2003)
Lame 320/317MB
Flac 861 ABR/845MB
Genre: Funky Psych/Country/Folk
2 CDs of more of the above

VA - A Selection of 15 DJ Mix CDs (2001-2006)


The Soulsavers - Staring at the Radio Staying Up All Night (2004)
Lame 320/347MB
Flac 847 ABR/902MB
Genre: Funky Psych/Country/Folk
2 CDs of even more of the above

Exact Audio Copy V0.99 prebeta 5 from 4. May 2009

EAC extraction logfile from 20. December 2009, 0:33

Dr.Delay / Psycrunk

Used drive : HP DVD Writer 1040r Adapter: 1 ID: 0

Read mode : Secure
Utilize accurate stream : Yes
Defeat audio cache : Yes
Make use of C2 pointers : No

Read offset correction : 6
Overread into Lead-In and Lead-Out : No
Fill up missing offset samples with silence : Yes
Delete leading and trailing silent blocks : No
Null samples used in CRC calculations : Yes
Used interface : Native Win32 interface for Win NT & 2000

Used output format : User Defined Encoder
Selected bitrate : 1024 kBit/s
Quality : High
Add ID3 tag : No
Command line compressor : C:\Program Files\Exact Audio Copy\FLAC\FLAC.EXE
Additional command line options : -5 -V -T "ARTIST=%a" -T "TITLE=%t" -T "ALBUM=%g" -T "DATE=%y" -T "TRACKNUMBER=%n" -T "GENRE=%m" -T "COMMENT=EAC Flac 1.1.2 -5" %s


TOC of the extracted CD

Track | Start | Length | Start sector | End sector
––––––––––––––––––––––––––––-
1 | 0:00.00 | 1:00.00 | 0 | 4499
2 | 1:00.00 | 2:23.70 | 4500 | 15294
3 | 3:23.70 | 2:33.04 | 15295 | 26773
4 | 5:56.74 | 3:23.65 | 26774 | 42063
5 | 9:20.64 | 3:25.35 | 42064 | 57473
6 | 12:46.24 | 2:30.59 | 57474 | 68782
7 | 15:17.08 | 1:41.46 | 68783 | 76403
8 | 16:58.54 | 1:29.30 | 76404 | 83108
9 | 18:28.09 | 1:33.74 | 83109 | 90157
10 | 20:02.08 | 2:19.66 | 90158 | 100648
11 | 22:21.74 | 1:32.36 | 100649 | 107584
12 | 23:54.35 | 1:49.12 | 107585 | 115771
13 | 25:43.47 | 1:38.37 | 115772 | 123158
14 | 27:22.09 | 1:01.42 | 123159 | 127775
15 | 28:23.51 | 1:05.54 | 127776 | 132704
16 | 29:29.30 | 4:33.41 | 132705 | 153220
17 | 34:02.71 | 1:10.29 | 153221 | 158499
18 | 35:13.25 | 3:15.33 | 158500 | 173157
19 | 38:28.58 | 2:34.42 | 173158 | 184749
20 | 41:03.25 | 1:44.21 | 184750 | 192570
21 | 42:47.46 | 1:17.42 | 192571 | 198387
22 | 44:05.13 | 1:48.39 | 198388 | 206526
23 | 45:53.52 | 3:34.57 | 206527 | 222633
24 | 49:28.34 | 1:52.04 | 222634 | 231037
25 | 51:20.38 | 1:23.38 | 231038 | 237300
26 | 52:44.01 | 1:47.62 | 237301 | 245387
27 | 54:31.63 | 3:46.33 | 245388 | 262370
28 | 58:18.21 | 3:04.18 | 262371 | 276188
29 | 61:22.39 | 2:37.42 | 276189 | 288005
30 | 64:00.06 | 3:26.00 | 288006 | 303455


Range status and errors

Selected range

Filename C:\Users\Mike3\Desktop\Dr. Delay - Psycrunk (Flac)\Dr.Delay - Psycrunk.wav

Peak level 93.3 %
Range quality 100.0 %
Copy CRC 74615BAE
Copy OK

No errors occurred


AccurateRip summary

Track 1 not present in database
Track 2 not present in database
Track 3 not present in database
Track 4 not present in database
Track 5 not present in database
Track 6 not present in database
Track 7 not present in database
Track 8 not present in database
Track 9 not present in database
Track 10 not present in database
Track 11 not present in database
Track 12 not present in database
Track 13 not present in database
Track 14 not present in database
Track 15 not present in database
Track 16 not present in database
Track 17 not present in database
Track 18 not present in database
Track 19 not present in database
Track 20 not present in database
Track 21 not present in database
Track 22 not present in database
Track 23 not present in database
Track 24 not present in database
Track 25 not present in database
Track 26 not present in database
Track 27 not present in database
Track 28 not present in database
Track 29 not present in database
Track 30 not present in database

None of the tracks are present in the AccurateRip database

End of status report


Exact Audio Copy V0.99 prebeta 5 from 4. May 2009

EAC extraction logfile from 18. December 2009, 22:21

Various / James Hyman: DJ Mission Vol 007 (License To Thrill)

Used drive : HP DVD Writer 1040r Adapter: 1 ID: 0

Read mode : Secure
Utilize accurate stream : Yes
Defeat audio cache : Yes
Make use of C2 pointers : No

Read offset correction : 6
Overread into Lead-In and Lead-Out : No
Fill up missing offset samples with silence : Yes
Delete leading and trailing silent blocks : No
Null samples used in CRC calculations : Yes
Used interface : Native Win32 interface for Win NT & 2000

Used output format : User Defined Encoder
Selected bitrate : 1024 kBit/s
Quality : High
Add ID3 tag : No
Command line compressor : C:\Program Files\Exact Audio Copy\FLAC\FLAC.EXE
Additional command line options : -5 -V -T "ARTIST=%a" -T "TITLE=%t" -T "ALBUM=%g" -T "DATE=%y" -T "TRACKNUMBER=%n" -T "GENRE=%m" -T "COMMENT=EAC Flac 1.1.2 -5" %s


TOC of the extracted CD

Track | Start | Length | Start sector | End sector
––––––––––––––––––––––––––––-
1 | 0:00.00 | 2:13.42 | 0 | 10016
2 | 2:13.42 | 0:26.68 | 10017 | 12034
3 | 2:40.35 | 1:49.55 | 12035 | 20264
4 | 4:30.15 | 1:24.05 | 20265 | 26569
5 | 5:54.20 | 0:52.02 | 26570 | 30471
6 | 6:46.22 | 2:45.72 | 30472 | 42918
7 | 9:32.19 | 2:00.04 | 42919 | 51922
8 | 11:32.23 | 1:01.30 | 51923 | 56527
9 | 12:33.53 | 1:12.66 | 56528 | 61993
10 | 13:46.44 | 0:51.33 | 61994 | 65851
11 | 14:38.02 | 1:23.48 | 65852 | 72124
12 | 16:01.50 | 1:53.31 | 72125 | 80630
13 | 17:55.06 | 1:31.16 | 80631 | 87471
14 | 19:26.22 | 2:25.16 | 87472 | 98362
15 | 21:51.38 | 2:16.69 | 98363 | 108631
16 | 24:08.32 | 2:22.13 | 108632 | 119294
17 | 26:30.45 | 2:04.63 | 119295 | 128657
18 | 28:35.33 | 1:52.64 | 128658 | 137121
19 | 30:28.22 | 0:42.11 | 137122 | 140282
20 | 31:10.33 | 0:37.08 | 140283 | 143065
21 | 31:47.41 | 3:47.52 | 143066 | 160142
22 | 35:35.18 | 1:37.15 | 160143 | 167432
23 | 37:12.33 | 1:09.42 | 167433 | 172649
24 | 38:22.00 | 1:51.69 | 172650 | 181043
25 | 40:13.69 | 0:38.16 | 181044 | 183909
26 | 40:52.10 | 1:11.36 | 183910 | 189270
27 | 42:03.46 | 2:10.35 | 189271 | 199055
28 | 44:14.06 | 1:34.07 | 199056 | 206112
29 | 45:48.13 | 1:56.24 | 206113 | 214836
30 | 47:44.37 | 1:17.22 | 214837 | 220633
31 | 49:01.59 | 2:17.55 | 220634 | 230963
32 | 51:19.39 | 2:18.12 | 230964 | 241325
33 | 53:37.51 | 2:00.28 | 241326 | 250353
34 | 55:38.04 | 0:46.33 | 250354 | 253836
35 | 56:24.37 | 0:48.00 | 253837 | 257436
36 | 57:12.37 | 0:22.47 | 257437 | 259133
37 | 57:35.09 | 1:12.38 | 259134 | 264571
38 | 58:47.47 | 1:11.27 | 264572 | 269923
39 | 59:58.74 | 1:07.26 | 269924 | 274974
40 | 61:06.25 | 1:27.26 | 274975 | 281525
41 | 62:33.51 | 1:02.22 | 281526 | 286197
42 | 63:35.73 | 0:43.03 | 286198 | 289425
43 | 64:19.01 | 1:23.36 | 289426 | 295686
44 | 65:42.37 | 3:33.68 | 295687 | 311729
45 | 69:16.30 | 1:14.65 | 311730 | 317344
46 | 70:31.20 | 1:42.28 | 317345 | 325022
47 | 72:13.48 | 0:27.62 | 325023 | 327109
48 | 72:41.35 | 0:35.10 | 327110 | 329744
49 | 73:16.45 | 2:54.71 | 329745 | 342865
50 | 76:11.41 | 0:40.67 | 342866 | 345932


Range status and errors

Selected range

Filename C:\Users\Mike3\Desktop\James Hyman - DJ Mission Vol. 007 (License to Thrill) (Flac)\Various - James Hyman DJ Mission Vol 007 (License To Thrill).wav

Peak level 100.0 %
Range quality 100.0 %
Copy CRC 754ECE6D
Copy OK

No errors occurred


AccurateRip summary

Track 1 cannot be verified as accurate (confidence 1) [D1C2EB05], AccurateRip returned [369E0F72]
Track 2 cannot be verified as accurate (confidence 1) [08476B1C], AccurateRip returned [27616CC1]
Track 3 cannot be verified as accurate (confidence 1) [A9700774], AccurateRip returned [EB4DE61F]
Track 4 cannot be verified as accurate (confidence 1) [D7E36A48], AccurateRip returned [5CD5D9CE]
Track 5 cannot be verified as accurate (confidence 1) [A6D30D82], AccurateRip returned [B79F410C]
Track 6 cannot be verified as accurate (confidence 1) [B29769EC], AccurateRip returned [00D21B6F]
Track 7 cannot be verified as accurate (confidence 1) [81C08C01], AccurateRip returned [C48AC389]
Track 8 cannot be verified as accurate (confidence 1) [135E13D6], AccurateRip returned [3E9CC952]
Track 9 cannot be verified as accurate (confidence 1) [544AB8CA], AccurateRip returned [96E83E0D]
Track 10 cannot be verified as accurate (confidence 1) [02663C89], AccurateRip returned [E7ED9775]
Track 11 cannot be verified as accurate (confidence 1) [80298308], AccurateRip returned [D214853E]
Track 12 cannot be verified as accurate (confidence 1) [D163772F], AccurateRip returned [A72A2C50]
Track 13 cannot be verified as accurate (confidence 1) [927A3CBB], AccurateRip returned [C2FB4E20]
Track 14 cannot be verified as accurate (confidence 1) [25090C37], AccurateRip returned [A9F787BD]
Track 15 cannot be verified as accurate (confidence 1) [DE63ECD6], AccurateRip returned [776EFFAB]
Track 16 cannot be verified as accurate (confidence 1) [1F847C37], AccurateRip returned [AD38889D]
Track 17 cannot be verified as accurate (confidence 1) [06CB8F34], AccurateRip returned [33DD7E90]
Track 18 cannot be verified as accurate (confidence 1) [22715B91], AccurateRip returned [F24CE20E]
Track 19 cannot be verified as accurate (confidence 1) [10C8AE38], AccurateRip returned [F3F365BC]
Track 20 cannot be verified as accurate (confidence 1) [C41A8B05], AccurateRip returned [27008113]
Track 21 cannot be verified as accurate (confidence 1) [FF28D73D], AccurateRip returned [B4248D3F]
Track 22 cannot be verified as accurate (confidence 1) [70DD0B49], AccurateRip returned [A833735A]
Track 23 cannot be verified as accurate (confidence 1) [8BD4F83A], AccurateRip returned [BCC29CF5]
Track 24 cannot be verified as accurate (confidence 1) [1F3DFBBC], AccurateRip returned [1653FDAA]
Track 25 cannot be verified as accurate (confidence 1) [E4A2AA1C], AccurateRip returned [B4C66C3F]
Track 26 cannot be verified as accurate (confidence 1) [CA4932AF], AccurateRip returned [30E1A670]
Track 27 cannot be verified as accurate (confidence 1) [9A8EE39C], AccurateRip returned [DAAB55F0]
Track 28 cannot be verified as accurate (confidence 1) [C515B729], AccurateRip returned [396DDF0C]
Track 29 cannot be verified as accurate (confidence 1) [529FE677], AccurateRip returned [862F0ED0]
Track 30 cannot be verified as accurate (confidence 1) [61D2784F], AccurateRip returned [8BF537F6]
Track 31 cannot be verified as accurate (confidence 1) [A6195E9B], AccurateRip returned [70632D3E]
Track 32 cannot be verified as accurate (confidence 1) [56813B83], AccurateRip returned [95F0D0C1]
Track 33 cannot be verified as accurate (confidence 1) [5DAADB99], AccurateRip returned [7443E05C]
Track 34 cannot be verified as accurate (confidence 1) [E9843C12], AccurateRip returned [3448BF42]
Track 35 cannot be verified as accurate (confidence 1) [483F4A91], AccurateRip returned [F7DF80FA]
Track 36 cannot be verified as accurate (confidence 1) [A37382B1], AccurateRip returned [1454FD14]
Track 37 cannot be verified as accurate (confidence 1) [0BCE1559], AccurateRip returned [53C25CC3]
Track 38 cannot be verified as accurate (confidence 1) [35831CD0], AccurateRip returned [1AC0AAE0]
Track 39 cannot be verified as accurate (confidence 1) [7D2B1E88], AccurateRip returned [81C80258]
Track 40 cannot be verified as accurate (confidence 1) [C2B6E99B], AccurateRip returned [4FD478E1]
Track 41 cannot be verified as accurate (confidence 1) [A15A0641], AccurateRip returned [759BFDE5]
Track 42 cannot be verified as accurate (confidence 1) [F3E20D2C], AccurateRip returned [D6BB636F]
Track 43 cannot be verified as accurate (confidence 1) [508D4E83], AccurateRip returned [6FBCD771]
Track 44 cannot be verified as accurate (confidence 1) [9C14A86F], AccurateRip returned [009DB2DB]
Track 45 cannot be verified as accurate (confidence 1) [660E8E51], AccurateRip returned [3A8BC598]
Track 46 cannot be verified as accurate (confidence 1) [C1A8ED0E], AccurateRip returned [7C2E7FC6]
Track 47 cannot be verified as accurate (confidence 1) [605D22CE], AccurateRip returned [A3F94C39]
Track 48 cannot be verified as accurate (confidence 1) [CB7A0CEA], AccurateRip returned [183C8538]
Track 49 cannot be verified as accurate (confidence 1) [F59D4897], AccurateRip returned [471EDA44]
Track 50 cannot be verified as accurate (confidence 1) [4EDCCBB0], AccurateRip returned [59F1FC7B]

No tracks could be verified as accurate
You may have a different pressing from the one(s) in the database

End of status report


dBpoweramp Release 13.3 Digital Audio Extraction Log from 20 December 2009 2:39 PM

Drive & Settings
––––––––

Ripping with drive 'G: [HP - DVD Writer 1040r]', Drive offset: 6, Overread Lead-in/out: No
AccurateRip: Active, Using C2: No, Cache: 1024 KB, FUA Cache Invalidate: No
Pass 1 Drive Speed: Max, Pass 2 Drive Speed: Max
Bad Sector Re-rip:: Drive Speed: Max, Maximum Re-reads: 34

Encoder: FLAC -compression-level-8 -verify

Extraction Log
–––––––

Track 1: Ripped LBA 0 to 36666 (8:08) in 0:48. Filename: C:\Users\Mike3\Desktop\Diplo & Tripledouble - AEIOU (Flac)\Diplo & Tripledouble\AEIOU Two\Diplo & Tripledouble - 01 - Track 1.flac
AccurateRip: Inaccurate (confidence 1) Secure [Pass 1 & 2]
CRC32: 349A94F5 AccurateRip CRC: E4685CC7 [DiscID: 012-0023d9d6-014ecd94-af12b70c-1]

Track 2: Ripped LBA 36666 to 63156 (5:53) in 0:27. Filename: C:\Users\Mike3\Desktop\Diplo & Tripledouble - AEIOU (Flac)\Diplo & Tripledouble\AEIOU Two\Diplo & Tripledouble - 02 - Track 2.flac
AccurateRip: Inaccurate (confidence 1) Secure [Pass 1 & 2]
CRC32: 8E4CD17F AccurateRip CRC: 0C9F8F7A [DiscID: 012-0023d9d6-014ecd94-af12b70c-2]

Track 3: Ripped LBA 63156 to 91080 (6:12) in 0:26. Filename: C:\Users\Mike3\Desktop\Diplo & Tripledouble - AEIOU (Flac)\Diplo & Tripledouble\AEIOU Two\Diplo & Tripledouble - 03 - Track 3.flac
AccurateRip: Inaccurate (confidence 1) Secure [Pass 1 & 2]
CRC32: 9B04E37F AccurateRip CRC: 175F8F44 [DiscID: 012-0023d9d6-014ecd94-af12b70c-3]

Track 4: Ripped LBA 91080 to 112734 (4:48) in 0:19. Filename: C:\Users\Mike3\Desktop\Diplo & Tripledouble - AEIOU (Flac)\Diplo & Tripledouble\AEIOU Two\Diplo & Tripledouble - 04 - Track 4.flac
AccurateRip: Inaccurate (confidence 1) Secure [Pass 1 & 2]
CRC32: C2A58E19 AccurateRip CRC: 28BED81D [DiscID: 012-0023d9d6-014ecd94-af12b70c-4]

Track 5: Ripped LBA 112734 to 140847 (6:14) in 0:23. Filename: C:\Users\Mike3\Desktop\Diplo & Tripledouble - AEIOU (Flac)\Diplo & Tripledouble\AEIOU Two\Diplo & Tripledouble - 05 - Track 5.flac
AccurateRip: Inaccurate (confidence 1) Secure [Pass 1 & 2]
CRC32: 696345E9 AccurateRip CRC: B51324E7 [DiscID: 012-0023d9d6-014ecd94-af12b70c-5]

Track 6: Ripped LBA 140847 to 179148 (8:30) in 0:29. Filename: C:\Users\Mike3\Desktop\Diplo & Tripledouble - AEIOU (Flac)\Diplo & Tripledouble\AEIOU Two\Diplo & Tripledouble - 06 - Track 6.flac
AccurateRip: Inaccurate (confidence 1) Secure [Pass 1 & 2]
CRC32: 318CCAAE AccurateRip CRC: 62731E1E [DiscID: 012-0023d9d6-014ecd94-af12b70c-6]

Track 7: Ripped LBA 179148 to 204693 (5:40) in 0:18. Filename: C:\Users\Mike3\Desktop\Diplo & Tripledouble - AEIOU (Flac)\Diplo & Tripledouble\AEIOU Two\Diplo & Tripledouble - 07 - Track 7.flac
AccurateRip: Inaccurate (confidence 1) Secure [Pass 1 & 2]
CRC32: 15E1F6D1 AccurateRip CRC: 5EE4064F [DiscID: 012-0023d9d6-014ecd94-af12b70c-7]

Track 8: Ripped LBA 204693 to 245650 (9:06) in 0:29. Filename: C:\Users\Mike3\Desktop\Diplo & Tripledouble - AEIOU (Flac)\Diplo & Tripledouble\AEIOU Two\Diplo & Tripledouble - 08 - Track 8.flac
AccurateRip: Inaccurate (confidence 1) Secure [Pass 1 & 2]
CRC32: 5714B24B AccurateRip CRC: B6A9CFE2 [DiscID: 012-0023d9d6-014ecd94-af12b70c-8]

Track 9: Ripped LBA 245650 to 275990 (6:44) in 0:19. Filename: C:\Users\Mike3\Desktop\Diplo & Tripledouble - AEIOU (Flac)\Diplo & Tripledouble\AEIOU Two\Diplo & Tripledouble - 09 - Track 9.flac
AccurateRip: Inaccurate (confidence 1) Secure [Pass 1 & 2]
CRC32: A86E2D3F AccurateRip CRC: 426B6577 [DiscID: 012-0023d9d6-014ecd94-af12b70c-9]

Track 10: Ripped LBA 275990 to 310656 (7:42) in 0:23. Filename: C:\Users\Mike3\Desktop\Diplo & Tripledouble - AEIOU (Flac)\Diplo & Tripledouble\AEIOU Two\Diplo & Tripledouble - 10 - Track 10.flac
AccurateRip: Inaccurate (confidence 1) Secure [Pass 1 & 2]
CRC32: 05CE3A56 AccurateRip CRC: 55CD97B2 [DiscID: 012-0023d9d6-014ecd94-af12b70c-10]

Track 11: Ripped LBA 310656 to 329545 (4:11) in 2:09. Filename: C:\Users\Mike3\Desktop\Diplo & Tripledouble - AEIOU (Flac)\Diplo & Tripledouble\AEIOU Two\Diplo & Tripledouble - 11 - Track 11.flac
AccurateRip: Inaccurate (confidence 1) Secure (Warning) [Pass 1 & 2, Re-Rip 32 Frames]
CRC32: F5796F05 AccurateRip CRC: 90F3FCA1 [DiscID: 012-0023d9d6-014ecd94-af12b70c-11]

Track 12: Ripped LBA 329545 to 359361 (6:37) in 1:53:34. Filename: C:\Users\Mike3\Desktop\Diplo & Tripledouble - AEIOU (Flac)\Diplo & Tripledouble\AEIOU Two\Diplo & Tripledouble - 12 - Track 12.flac
AccurateRip: Inaccurate (confidence 1) Insecure [Pass 1 & 2, Re-Rip 174 Frames]
CRC32: 813F971A AccurateRip CRC: 27072ED8 [DiscID: 012-0023d9d6-014ecd94-af12b70c-12]

–––––––

12 Tracks Ripped: 10 Secure, 1 Secure (Warning), 1 Inaccurate


Exact Audio Copy V0.99 prebeta 5 from 4. May 2009

EAC extraction logfile from 23. December 2009, 13:03

Spank Rock/Chris Rockwell/Ronnie Darko/XXXChange / Couche-Tard

Used drive : HP DVD Writer 1040r Adapter: 1 ID: 0

Read mode : Secure
Utilize accurate stream : Yes
Defeat audio cache : Yes
Make use of C2 pointers : No

Read offset correction : 6
Overread into Lead-In and Lead-Out : No
Fill up missing offset samples with silence : Yes
Delete leading and trailing silent blocks : No
Null samples used in CRC calculations : Yes
Used interface : Native Win32 interface for Win NT & 2000

Used output format : User Defined Encoder
Selected bitrate : 1024 kBit/s
Quality : High
Add ID3 tag : No
Command line compressor : C:\Program Files\Exact Audio Copy\FLAC\FLAC.EXE
Additional command line options : -5 -V -T "ARTIST=%a" -T "TITLE=%t" -T "ALBUM=%g" -T "DATE=%y" -T "TRACKNUMBER=%n" -T "GENRE=%m" -T "COMMENT=EAC Flac 1.1.2 -5" %s


TOC of the extracted CD

Track | Start | Length | Start sector | End sector
––––––––––––––––––––––––––––-
1 | 0:00.00 | 10:45.06 | 0 | 48380
2 | 10:45.06 | 13:23.10 | 48381 | 108615
3 | 24:08.16 | 10:46.21 | 108616 | 157086
4 | 34:54.37 | 10:50.49 | 157087 | 205885
5 | 45:45.11 | 12:25.52 | 205886 | 261812
6 | 58:10.63 | 7:45.38 | 261813 | 296725


Range status and errors

Selected range

Filename C:\Users\Mike3\Desktop\Spank Rock - Couche-Tard (Flac)\Spank Rock Chris Rockwell Ronnie Darko XXXChange - Couche-Tard.wav

Peak level 99.1 %
Range quality 100.0 %
Copy CRC 7914EEAA
Copy OK

No errors occurred


AccurateRip summary

Track 1 not present in database
Track 2 not present in database
Track 3 not present in database
Track 4 not present in database
Track 5 not present in database
Track 6 not present in database

None of the tracks are present in the AccurateRip database

End of status report


Exact Audio Copy V0.99 prebeta 5 from 4. May 2009

EAC extraction logfile from 18. December 2009, 20:37

Spank Rock / Voila

Used drive : HP DVD Writer 1040r Adapter: 1 ID: 0

Read mode : Secure
Utilize accurate stream : Yes
Defeat audio cache : Yes
Make use of C2 pointers : No

Read offset correction : 6
Overread into Lead-In and Lead-Out : No
Fill up missing offset samples with silence : Yes
Delete leading and trailing silent blocks : No
Null samples used in CRC calculations : Yes
Used interface : Native Win32 interface for Win NT & 2000

Used output format : User Defined Encoder
Selected bitrate : 1024 kBit/s
Quality : High
Add ID3 tag : No
Command line compressor : C:\Program Files\Exact Audio Copy\FLAC\FLAC.EXE
Additional command line options : -5 -V -T "ARTIST=%a" -T "TITLE=%t" -T "ALBUM=%g" -T "DATE=%y" -T "TRACKNUMBER=%n" -T "GENRE=%m" -T "COMMENT=EAC Flac 1.1.2 -5" %s


TOC of the extracted CD

Track | Start | Length | Start sector | End sector
––––––––––––––––––––––––––––-
1 | 0:00.00 | 13:52.21 | 0 | 62420
2 | 13:52.21 | 9:55.23 | 62421 | 107068
3 | 23:47.44 | 15:40.73 | 107069 | 177641
4 | 39:28.42 | 16:25.33 | 177642 | 251549


Range status and errors

Selected range

Filename C:\Users\Mike3\Desktop\Spank Rock - Voila (Flac)\Spank Rock - Voila.wav

Peak level 100.0 %
Range quality 100.0 %
Copy CRC 2876E6CB
Copy OK

No errors occurred


AccurateRip summary

Track 1 accurately ripped (confidence 1) [20935392]
Track 2 accurately ripped (confidence 1) [826C2B36]
Track 3 accurately ripped (confidence 1) [E98F3C9D]
Track 4 accurately ripped (confidence 1) [B83569C6]

All tracks accurately ripped

End of status report


Exact Audio Copy V0.99 prebeta 5 from 4. May 2009

EAC extraction logfile from 23. December 2009, 23:54

DJ Miles / Funky Sole

Used drive : HP DVD Writer 1040r Adapter: 1 ID: 0

Read mode : Secure
Utilize accurate stream : Yes
Defeat audio cache : Yes
Make use of C2 pointers : No

Read offset correction : 6
Overread into Lead-In and Lead-Out : No
Fill up missing offset samples with silence : Yes
Delete leading and trailing silent blocks : No
Null samples used in CRC calculations : Yes
Used interface : Native Win32 interface for Win NT & 2000

Used output format : User Defined Encoder
Selected bitrate : 1024 kBit/s
Quality : High
Add ID3 tag : No
Command line compressor : C:\Program Files\Exact Audio Copy\FLAC\FLAC.EXE
Additional command line options : -5 -V -T "ARTIST=%a" -T "TITLE=%t" -T "ALBUM=%g" -T "DATE=%y" -T "TRACKNUMBER=%n" -T "GENRE=%m" -T "COMMENT=EAC Flac 1.1.2 -5" %s


TOC of the extracted CD

Track | Start | Length | Start sector | End sector
––––––––––––––––––––––––––––-
1 | 0:00.00 | 2:18.35 | 0 | 10384
2 | 2:18.35 | 2:18.20 | 10385 | 20754
3 | 4:36.55 | 2:04.47 | 20755 | 30101
4 | 6:41.27 | 1:43.11 | 30102 | 37837
5 | 8:24.38 | 2:46.61 | 37838 | 50348
6 | 11:11.24 | 1:03.74 | 50349 | 55147
7 | 12:15.23 | 1:12.12 | 55148 | 60559
8 | 13:27.35 | 0:59.10 | 60560 | 64994
9 | 14:26.45 | 1:22.20 | 64995 | 71164
10 | 15:48.65 | 1:15.37 | 71165 | 76826
11 | 17:04.27 | 1:14.29 | 76827 | 82405
12 | 18:18.56 | 0:37.21 | 82406 | 85201
13 | 18:56.02 | 1:43.61 | 85202 | 92987
14 | 20:39.63 | 1:59.46 | 92988 | 101958
15 | 22:39.34 | 1:20.07 | 101959 | 107965
16 | 23:59.41 | 1:28.37 | 107966 | 114602
17 | 25:28.03 | 2:24.50 | 114603 | 125452
18 | 27:52.53 | 2:10.41 | 125453 | 135243
19 | 30:03.19 | 1:12.51 | 135244 | 140694
20 | 31:15.70 | 1:30.58 | 140695 | 147502
21 | 32:46.53 | 1:07.34 | 147503 | 152561
22 | 33:54.12 | 0:50.50 | 152562 | 156361
23 | 34:44.62 | 1:45.01 | 156362 | 164237
24 | 36:29.63 | 0:52.43 | 164238 | 168180
25 | 37:22.31 | 0:48.07 | 168181 | 171787
26 | 38:10.38 | 0:44.52 | 171788 | 175139
27 | 38:55.15 | 1:15.18 | 175140 | 180782
28 | 40:10.33 | 1:31.16 | 180783 | 187623
29 | 41:41.49 | 1:13.38 | 187624 | 193136
30 | 42:55.12 | 1:25.51 | 193137 | 199562
31 | 44:20.63 | 2:45.12 | 199563 | 211949
32 | 47:06.00 | 1:10.59 | 211950 | 217258
33 | 48:16.59 | 2:51.57 | 217259 | 230140
34 | 51:08.41 | 2:12.24 | 230141 | 240064
35 | 53:20.65 | 1:31.20 | 240065 | 246909
36 | 54:52.10 | 1:52.36 | 246910 | 255345
37 | 56:44.46 | 2:29.45 | 255346 | 266565
38 | 59:14.16 | 1:56.15 | 266566 | 275280
39 | 61:10.31 | 1:08.53 | 275281 | 280433
40 | 62:19.09 | 1:39.66 | 280434 | 287924
41 | 63:59.00 | 1:44.08 | 287925 | 295732
42 | 65:43.08 | 1:18.05 | 295733 | 301587
43 | 67:01.13 | 2:00.39 | 301588 | 310626
44 | 69:01.52 | 0:58.48 | 310627 | 315024
45 | 70:00.25 | 1:52.21 | 315025 | 323445
46 | 71:52.46 | 1:58.03 | 323446 | 332298
47 | 73:50.49 | 1:54.03 | 332299 | 340851
48 | 75:44.52 | 1:32.30 | 340852 | 347781
49 | 77:17.07 | 2:24.13 | 347782 | 358594


Range status and errors

Selected range

Filename C:\Users\Mike3\Desktop\DJ Miles - Funky Sole (Flac)\DJ Miles - Funky Sole.wav

Peak level 100.0 %
Range quality 100.0 %
Copy CRC F2AD1C60
Copy OK

No errors occurred


AccurateRip summary

Track 1 not present in database
Track 2 not present in database
Track 3 not present in database
Track 4 not present in database
Track 5 not present in database
Track 6 not present in database
Track 7 not present in database
Track 8 not present in database
Track 9 not present in database
Track 10 not present in database
Track 11 not present in database
Track 12 not present in database
Track 13 not present in database
Track 14 not present in database
Track 15 not present in database
Track 16 not present in database
Track 17 not present in database
Track 18 not present in database
Track 19 not present in database
Track 20 not present in database
Track 21 not present in database
Track 22 not present in database
Track 23 not present in database
Track 24 not present in database
Track 25 not present in database
Track 26 not present in database
Track 27 not present in database
Track 28 not present in database
Track 29 not present in database
Track 30 not present in database
Track 31 not present in database
Track 32 not present in database
Track 33 not present in database
Track 34 not present in database
Track 35 not present in database
Track 36 not present in database
Track 37 not present in database
Track 38 not present in database
Track 39 not present in database
Track 40 not present in database
Track 41 not present in database
Track 42 not present in database
Track 43 not present in database
Track 44 not present in database
Track 45 not present in database
Track 46 not present in database
Track 47 not present in database
Track 48 not present in database
Track 49 not present in database

None of the tracks are present in the AccurateRip database

End of status report


Exact Audio Copy V0.99 prebeta 5 from 4. May 2009

EAC extraction logfile from 23. December 2009, 13:53

Hollertronix / Never Scared

Used drive : HP DVD Writer 1040r Adapter: 1 ID: 0

Read mode : Secure
Utilize accurate stream : Yes
Defeat audio cache : Yes
Make use of C2 pointers : No

Read offset correction : 6
Overread into Lead-In and Lead-Out : No
Fill up missing offset samples with silence : Yes
Delete leading and trailing silent blocks : No
Null samples used in CRC calculations : Yes
Used interface : Native Win32 interface for Win NT & 2000

Used output format : User Defined Encoder
Selected bitrate : 1024 kBit/s
Quality : High
Add ID3 tag : No
Command line compressor : C:\Program Files\Exact Audio Copy\FLAC\FLAC.EXE
Additional command line options : -5 -V -T "ARTIST=%a" -T "TITLE=%t" -T "ALBUM=%g" -T "DATE=%y" -T "TRACKNUMBER=%n" -T "GENRE=%m" -T "COMMENT=EAC Flac 1.1.2 -5" %s


TOC of the extracted CD

Track | Start | Length | Start sector | End sector
––––––––––––––––––––––––––––-
1 | 0:00.00 | 7:47.10 | 0 | 35034
2 | 7:47.10 | 7:11.55 | 35035 | 67414
3 | 14:58.65 | 5:54.70 | 67415 | 94034
4 | 20:53.60 | 5:18.00 | 94035 | 117884
5 | 26:11.60 | 6:25.05 | 117885 | 146764
6 | 32:36.65 | 6:17.12 | 146765 | 175051
7 | 38:54.02 | 5:43.16 | 175052 | 200792
8 | 44:37.18 | 6:46.61 | 200793 | 231303
9 | 51:24.04 | 6:23.27 | 231304 | 260055
10 | 57:47.31 | 9:58.09 | 260056 | 304914
11 | 67:45.40 | 12:01.10 | 304915 | 358999


Range status and errors

Selected range

Filename C:\Users\Mike3\Desktop\Hollertronix - Never Scared (Flac)\Hollertronix - Never Scared.wav

Suspicious position 1:19:46

Peak level 100.0 %
Range quality 99.9 %
Copy CRC 5B81D098
Copy finished

There were errors


AccurateRip summary

Track 1 not present in database
Track 2 not present in database
Track 3 not present in database
Track 4 not present in database
Track 5 not present in database
Track 6 not present in database
Track 7 not present in database
Track 8 not present in database
Track 9 not present in database
Track 10 not present in database
Track 11 not present in database

None of the tracks are present in the AccurateRip database

End of status report


Exact Audio Copy V0.99 prebeta 5 from 4. May 2009

EAC extraction logfile from 23. December 2009, 12:04

Jay Glaze & Pro Celebrity Golf / Three Sinister Syllables

Used drive : HP DVD Writer 1040r Adapter: 1 ID: 0

Read mode : Secure
Utilize accurate stream : Yes
Defeat audio cache : Yes
Make use of C2 pointers : No

Read offset correction : 6
Overread into Lead-In and Lead-Out : No
Fill up missing offset samples with silence : Yes
Delete leading and trailing silent blocks : No
Null samples used in CRC calculations : Yes
Used interface : Native Win32 interface for Win NT & 2000

Used output format : User Defined Encoder
Selected bitrate : 1024 kBit/s
Quality : High
Add ID3 tag : No
Command line compressor : C:\Program Files\Exact Audio Copy\FLAC\FLAC.EXE
Additional command line options : -5 -V -T "ARTIST=%a" -T "TITLE=%t" -T "ALBUM=%g" -T "DATE=%y" -T "TRACKNUMBER=%n" -T "GENRE=%m" -T "COMMENT=EAC Flac 1.1.2 -5" %s


TOC of the extracted CD

Track | Start | Length | Start sector | End sector
––––––––––––––––––––––––––––-
1 | 0:00.00 | 8:49.60 | 0 | 39734
2 | 8:49.60 | 2:53.49 | 39735 | 52758
3 | 11:43.34 | 7:53.44 | 52759 | 88277
4 | 19:37.03 | 4:34.49 | 88278 | 108876
5 | 24:11.52 | 3:29.39 | 108877 | 124590
6 | 27:41.16 | 7:58.05 | 124591 | 160445
7 | 35:39.21 | 7:22.05 | 160446 | 193600
8 | 43:01.26 | 7:12.09 | 193601 | 226009
9 | 50:13.35 | 9:31.41 | 226010 | 268875
10 | 59:45.01 | 7:09.73 | 268876 | 301123
11 | 66:54.74 | 6:17.17 | 301124 | 329415


Range status and errors

Selected range

Filename C:\Users\Mike3\Desktop\Jay Glaze & Pro Celebrity Golf - Three Sinister Syllables (Flac)\Jay Glaze & Pro Celebrity Golf - Three Sinister Syllables.wav

Peak level 99.4 %
Range quality 99.9 %
Copy CRC C6080A41
Copy OK

No errors occurred


AccurateRip summary

Track 1 accurately ripped (confidence 1) [CAF780AC]
Track 2 accurately ripped (confidence 1) [785D66DC]
Track 3 accurately ripped (confidence 1) [D6CED8F5]
Track 4 accurately ripped (confidence 1) [06CEF5CD]
Track 5 accurately ripped (confidence 1) [1963AEF5]
Track 6 accurately ripped (confidence 1) [4AC25979]
Track 7 accurately ripped (confidence 1) [6CEF8336]
Track 8 accurately ripped (confidence 1) [F08D3256]
Track 9 accurately ripped (confidence 1) [AAACC28A]
Track 10 accurately ripped (confidence 1) [3471617F]
Track 11 accurately ripped (confidence 1) [45BFD818]

All tracks accurately ripped

End of status report


dBpoweramp Release 13.3 Digital Audio Extraction Log from 24 December 2009 2:35 PM

Drive & Settings
––––––––

Ripping with drive 'F: [HP - DVD Writer 1040r]', Drive offset: 6, Overread Lead-in/out: No
AccurateRip: Active, Using C2: No, Cache: 1024 KB, FUA Cache Invalidate: No
Pass 1 Drive Speed: Max, Pass 2 Drive Speed: Max
Bad Sector Re-rip:: Drive Speed: Max, Maximum Re-reads: 34

Encoder: FLAC -compression-level-8 -verify

Extraction Log
–––––––

Track 1: Ripped LBA 0 to 1000 (0:13) in 1:51. Filename: C:\Users\Mike3\Desktop\DJ Mike the 2600 King\Records Before Rent\DJ Mike the 2600 King - 01 - You Can Find Me Diggin Every Day in St. Louis - I'm the Breakbeat Guru.flac
Secure (Warning) [Pass 1 & 2, Re-Rip 6 Frames]
CRC32: 499CA457 AccurateRip CRC: AF1D9F8A [DiscID: 029-003b301a-04e5502b-a10e651d-1]

Track 2: Ripped LBA 1000 to 6713 (1:16) in 6:35. Filename: C:\Users\Mike3\Desktop\DJ Mike the 2600 King\Records Before Rent\DJ Mike the 2600 King - 02 - Outlaw Blues Band - Deep Gully.flac
Secure (Warning) [Pass 1 & 2, Re-Rip 21 Frames]
CRC32: F98BF080 AccurateRip CRC: C9C595D4 [DiscID: 029-003b301a-04e5502b-a10e651d-2]

Track 3: Ripped LBA 6713 to 15266 (1:54) in 24:17. Filename: C:\Users\Mike3\Desktop\DJ Mike the 2600 King\Records Before Rent\DJ Mike the 2600 King - 03 - Jack McDuff - Hunk O Funk.flac
Insecure [Pass 1 & 2, Re-Rip 48 Frames]
CRC32: 0BEBB8D8 AccurateRip CRC: 73D388F4 [DiscID: 029-003b301a-04e5502b-a10e651d-3]

Track 4: Ripped LBA 15266 to 28391 (2:55) in 0:32. Filename: C:\Users\Mike3\Desktop\DJ Mike the 2600 King\Records Before Rent\DJ Mike the 2600 King - 04 - The Romanceers - You're the Man.flac
Secure [Pass 1 & 2]
CRC32: 2E463526 AccurateRip CRC: E3D986B1 [DiscID: 029-003b301a-04e5502b-a10e651d-4]

Track 5: Ripped LBA 28391 to 36854 (1:52) in 0:11. Filename: C:\Users\Mike3\Desktop\DJ Mike the 2600 King\Records Before Rent\DJ Mike the 2600 King - 05 - Doris Hockeypony - Temptation.flac
Secure [Pass 1 & 2]
CRC32: 96603B69 AccurateRip CRC: 44E32BE0 [DiscID: 029-003b301a-04e5502b-a10e651d-5]

Track 6: Ripped LBA 36854 to 46158 (2:04) in 0:10. Filename: C:\Users\Mike3\Desktop\DJ Mike the 2600 King\Records Before Rent\DJ Mike the 2600 King - 06 - Mt. Rushmore - Toe Jam.flac
Secure [Pass 1 & 2]
CRC32: F61F63E7 AccurateRip CRC: EE746996 [DiscID: 029-003b301a-04e5502b-a10e651d-6]

Track 7: Ripped LBA 46158 to 50764 (1:01) in 0:04. Filename: C:\Users\Mike3\Desktop\DJ Mike the 2600 King\Records Before Rent\DJ Mike the 2600 King - 07 - Motherlode - Soft Shell.flac
Secure [Pass 1 & 2]
CRC32: F6558447 AccurateRip CRC: 81F59E54 [DiscID: 029-003b301a-04e5502b-a10e651d-7]

Track 8: Ripped LBA 50764 to 62625 (2:38) in 0:12. Filename: C:\Users\Mike3\Desktop\DJ Mike the 2600 King\Records Before Rent\DJ Mike the 2600 King - 08 - Galt MacDermot - Ripped Apart by Metal Explosions.flac
Secure [Pass 1 & 2]
CRC32: 73C3791E AccurateRip CRC: C3CD7C20 [DiscID: 029-003b301a-04e5502b-a10e651d-8]

Track 9: Ripped LBA 62625 to 76971 (3:11) in 0:14. Filename: C:\Users\Mike3\Desktop\DJ Mike the 2600 King\Records Before Rent\DJ Mike the 2600 King - 09 - Sound Foundation - Bruised.flac
Secure [Pass 1 & 2]
CRC32: C2A4547E AccurateRip CRC: C80B85FF [DiscID: 029-003b301a-04e5502b-a10e651d-9]

Track 10: Ripped LBA 76971 to 83357 (1:25) in 0:06. Filename: C:\Users\Mike3\Desktop\DJ Mike the 2600 King\Records Before Rent\DJ Mike the 2600 King - 10 - Booker T & the MGs - Chicken Pox.flac
Secure [Pass 1 & 2]
CRC32: 2A68205D AccurateRip CRC: 467E40E9 [DiscID: 029-003b301a-04e5502b-a10e651d-10]

Track 11: Ripped LBA 83357 to 91814 (1:52) in 0:07. Filename: C:\Users\Mike3\Desktop\DJ Mike the 2600 King\Records Before Rent\DJ Mike the 2600 King - 11 - Brother to Brother - Hey What's That You Say.flac
Secure [Pass 1 & 2]
CRC32: 723DBCC1 AccurateRip CRC: A5BE4407 [DiscID: 029-003b301a-04e5502b-a10e651d-11]

Track 12: Ripped LBA 91814 to 97925 (1:21) in 0:05. Filename: C:\Users\Mike3\Desktop\DJ Mike the 2600 King\Records Before Rent\DJ Mike the 2600 King - 12 - Bob James - Look Alike.flac
Secure [Pass 1 & 2]
CRC32: 11A2A616 AccurateRip CRC: B10828CC [DiscID: 029-003b301a-04e5502b-a10e651d-12]

Track 13: Ripped LBA 97925 to 111610 (3:02) in 0:12. Filename: C:\Users\Mike3\Desktop\DJ Mike the 2600 King\Records Before Rent\DJ Mike the 2600 King - 13 - Lights Out San Francisco - Cleo's Back.flac
Secure [Pass 1 & 2]
CRC32: A87AA3AE AccurateRip CRC: 9BC118B1 [DiscID: 029-003b301a-04e5502b-a10e651d-13]

Track 14: Ripped LBA 111610 to 125716 (3:08) in 0:12. Filename: C:\Users\Mike3\Desktop\DJ Mike the 2600 King\Records Before Rent\DJ Mike the 2600 King - 14 - James Moody - Dis-Kom-Blu-Bla-Late Me Baby.flac
Secure [Pass 1 & 2]
CRC32: CFF4E455 AccurateRip CRC: AAFA809E [DiscID: 029-003b301a-04e5502b-a10e651d-14]

Track 15: Ripped LBA 125716 to 133224 (1:40) in 0:06. Filename: C:\Users\Mike3\Desktop\DJ Mike the 2600 King\Records Before Rent\DJ Mike the 2600 King - 15 - Syl Johnson - The Love You Left Behind.flac
Secure [Pass 1 & 2]
CRC32: 10234E19 AccurateRip CRC: 608157F9 [DiscID: 029-003b301a-04e5502b-a10e651d-15]

Track 16: Ripped LBA 133224 to 141992 (1:56) in 0:07. Filename: C:\Users\Mike3\Desktop\DJ Mike the 2600 King\Records Before Rent\DJ Mike the 2600 King - 16 - Idris Muhammad - Express Yourself.flac
Secure [Pass 1 & 2]
CRC32: CECA588A AccurateRip CRC: E6FBEBCE [DiscID: 029-003b301a-04e5502b-a10e651d-16]

Track 17: Ripped LBA 141992 to 154884 (2:51) in 0:10. Filename: C:\Users\Mike3\Desktop\DJ Mike the 2600 King\Records Before Rent\DJ Mike the 2600 King - 17 - Skin Alley - So Many People.flac
Secure [Pass 1 & 2]
CRC32: BE20A5B3 AccurateRip CRC: 79A4E564 [DiscID: 029-003b301a-04e5502b-a10e651d-17]

Track 18: Ripped LBA 154884 to 159462 (1:01) in 0:03. Filename: C:\Users\Mike3\Desktop\DJ Mike the 2600 King\Records Before Rent\DJ Mike the 2600 King - 18 - Thin Lizzy - Johnny the Fox.flac
Secure [Pass 1 & 2]
CRC32: B7C5FDFC AccurateRip CRC: 9E90C245 [DiscID: 029-003b301a-04e5502b-a10e651d-18]

Track 19: Ripped LBA 159462 to 172798 (2:57) in 0:10. Filename: C:\Users\Mike3\Desktop\DJ Mike the 2600 King\Records Before Rent\DJ Mike the 2600 King - 19 - Rustix - Feelin' Alright.flac
Secure [Pass 1 & 2]
CRC32: 1C397CAA AccurateRip CRC: 48C82DF8 [DiscID: 029-003b301a-04e5502b-a10e651d-19]

Track 20: Ripped LBA 172798 to 182329 (2:07) in 0:07. Filename: C:\Users\Mike3\Desktop\DJ Mike the 2600 King\Records Before Rent\DJ Mike the 2600 King - 20 - Ray Bloch Singers - Let the Sunshine in.flac
Secure [Pass 1 & 2]
CRC32: 40F9626A AccurateRip CRC: 1950702D [DiscID: 029-003b301a-04e5502b-a10e651d-20]

Track 21: Ripped LBA 182329 to 187345 (1:06) in 0:04. Filename: C:\Users\Mike3\Desktop\DJ Mike the 2600 King\Records Before Rent\DJ Mike the 2600 King - 21 - Bar-Kays - Humpin'.flac
Secure [Pass 1 & 2]
CRC32: 2C9BDE64 AccurateRip CRC: 8A1214BF [DiscID: 029-003b301a-04e5502b-a10e651d-21]

Track 22: Ripped LBA 187345 to 195414 (1:47) in 0:05. Filename: C:\Users\Mike3\Desktop\DJ Mike the 2600 King\Records Before Rent\DJ Mike the 2600 King - 22 - Young-Holt Unlimited - Rubber Lips.flac
Secure [Pass 1 & 2]
CRC32: FEA1E6EE AccurateRip CRC: 01FE8907 [DiscID: 029-003b301a-04e5502b-a10e651d-22]

Track 23: Ripped LBA 195414 to 214497 (4:14) in 0:14. Filename: C:\Users\Mike3\Desktop\DJ Mike the 2600 King\Records Before Rent\DJ Mike the 2600 King - 23 - Natural Gas - Live and Learn.flac
Secure [Pass 1 & 2]
CRC32: 38C9AFC4 AccurateRip CRC: 59D68F4B [DiscID: 029-003b301a-04e5502b-a10e651d-23]

Track 24: Ripped LBA 214497 to 224777 (2:17) in 0:07. Filename: C:\Users\Mike3\Desktop\DJ Mike the 2600 King\Records Before Rent\DJ Mike the 2600 King - 24 - Meters - The Same Old Thing.flac
Secure [Pass 1 & 2]
CRC32: 655798EB AccurateRip CRC: 0C284F41 [DiscID: 029-003b301a-04e5502b-a10e651d-24]

Track 25: Ripped LBA 224777 to 238577 (3:04) in 0:09. Filename: C:\Users\Mike3\Desktop\DJ Mike the 2600 King\Records Before Rent\DJ Mike the 2600 King - 25 - Giant - Plastic World.flac
Secure [Pass 1 & 2]
CRC32: 3E92F917 AccurateRip CRC: 95A4D4FA [DiscID: 029-003b301a-04e5502b-a10e651d-25]

Track 26: Ripped LBA 238577 to 241472 (0:38) in 0:02. Filename: C:\Users\Mike3\Desktop\DJ Mike the 2600 King\Records Before Rent\DJ Mike the 2600 King - 26 - James Brown - People Get Up and Drive Your Funky Soul.flac
Secure [Pass 1 & 2]
CRC32: CC7D887D AccurateRip CRC: 2307ABF5 [DiscID: 029-003b301a-04e5502b-a10e651d-26]

Track 27: Ripped LBA 241472 to 255421 (3:05) in 0:10. Filename: C:\Users\Mike3\Desktop\DJ Mike the 2600 King\Records Before Rent\DJ Mike the 2600 King - 27 - Little Sonny - Memphis B.K..flac
Secure [Pass 1 & 2]
CRC32: 64EF525B AccurateRip CRC: CD2DA263 [DiscID: 029-003b301a-04e5502b-a10e651d-27]

Track 28: Ripped LBA 255421 to 265171 (2:10) in 0:06. Filename: C:\Users\Mike3\Desktop\DJ Mike the 2600 King\Records Before Rent\DJ Mike the 2600 King - 28 - Joe Nesmith - Able.flac
Secure [Pass 1 & 2]
CRC32: 00A03723 AccurateRip CRC: 0E793259 [DiscID: 029-003b301a-04e5502b-a10e651d-28]

Track 29: Ripped LBA 265171 to 276411 (2:29) in 0:12. Filename: C:\Users\Mike3\Desktop\DJ Mike the 2600 King\Records Before Rent\DJ Mike the 2600 King - 29 - Bonus Song For You to Jam Out to.flac
Secure [Pass 1 & 2]
CRC32: 040279A9 AccurateRip CRC: 1867835B [DiscID: 029-003b301a-04e5502b-a10e651d-29]

–––––––

29 Tracks Ripped: 26 Secure, 2 Secure (Warning), 1 Inaccurate


Exact Audio Copy V0.99 prebeta 5 from 4. May 2009

EAC extraction logfile from 21. December 2009, 0:45

Mike the 2600 King / Heavy Session

Used drive : HP DVD Writer 1040r Adapter: 1 ID: 0

Read mode : Secure
Utilize accurate stream : Yes
Defeat audio cache : Yes
Make use of C2 pointers : No

Read offset correction : 6
Overread into Lead-In and Lead-Out : No
Fill up missing offset samples with silence : Yes
Delete leading and trailing silent blocks : No
Null samples used in CRC calculations : Yes
Used interface : Native Win32 interface for Win NT & 2000

Used output format : User Defined Encoder
Selected bitrate : 1024 kBit/s
Quality : High
Add ID3 tag : No
Command line compressor : C:\Program Files\Exact Audio Copy\FLAC\FLAC.EXE
Additional command line options : -5 -V -T "ARTIST=%a" -T "TITLE=%t" -T "ALBUM=%g" -T "DATE=%y" -T "TRACKNUMBER=%n" -T "GENRE=%m" -T "COMMENT=EAC Flac 1.1.2 -5" %s


TOC of the extracted CD

Track | Start | Length | Start sector | End sector
––––––––––––––––––––––––––––-
1 | 0:00.00 | 6:56.43 | 0 | 31242
2 | 6:56.43 | 13:20.24 | 31243 | 91266
3 | 20:16.67 | 9:27.08 | 91267 | 133799
4 | 29:44.00 | 14:47.16 | 133800 | 200340
5 | 44:31.16 | 6:42.29 | 200341 | 230519
6 | 51:13.45 | 14:52.42 | 230520 | 297461


Range status and errors

Selected range

Filename C:\Users\Mike3\Desktop\Mike the 2600 King - Heavy Session (Flac)\Mike the 2600 King - Heavy Session.wav

Peak level 99.5 %
Range quality 99.9 %
Copy CRC DD3B5449
Copy OK

No errors occurred


AccurateRip summary

Track 1 not present in database
Track 2 not present in database
Track 3 not present in database
Track 4 not present in database
Track 5 not present in database
Track 6 not present in database

None of the tracks are present in the AccurateRip database

End of status report


Exact Audio Copy V0.99 prebeta 5 from 4. May 2009

EAC extraction logfile from 24. December 2009, 1:42

MonkOne / Breakin' Rocks

Used drive : HP DVD Writer 1040r Adapter: 1 ID: 0

Read mode : Secure
Utilize accurate stream : Yes
Defeat audio cache : Yes
Make use of C2 pointers : No

Read offset correction : 6
Overread into Lead-In and Lead-Out : No
Fill up missing offset samples with silence : Yes
Delete leading and trailing silent blocks : No
Null samples used in CRC calculations : Yes
Used interface : Native Win32 interface for Win NT & 2000

Used output format : User Defined Encoder
Selected bitrate : 1024 kBit/s
Quality : High
Add ID3 tag : No
Command line compressor : C:\Program Files\Exact Audio Copy\FLAC\FLAC.EXE
Additional command line options : -5 -V -T "ARTIST=%a" -T "TITLE=%t" -T "ALBUM=%g" -T "DATE=%y" -T "TRACKNUMBER=%n" -T "GENRE=%m" -T "COMMENT=EAC Flac 1.1.2 -5" %s


TOC of the extracted CD

Track | Start | Length | Start sector | End sector
––––––––––––––––––––––––––––-
1 | 0:00.00 | 2:18.34 | 0 | 10383
2 | 2:18.34 | 3:57.42 | 10384 | 28200
3 | 6:16.01 | 3:57.74 | 28201 | 46049
4 | 10:14.00 | 4:20.74 | 46050 | 65623
5 | 14:34.74 | 3:47.39 | 65624 | 82687
6 | 18:22.38 | 3:48.34 | 82688 | 99821
7 | 22:10.72 | 2:57.74 | 99822 | 113170
8 | 25:08.71 | 2:29.09 | 113171 | 124354
9 | 27:38.05 | 3:12.66 | 124355 | 138820
10 | 30:50.71 | 6:42.72 | 138821 | 169042
11 | 37:33.68 | 6:17.74 | 169043 | 197391
12 | 43:51.67 | 5:00.74 | 197392 | 219965
13 | 48:52.66 | 7:37.09 | 219966 | 254249
14 | 56:30.00 | 4:55.64 | 254250 | 276438
15 | 61:25.64 | 4:37.00 | 276439 | 297213
16 | 66:02.64 | 4:38.42 | 297214 | 318105


Range status and errors

Selected range

Filename C:\Users\Mike3\Desktop\MonkOne - Breakin' Rocks (Flac)\MonkOne - Breakin' Rocks.wav

Suspicious position 0:48:36

Peak level 100.0 %
Range quality 99.9 %
Copy CRC BC69828C
Copy finished

There were errors


AccurateRip summary

Track 1 not present in database
Track 2 not present in database
Track 3 not present in database
Track 4 not present in database
Track 5 not present in database
Track 6 not present in database
Track 7 not present in database
Track 8 not present in database
Track 9 not present in database
Track 10 not present in database
Track 11 not present in database
Track 12 not present in database
Track 13 not present in database
Track 14 not present in database
Track 15 not present in database
Track 16 not present in database

None of the tracks are present in the AccurateRip database

End of status report


Exact Audio Copy V0.99 prebeta 5 from 4. May 2009

EAC extraction logfile from 23. December 2009, 3:45

Rjd2 / Your Face or Your Kneecaps

Used drive : HP DVD Writer 1040r Adapter: 1 ID: 0

Read mode : Secure
Utilize accurate stream : Yes
Defeat audio cache : Yes
Make use of C2 pointers : No

Read offset correction : 6
Overread into Lead-In and Lead-Out : No
Fill up missing offset samples with silence : Yes
Delete leading and trailing silent blocks : No
Null samples used in CRC calculations : Yes
Used interface : Native Win32 interface for Win NT & 2000

Used output format : User Defined Encoder
Selected bitrate : 1024 kBit/s
Quality : High
Add ID3 tag : No
Command line compressor : C:\Program Files\Exact Audio Copy\FLAC\FLAC.EXE
Additional command line options : -5 -V -T "ARTIST=%a" -T "TITLE=%t" -T "ALBUM=%g" -T "DATE=%y" -T "TRACKNUMBER=%n" -T "GENRE=%m" -T "COMMENT=EAC Flac 1.1.2 -5" %s


TOC of the extracted CD

Track | Start | Length | Start sector | End sector
––––––––––––––––––––––––––––-
1 | 0:00.00 | 2:38.19 | 0 | 11868
2 | 2:38.19 | 1:22.41 | 11869 | 18059
3 | 4:00.60 | 0:41.74 | 18060 | 21208
4 | 4:42.59 | 0:09.70 | 21209 | 21953
5 | 4:52.54 | 0:16.74 | 21954 | 23227
6 | 5:09.53 | 1:03.62 | 23228 | 28014
7 | 6:13.40 | 0:37.52 | 28015 | 30841
8 | 6:51.17 | 0:43.72 | 30842 | 34138
9 | 7:35.14 | 0:41.35 | 34139 | 37248
10 | 8:16.49 | 0:11.55 | 37249 | 38128
11 | 8:28.29 | 0:28.61 | 38129 | 40289
12 | 8:57.15 | 1:41.01 | 40290 | 47865
13 | 10:38.16 | 1:28.17 | 47866 | 54482
14 | 12:06.33 | 1:22.58 | 54483 | 60690
15 | 13:29.16 | 1:20.18 | 60691 | 66708
16 | 14:49.34 | 2:23.06 | 66709 | 77439
17 | 17:12.40 | 0:29.59 | 77440 | 79673
18 | 17:42.24 | 1:50.53 | 79674 | 87976
19 | 19:33.02 | 0:21.34 | 87977 | 89585
20 | 19:54.36 | 0:31.74 | 89586 | 91984
21 | 20:26.35 | 1:10.74 | 91985 | 97308
22 | 21:37.34 | 0:31.33 | 97309 | 99666
23 | 22:08.67 | 0:41.55 | 99667 | 102796
24 | 22:50.47 | 0:48.58 | 102797 | 106454
25 | 23:39.30 | 0:10.56 | 106455 | 107260
26 | 23:50.11 | 0:31.32 | 107261 | 109617
27 | 24:21.43 | 1:26.36 | 109618 | 116103
28 | 25:48.04 | 0:12.11 | 116104 | 117014
29 | 26:00.15 | 0:29.39 | 117015 | 119228
30 | 26:29.54 | 0:48.02 | 119229 | 122830
31 | 27:17.56 | 1:14.00 | 122831 | 128380
32 | 28:31.56 | 1:00.12 | 128381 | 132892
33 | 29:31.68 | 1:24.45 | 132893 | 139237
34 | 30:56.38 | 0:36.68 | 139238 | 142005
35 | 31:33.31 | 2:09.10 | 142006 | 151690
36 | 33:42.41 | 3:22.11 | 151691 | 166851
37 | 37:04.52 | 2:33.14 | 166852 | 178340
38 | 39:37.66 | 5:41.25 | 178341 | 203940
39 | 45:19.16 | 5:02.67 | 203941 | 226657


Range status and errors

Selected range

Filename C:\Users\Mike3\Desktop\RJD2 - Your Face or Your Kneecaps (Flac)\Rjd2 - Your Face or Your Kneecaps.wav

Peak level 100.0 %
Range quality 99.9 %
Copy CRC 8D244B20
Copy OK

No errors occurred


AccurateRip summary

Track 1 accurately ripped (confidence 1) [09DB810E]
Track 2 accurately ripped (confidence 1) [1EE84B2E]
Track 3 accurately ripped (confidence 1) [5EC95417]
Track 4 accurately ripped (confidence 1) [24C5A173]
Track 5 accurately ripped (confidence 1) [36E676A8]
Track 6 accurately ripped (confidence 1) [A22F2C04]
Track 7 accurately ripped (confidence 1) [72EBC6D3]
Track 8 accurately ripped (confidence 1) [B42A4FF6]
Track 9 accurately ripped (confidence 1) [639EE0C5]
Track 10 accurately ripped (confidence 1) [6BB90E82]
Track 11 accurately ripped (confidence 1) [BEDD0579]
Track 12 accurately ripped (confidence 1) [F29787BE]
Track 13 accurately ripped (confidence 1) [45EA8C6D]
Track 14 accurately ripped (confidence 1) [F907ECDB]
Track 15 accurately ripped (confidence 1) [34CEF9D0]
Track 16 accurately ripped (confidence 1) [6BCE302B]
Track 17 accurately ripped (confidence 1) [4385679B]
Track 18 accurately ripped (confidence 1) [BBF5C1F1]
Track 19 accurately ripped (confidence 1) [2EAB5126]
Track 20 accurately ripped (confidence 1) [37205FE8]
Track 21 accurately ripped (confidence 1) [20AEE008]
Track 22 accurately ripped (confidence 1) [130AD81E]
Track 23 accurately ripped (confidence 1) [9F5379EA]
Track 24 accurately ripped (confidence 1) [F13C638C]
Track 25 accurately ripped (confidence 1) [7B985656]
Track 26 accurately ripped (confidence 1) [37A3C938]
Track 27 accurately ripped (confidence 1) [40277D3E]
Track 28 accurately ripped (confidence 1) [35A2AA21]
Track 29 accurately ripped (confidence 1) [F9DD0E75]
Track 30 accurately ripped (confidence 1) [D01B0921]
Track 31 accurately ripped (confidence 1) [3881822F]
Track 32 accurately ripped (confidence 1) [3F1763FA]
Track 33 accurately ripped (confidence 1) [9B4361D3]
Track 34 accurately ripped (confidence 1) [4CE79022]
Track 35 accurately ripped (confidence 1) [4ED99EDA]
Track 36 accurately ripped (confidence 1) [801F7B27]
Track 37 accurately ripped (confidence 1) [F7360C49]
Track 38 accurately ripped (confidence 1) [9291A6DB]
Track 39 accurately ripped (confidence 1) [CD643E6D]

All tracks accurately ripped

End of status report


Exact Audio Copy V0.99 prebeta 5 from 4. May 2009

EAC extraction logfile from 23. December 2009, 0:58

Soulsavers Soundsystem / Smoking & Drinking on a Tuesday Nite

Used drive : HP DVD Writer 1040r Adapter: 1 ID: 0

Read mode : Secure
Utilize accurate stream : Yes
Defeat audio cache : Yes
Make use of C2 pointers : No

Read offset correction : 6
Overread into Lead-In and Lead-Out : No
Fill up missing offset samples with silence : Yes
Delete leading and trailing silent blocks : No
Null samples used in CRC calculations : Yes
Used interface : Native Win32 interface for Win NT & 2000

Used output format : User Defined Encoder
Selected bitrate : 1024 kBit/s
Quality : High
Add ID3 tag : No
Command line compressor : C:\Program Files\Exact Audio Copy\FLAC\FLAC.EXE
Additional command line options : -5 -V -T "ARTIST=%a" -T "TITLE=%t" -T "ALBUM=%g" -T "DATE=%y" -T "TRACKNUMBER=%n" -T "GENRE=%m" -T "COMMENT=EAC Flac 1.1.2 -5" %s


TOC of the extracted CD

Track | Start | Length | Start sector | End sector
––––––––––––––––––––––––––––-
1 | 0:00.00 | 74:04.02 | 0 | 333301


Range status and errors

Selected range

Filename C:\Users\Mike3\Desktop\The Soulsavers Soundsystem - Drinking & Smoking on a Tuesday Nite (Flac)\Soulsavers Soundsystem - Smoking & Drinking on a Tuesday Nite.wav

Peak level 100.0 %
Range quality 99.9 %
Copy CRC E905B264
Copy OK

No errors occurred


AccurateRip summary

Track 1 not present in database

None of the tracks are present in the AccurateRip database

End of status report


Exact Audio Copy V0.99 prebeta 5 from 4. May 2009

EAC extraction logfile from 23. December 2009, 1:28

The Soulsavers Soundsystem / Fear and Loathing on the Wheels of Steel (CD1)

Used drive : HP DVD Writer 1040r Adapter: 1 ID: 0

Read mode : Secure
Utilize accurate stream : Yes
Defeat audio cache : Yes
Make use of C2 pointers : No

Read offset correction : 6
Overread into Lead-In and Lead-Out : No
Fill up missing offset samples with silence : Yes
Delete leading and trailing silent blocks : No
Null samples used in CRC calculations : Yes
Used interface : Native Win32 interface for Win NT & 2000

Used output format : User Defined Encoder
Selected bitrate : 1024 kBit/s
Quality : High
Add ID3 tag : No
Command line compressor : C:\Program Files\Exact Audio Copy\FLAC\FLAC.EXE
Additional command line options : -5 -V -T "ARTIST=%a" -T "TITLE=%t" -T "ALBUM=%g" -T "DATE=%y" -T "TRACKNUMBER=%n" -T "GENRE=%m" -T "COMMENT=EAC Flac 1.1.2 -5" %s


TOC of the extracted CD

Track | Start | Length | Start sector | End sector
––––––––––––––––––––––––––––-
1 | 0:00.00 | 64:29.29 | 0 | 290203


Range status and errors

Selected range

Filename C:\Users\Mike3\Desktop\The Soulsavers Soundsystem - Fear and Loathing on the Wheels of Steel (Flac)\Disc 1\The Soulsavers Soundsystem - Fear and Loathing on the Wheels of Steel (CD1).wav

Peak level 100.0 %
Range quality 100.0 %
Copy CRC BD50FFFE
Copy OK

No errors occurred


AccurateRip summary

Track 1 not present in database

None of the tracks are present in the AccurateRip database

End of status report


Exact Audio Copy V0.99 prebeta 5 from 4. May 2009

EAC extraction logfile from 23. December 2009, 3:20

The Soulsavers Soundsystem / Fear and Loathing on the Wheels of Steel (CD2)

Used drive : HP DVD Writer 1040r Adapter: 1 ID: 0

Read mode : Secure
Utilize accurate stream : Yes
Defeat audio cache : Yes
Make use of C2 pointers : No

Read offset correction : 6
Overread into Lead-In and Lead-Out : No
Fill up missing offset samples with silence : Yes
Delete leading and trailing silent blocks : No
Null samples used in CRC calculations : Yes
Used interface : Native Win32 interface for Win NT & 2000

Used output format : User Defined Encoder
Selected bitrate : 1024 kBit/s
Quality : High
Add ID3 tag : No
Command line compressor : C:\Program Files\Exact Audio Copy\FLAC\FLAC.EXE
Additional command line options : -5 -V -T "ARTIST=%a" -T "TITLE=%t" -T "ALBUM=%g" -T "DATE=%y" -T "TRACKNUMBER=%n" -T "GENRE=%m" -T "COMMENT=EAC Flac 1.1.2 -5" %s


TOC of the extracted CD

Track | Start | Length | Start sector | End sector
––––––––––––––––––––––––––––-
1 | 0:00.00 | 71:55.53 | 0 | 323677


Range status and errors

Selected range

Filename C:\Users\Mike3\Desktop\The Soulsavers Soundsystem - Fear and Loathing on the Wheels of Steel (Flac)\Disc 2\The Soulsavers Soundsystem - Fear and Loathing on the Wheels of Steel (CD2).wav

Peak level 100.0 %
Range quality 100.0 %
Copy CRC EA50E64B
Copy OK

No errors occurred


AccurateRip summary

Track 1 not present in database

None of the tracks are present in the AccurateRip database

End of status report


Exact Audio Copy V0.99 prebeta 5 from 4. May 2009

EAC extraction logfile from 22. December 2009, 22:40

The Soulsavers Soundsystem / Staring at the Radio Staying Up All Night (CD1)

Used drive : HP DVD Writer 1040r Adapter: 1 ID: 0

Read mode : Secure
Utilize accurate stream : Yes
Defeat audio cache : Yes
Make use of C2 pointers : No

Read offset correction : 6
Overread into Lead-In and Lead-Out : No
Fill up missing offset samples with silence : Yes
Delete leading and trailing silent blocks : No
Null samples used in CRC calculations : Yes
Used interface : Native Win32 interface for Win NT & 2000

Used output format : User Defined Encoder
Selected bitrate : 1024 kBit/s
Quality : High
Add ID3 tag : No
Command line compressor : C:\Program Files\Exact Audio Copy\FLAC\FLAC.EXE
Additional command line options : -5 -V -T "ARTIST=%a" -T "TITLE=%t" -T "ALBUM=%g" -T "DATE=%y" -T "TRACKNUMBER=%n" -T "GENRE=%m" -T "COMMENT=EAC Flac 1.1.2 -5" %s


TOC of the extracted CD

Track | Start | Length | Start sector | End sector
––––––––––––––––––––––––––––-
1 | 0:00.00 | 73:20.25 | 0 | 330024


Range status and errors

Selected range

Filename C:\Users\Mike3\Desktop\The Soulsavers Soundsystem - Staring at the Radio Staying Up All Night (Flac)\Disc 1\The Soulsavers Soundsystem - Staring at the Radio Staying Up All Night (CD1).wav

Peak level 100.0 %
Range quality 100.0 %
Copy CRC DA5EBB9E
Copy OK

No errors occurred


AccurateRip summary

Track 1 not present in database

None of the tracks are present in the AccurateRip database

End of status report


Exact Audio Copy V0.99 prebeta 5 from 4. May 2009

EAC extraction logfile from 22. December 2009, 23:10

The Soulsavers Soundsystem / Staring at the Radio Staying Up All Night (CD2)

Used drive : HP DVD Writer 1040r Adapter: 1 ID: 0

Read mode : Secure
Utilize accurate stream : Yes
Defeat audio cache : Yes
Make use of C2 pointers : No

Read offset correction : 6
Overread into Lead-In and Lead-Out : No
Fill up missing offset samples with silence : Yes
Delete leading and trailing silent blocks : No
Null samples used in CRC calculations : Yes
Used interface : Native Win32 interface for Win NT & 2000

Used output format : User Defined Encoder
Selected bitrate : 1024 kBit/s
Quality : High
Add ID3 tag : No
Command line compressor : C:\Program Files\Exact Audio Copy\FLAC\FLAC.EXE
Additional command line options : -5 -V -T "ARTIST=%a" -T "TITLE=%t" -T "ALBUM=%g" -T "DATE=%y" -T "TRACKNUMBER=%n" -T "GENRE=%m" -T "COMMENT=EAC Flac 1.1.2 -5" %s


TOC of the extracted CD

Track | Start | Length | Start sector | End sector
––––––––––––––––––––––––––––-
1 | 0:00.00 | 73:48.05 | 0 | 332104


Range status and errors

Selected range

Filename C:\Users\Mike3\Desktop\The Soulsavers Soundsystem - Staring at the Radio Staying Up All Night (Flac)\Disc 2\The Soulsavers Soundsystem - Staring at the Radio Staying Up All Night (CD2).wav

Peak level 100.0 %
Range quality 99.9 %
Copy CRC 770E0A93
Copy OK

No errors occurred


AccurateRip summary

Track 1 not present in database

None of the tracks are present in the AccurateRip database

End of status report


Download



Diplo & Tripledouble - AEIOU

320

http://www.filesonic.com/file/26747095/D_T_3_.rar

Flac

http://www.filesonic.com/file/26746841/D_T_F_.part1.rar
http://www.filesonic.com/file/26746843/D_T_F_.part2.rar
http://www.filesonic.com/file/26747063/D_T_F_.part3.rar


Dr. Delay - Psycrunk

320

http://www.filesonic.com/file/26746775/DrDelPsy_3_.rar

Flac

http://www.filesonic.com/file/26747073/DrDelPsy_F_.part1.rar
http://www.filesonic.com/file/26746855/DrDelPsy_F_.part2.rar
http://www.filesonic.com/file/26746653/DrDelPsy_F_.part3.rar


James Hyman - James Bond Mix

320

http://www.filesonic.com/file/26746877/JHJB_3_.rar

Flac

http://www.filesonic.com/file/26746739/JHJB_F_.part1.rar
http://www.filesonic.com/file/26746765/JHJB_F_.part2.rar
http://www.filesonic.com/file/26746847/JHJB_F_.part3.rar


Spank Rock - Voila

320

http://www.filesonic.com/file/26747177/SpRoVo_3_.rar

Flac

http://www.filesonic.com/file/26747111/SpRoVo_F_.part1.rar
http://www.filesonic.com/file/26746747/SpRoVo_F_.part2.rar


DJ Miles - Funky Soul

320

http://www.filesonic.com/file/26747051/DJM.FS_3_.rar

Flac

http://www.filesonic.com/file/26746761/DJM.FS_F_.part1.rar
http://www.filesonic.com/file/26746803/DJM.FS_F_.part2.rar
http://www.filesonic.com/file/26747011/DJM.FS_F_.part3.rar


Hollertronix - Never Scared

320

http://www.filesonic.com/file/26747193/HolNS_3_.rar

Flac

http://www.filesonic.com/file/26746757/HolNS_F_.part1.rar
http://www.filesonic.com/file/26746697/HolNS_F_.part2.rar
http://www.filesonic.com/file/26746667/HolNS_F_.part3.rar


Three Sinister Syllables

320

http://www.filesonic.com/file/26747041/3SS_3_.rar

Flac

http://www.filesonic.com/file/26746811/3SS_F_.part1.rar
http://www.filesonic.com/file/26746725/3SS_F_.part2.rar



Mike 2600 King - Heavy Session

320

http://www.filesonic.com/file/26746919/HS_3_.rar

Flac

http://www.filesonic.com/file/26746865/HS_F_.part1.rar
http://www.filesonic.com/file/26746863/HS_F_.part2.rar
http://www.filesonic.com/file/26746607/HS_F_.part3.rar


Mike 2600 King - Records Before Rent

320

http://www.filesonic.com/file/26746861/M26.RBR_3_.rar

Flac

http://www.filesonic.com/file/26746959/M26.RBR_F_.part1.rar
http://www.filesonic.com/file/26746699/M26.RBR_F_.part2.rar


MonkOne - Breakin' Rocks

320

http://www.filesonic.com/file/26747139/M1BR_3_.rar

Flac

http://www.filesonic.com/file/26747135/M1BR_F_.part1.rar
http://www.filesonic.com/file/26746889/M1BR_F_.part2.rar
http://www.filesonic.com/file/26746705/M1BR_F_.part3.rar



RJD2 - Your Face Or Your Kneecaps

320

http://www.filesonic.com/file/26746721/YrFace_3_.rar

Flac

http://www.filesonic.com/file/26747087/YrFace_F_.part1.rar
http://www.filesonic.com/file/26746611/YrFace_F_.part2.rar


Spank Rock - Couche-Tard

320

http://www.filesonic.com/file/26746795/SpRo.CT_3_.rar

Flac

http://www.filesonic.com/file/26747113/SpRo.CT_F_.part1.rar
http://www.filesonic.com/file/26746869/SpRo.CT_F_.part2.rar
http://www.filesonic.com/file/26746627/SpRo.CT_F_.part3.rar



Soulsavers - Smoking

320

http://www.filesonic.com/file/26746743/SS.Smoke_3_.rar

Flac

http://www.filesonic.com/file/26746895/SS.Smoke_F_.part1.rar
http://www.filesonic.com/file/26746985/SS.Smoke_F_.part2.rar
http://www.filesonic.com/file/26746647/SS.Smoke_F_.part3.rar


Soulsavers - Staring

320

http://www.filesonic.com/file/26747145/SS.Staring_3_.part1.rar
http://www.filesonic.com/file/26746951/SS.Staring_3_.part2.rar

Flac

http://www.filesonic.com/file/26746957/SS.Staring_F_.part1.rar
http://www.filesonic.com/file/26747107/SS.Staring_F_.part2.rar
http://www.filesonic.com/file/26747003/SS.Staring_F_.part3.rar
http://www.filesonic.com/file/26747009/SS.Staring_F_.part4.rar
http://www.filesonic.com/file/26746809/SS.Staring_F_.part5.rar


Soulsavers - Fear

320

http://www.filesonic.com/file/26746921/SSFear_3_.part1.rar
http://www.filesonic.com/file/26746733/SSFear_3_.part2.rar

Flac

http://www.filesonic.com/file/26746589/SSFear_F_.part1.rar
http://www.filesonic.com/file/26746831/SSFear_F_.part2.rar
http://www.filesonic.com/file/26746851/SSFear_F_.part3.rar
http://www.filesonic.com/file/26746815/SSFear_F_.part4.rar
http://www.filesonic.com/file/26746669/SSFear_F_.part5.rar




Diplo & Tripledouble - AEIOU

320

http://www.fileserve.com/file/GSEYeQx/D_T_3_.rar

Flac

http://www.fileserve.com/file/MKNhF65/D_T_F_.part1.rar
http://www.fileserve.com/file/pr4gXUf/D_T_F_.part2.rar
http://www.fileserve.com/file/24EXuXh/D_T_F_.part3.rar


Dr. Delay - Psycrunk

320

http://www.fileserve.com/file/FKHWbkF/DrDelPsy_3_.rar

Flac

http://www.fileserve.com/file/ErMAhMN/DrDelPsy_F_.part1.rar
http://www.fileserve.com/file/HekEhs5/DrDelPsy_F_.part2.rar
http://www.fileserve.com/file/ZvmvRDg/DrDelPsy_F_.part3.rar


James Hyman - James Bond Mix

320

http://www.fileserve.com/file/xVG6Z73/JHJB_3_.rar

Flac

http://www.fileserve.com/file/aaBDFYH/JHJB_F_.part1.rar
http://www.fileserve.com/file/yCK5qzS/JHJB_F_.part2.rar
http://www.fileserve.com/file/UxFybQ9/JHJB_F_.part3.rar


Spank Rock - Voila

320

http://www.fileserve.com/file/96yFfXt/SpRoVo_3_.rar

Flac

http://www.fileserve.com/file/br3c8GD/SpRoVo_F_.part1.rar
http://www.fileserve.com/file/Sdu6RvV/SpRoVo_F_.part2.rar


DJ Miles - Funky Soul

320

http://www.fileserve.com/file/wyAUm5Y/DJM.FS_3_.rar

Flac

http://www.fileserve.com/file/yxBEHfd/DJM.FS_F_.part1.rar
http://www.fileserve.com/file/AQdx9aD/DJM.FS_F_.part2.rar
http://www.fileserve.com/file/ejHw8fp/DJM.FS_F_.part3.rar


Hollertronix - Never Scared

320

http://www.fileserve.com/file/3WA4cyd/HolNS_3_.rar

Flac

http://www.fileserve.com/file/PSeMHhx/HolNS_F_.part1.rar
http://www.fileserve.com/file/MV3M3e4/HolNS_F_.part2.rar
http://www.fileserve.com/file/QBA4jXd/HolNS_F_.part3.rar


Three Sinister Syllables

320

http://www.fileserve.com/file/aX6tEtu/3SS_3_.rar

Flac

http://www.fileserve.com/file/qxENm8U/3SS_F_.part1.rar
http://www.fileserve.com/file/n6XXv57/3SS_F_.part2.rar



Mike 2600 King - Heavy Session

320

http://www.fileserve.com/file/cEW3Rrs/HS_3_.rar

Flac

http://www.fileserve.com/file/46mbej2/HS_F_.part1.rar
http://www.fileserve.com/file/zJ5CVKD/HS_F_.part2.rar
http://www.fileserve.com/file/NJ7uYcE/HS_F_.part3.rar

Mike 2600 King - Records Before Rent

320

http://www.fileserve.com/file/4pv9AKb/M26.RBR_3_.rar

Flac

http://www.fileserve.com/file/8saNQVt/M26.RBR_F_.part1.rar
http://www.fileserve.com/file/DeUKESr/M26.RBR_F_.part2.rar


MonkOne - Breakin' Rocks

320

http://www.fileserve.com/file/XPEBZWg/M1BR_3_.rar

Flac

http://www.fileserve.com/file/Er8CZCA/M1BR_F_.part1.rar
http://www.fileserve.com/file/3MzNeew/M1BR_F_.part2.rar
http://www.fileserve.com/file/H2Uxy6B/M1BR_F_.part3.rar



RJD2 - Your Face Or Your Kneecaps

320

http://www.fileserve.com/file/K6KwP2e/YrFace_3_.rar

Flac

http://www.fileserve.com/file/FQAQhac/YrFace_F_.part1.rar
http://www.fileserve.com/file/SKpw8FU/YrFace_F_.part2.rar

Spank Rock - Couche-Tard

320

http://www.fileserve.com/file/zQBbzsr/SpRo.CT_3_.rar

Flac

http://www.fileserve.com/file/krJv5TR/SpRo.CT_F_.part1.rar
http://www.fileserve.com/file/FS7ac9E/SpRo.CT_F_.part2.rar
http://www.fileserve.com/file/S37YRyT/SpRo.CT_F_.part3.rar



Soulsavers - Smoking

320

http://www.fileserve.com/file/jzzuj2M/SS.Smoke_3_.rar

Flac

http://www.fileserve.com/file/6ecXmV6/SS.Smoke_F_.part1.rar
http://www.fileserve.com/file/c9qvvSu/SS.Smoke_F_.part2.rar
http://www.fileserve.com/file/5Myg7rm/SS.Smoke_F_.part3.rar

Soulsavers - Staring

320

http://www.fileserve.com/file/WUK5kDe/SS.Staring_3_.part1.rar
http://www.fileserve.com/file/ahZb9V9/SS.Staring_3_.part2.rar

Flac

http://www.fileserve.com/file/tHdU5j5/SS.Staring_F_.part1.rar
http://www.fileserve.com/file/sccsvQa/SS.Staring_F_.part2.rar
http://www.fileserve.com/file/pGn8zJj/SS.Staring_F_.part3.rar
http://www.fileserve.com/file/5w34xac/SS.Staring_F_.part4.rar
http://www.fileserve.com/file/h39pDpJ/SS.Staring_F_.part5.rar


Soulsavers - Fear

320

http://www.fileserve.com/file/4tF3qUw/SSFear_3_.part1.rar
http://www.fileserve.com/file/akSdRVV/SSFear_3_.part2.rar

Flac

http://www.fileserve.com/file/RZUqpev/SSFear_F_.part1.rar
http://www.fileserve.com/file/2Jf2hqq/SSFear_F_.part2.rar
http://www.fileserve.com/file/VpYKx4F/SSFear_F_.part3.rar
http://www.fileserve.com/file/eYCGBQt/SSFear_F_.part4.rar
http://www.fileserve.com/file/nazSPPQ/SSFear_F_.part5.rar


No mirrors