Subcategories

Aaron Neville - Don’t Fall Apart On Me Tonight (1993)

Posted By: v3122
Aaron Neville - Don’t Fall Apart On Me Tonight (1993)

Aaron Neville - Don’t Fall Apart On Me Tonight (1993)
EAC | Flac(Image) + Cue + Log & MP3 CBR 320Kbps
A&M, 580 369-2 | ~ 74 or 30 Mb | Scans(jpg) -> 5.73 Mb
Funk / Soul, Pop

~ Maxi Single. With Mark Knopfler ~

Aaron Neville (born January 24, 1941 in New Orleans, Louisiana, United States) is an American R&B and soul singer and musician. He has had four Platinum-certified albums and four Top 10 hits in the United States, including three that went to #1 on Billboard's Adult Contemporary chart. His debut single, from 1966, was #1 on the Soul chart for five weeks.

He has also recorded with his brothers Art, Charles and Cyril as The Neville Brothers and is the father of singer/keyboards player Ivan Neville. Of mixed African-American, Caucasian, and Native American (Choctaw) heritage, his music also features Cajun and Creole influences…

~ wiki
Aaron Neville - Don’t Fall Apart On Me Tonight (1993):

Aaron Neville - Don’t Fall Apart On Me Tonight (1993)

Tracklist:

[01] Don’t fall apart on me tonight [04:18]
[02] The grand tour [03:20]
[03] It feels like rain [04:57]

Exact Audio Copy V1.0 beta 5 from 2. April 2015

EAC extraction logfile from 11. April 2015, 16:37

Aaron Neville / Don't Fall Apart On Me Tonight-Maxi-

Used drive : ASUS SDRW-08D1S-U Adapter: 1 ID: 1

Read mode : Secure
Utilize accurate stream : Yes
Defeat audio cache : Yes
Make use of C2 pointers : No

Read offset correction : 667
Overread into Lead-In and Lead-Out : No
Fill up missing offset samples with silence : Yes
Delete leading and trailing silent blocks : No
Null samples used in CRC calculations : Yes
Used interface : Native Win32 interface for Win NT & 2000

Used output format : User Defined Encoder
Selected bitrate : 128 kBit/s
Quality : High
Add ID3 tag : No
Command line compressor : C:\Program Files (x86)\Exact Audio Copy\Flac\flac.exe
Additional command line options : -V -8 -T "Date=%year%" -T "Genre=%genre%" %source%


TOC of the extracted CD

Track | Start | Length | Start sector | End sector
––––––––––––––––––––––––––––-
1 | 0:00.33 | 4:17.15 | 33 | 19322
2 | 4:17.48 | 3:19.65 | 19323 | 34312
3 | 7:37.38 | 4:56.55 | 34313 | 56567


Range status and errors

Selected range

Filename C:\Users\Олег\Desktop\Aaron Neville\Aaron Neville - Don't Fall Apart On Me Tonight-Maxi-.wav

Peak level 97.2 %
Extraction speed 1.5 X
Range quality 100.0 %
Test CRC 6903F8E0
Copy CRC 6903F8E0
Copy OK

No errors occurred


AccurateRip summary

Track 1 accurately ripped (confidence 1) [772EEF17] (AR v2)
Track 2 not present in database
Track 3 not present in database

1 трек(и) скопированы точно
2 трек(и) не содержатся в базе AccurateRip

Some tracks could not be verified as accurate

End of status report

–– CUETools DB Plugin V2.1.6

[CTDB TOCID: KBMi54mL.7FjGSog0GZ.uvSndnI-] disk not present in database
Submit result: KBMi54mL.7FjGSog0GZ.uvSndnI- has been uploaded


==== Log checksum D8A56E5DFF870FBC3C0BC7254550B822B24A810D5C0AC34FAAB540075A8B0262 ====


[CUETools log; Date: 18.04.2018 12:39:39; Version: 2.1.5]
Pregap length 00:00:33.
[AccurateRip ID: 0001ae9d-00059d12-2402f203] found.
Track [ CRC | V2 ] Status
01 [0ea424bb|772eef17] (0+1/1) Accurately ripped
02 [1b13fd87|71dafaff] (0+0/0) No match
03 [2ab57949|fc0d9bb2] (0+0/0) No match

Track Peak [ CRC32 ] [W/O NULL] [ LOG ]
– 97,2 [6903F8E0] [9BAF14BF] CRC32
01 97,2 [46B7E5CB] [D930BE0F]
02 97,2 [7CA4B8FB] [004C82C7]
03 87,7 [7F7543D0] [00B31A03]


Aaron Neville - Don’t Fall Apart On Me Tonight (1993)

All thanks go to Alex Fal

Mark Knopfler or Mark Knopfler in my Blog

Download Aaron Neville - Don’t Fall Apart On Me Tonight (1993):