Subcategories

La Stagione Frankfurt & Michael Schneider - Abel: Symphonies, Op. 7 (2017)

Posted By: SERTiL
La Stagione Frankfurt & Michael Schneider - Abel: Symphonies, Op. 7 (2017)

La Stagione Frankfurt & Michael Schneider - Abel: Symphonies, Op. 7 (2017)
EAC Rip | FLAC (tracks)+cue, log, m3u, front cover | 289 MB
Label: CPO – CX 7993 | Tracks: 18 | Time: 61:52 min
Classical, Orchestral

Not even thirty years separated Carl Friedrich Abel’s Symphonies op. 7 from Wolfgang Amadeus Mozart’s last three symphonies and the Jupiter finale that Johann Christian Bach would hail as a “triumph of new musical artistry” already in 1803. The genre of the symphony had quickly developed into one of the most magnificent genres for musical statements. What makes Abel’s symphonies so unique among those of his contemporaries is not their first movements in what was later known as the “sonata form” or their last movements, which without exception are formed, usually in rondo structure, by dances of folk character like fast contredanses and minuets, but rather their slow middle movements, mostly with the heading “Andante” and frequently “sempre piano” in dynamics, which speak a new and thoroughly individual musical language. Here we are referring not primarily to the examples of the style galant or empfindsamer Stil found in the Symphonies in G major and C major but to the absolutely “hymnic” movements of song character scored exclusively for strings like those in the Symphonies in B flat major and F major. Their almost “proto-Elgarian” tone has what it takes to stir human hearts!

Tracklist:

Carl Friedrich Abel (1723-1787)

01. Symphony in D Major, Op. 7 No. 3, WKO 15: I. Allegro
02. Symphony in D Major, Op. 7 No. 3, WKO 15: II. Andante sempre piano
03. Symphony in D Major, Op. 7 No. 3, WKO 15: III. Presto
04. Symphony in B-Flat Major, Op. 7 No. 2, WKO 14: I. Allegro
05. Symphony in B-Flat Major, Op. 7 No. 2, WKO 14: II. Andante sempre piano
06. Symphony in B-Flat Major, Op. 7 No. 2, WKO 14: III. Allegro assai
07. Symphony in G Major, Op. 7 No. 1, WKO 13: I. Allegro
08. Symphony in G Major, Op. 7 No. 1, WKO 13: II. Andante
09. Symphony in G Major, Op. 7 No. 1, WKO 13: III. Allegro
10. Symphony in E-Flat Major, Op. 7 No. 6, WKO 18: I. Allegro
11. Symphony in E-Flat Major, Op. 7 No. 6, WKO 18: II. Andante
12. Symphony in E-Flat Major, Op. 7 No. 6, WKO 18: III. Presto
13. Symphony in F Major, Op. 7 No. 4, WKO 16: I. Allegro di molto
14. Symphony in F Major, Op. 7 No. 4, WKO 16: II. Andante sempre piano
15. Symphony in F Major, Op. 7 No. 4, WKO 16: III. Tempo di Menuetto
16. Symphony in C Major, Op. 7 No. 5, WKO 17: I. Allegro
17. Symphony in C Major, Op. 7 No. 5, WKO 17: II. Andantino
18. Symphony in C Major, Op. 7 No. 5, WKO 17: III. Prestissimo

Exact Audio Copy V1.3 from 2. September 2016

EAC extraction logfile from 25. December 2017, 21:36

Michael Schneider, La Stagione Frankfurt / Six Symphonien Op. VII

Used drive : HL-DT-STDVDRAM GH24NSD1 Adapter: 1 ID: 0

Read mode : Secure
Utilize accurate stream : Yes
Defeat audio cache : Yes
Make use of C2 pointers : No

Read offset correction : 6
Overread into Lead-In and Lead-Out : No
Fill up missing offset samples with silence : Yes
Delete leading and trailing silent blocks : No
Null samples used in CRC calculations : Yes
Used interface : Native Win32 interface for Win NT & 2000
Gap handling : Appended to previous track

Used output format : User Defined Encoder
Selected bitrate : 1024 kBit/s
Quality : High
Add ID3 tag : No
Command line compressor : C:\Program Files (x86)\Exact Audio Copy\Flac\flac.exe
Additional command line options : -8 -V -T "ARTIST=%artist%" -T "TITLE=%title%" -T "ALBUM=%albumtitle%" -T "DATE=%year%" -T "TRACKNUMBER=%tracknr%" -T "GENRE=%genre%" -T "PERFORMER=%albuminterpret%" -T "COMPOSER=%composer%" %haslyrics%–tag-from-file=LYRICS="%lyricsfile%"%haslyrics% -T "ALBUMARTIST=%albumartist%" -T "DISCNUMBER=%cdnumber%" -T "TOTALDISCS=%totalcds%" -T "TOTALTRACKS=%numtracks%" -T "COMMENT=%comment%" %source% -o %dest%


TOC of the extracted CD

Track | Start | Length | Start sector | End sector
––––––––––––––––––––––––––––-
1 | 0:00.00 | 3:18.47 | 0 | 14896
2 | 3:18.47 | 4:33.64 | 14897 | 35435
3 | 7:52.36 | 2:59.14 | 35436 | 48874
4 | 10:51.50 | 2:24.41 | 48875 | 59715
5 | 13:16.16 | 3:57.71 | 59716 | 77561
6 | 17:14.12 | 2:47.64 | 77562 | 90150
7 | 20:02.01 | 3:47.59 | 90151 | 107234
8 | 23:49.60 | 5:44.41 | 107235 | 133075
9 | 29:34.26 | 2:15.45 | 133076 | 143245
10 | 31:49.71 | 3:31.37 | 143246 | 159107
11 | 35:21.33 | 5:29.51 | 159108 | 183833
12 | 40:51.09 | 3:53.60 | 183834 | 201368
13 | 44:44.69 | 3:23.34 | 201369 | 216627
14 | 48:08.28 | 3:24.13 | 216628 | 231940
15 | 51:32.41 | 2:09.55 | 231941 | 241670
16 | 53:42.21 | 3:06.36 | 241671 | 255656
17 | 56:48.57 | 3:43.03 | 255657 | 272384
18 | 60:31.60 | 1:30.31 | 272385 | 279165


Track 1

Filename E:\WHAT.CD\000TEMP\Abel - Six Symphonies, Op. VII - La Stagione Frankfurt, Michael Schneider (2017) [FLAC]\01 - Symphony Op. 7 No. 3 in D major - I. Allegro.wav

Pre-gap length 0:00:02.00

Peak level 77.1 %
Extraction speed 1.1 X
Track quality 100.0 %
Test CRC 06C9C3C0
Copy CRC 06C9C3C0
Accurately ripped (confidence 9) [ABB52E49] (AR v2)
Copy OK

Track 2

Filename E:\WHAT.CD\000TEMP\Abel - Six Symphonies, Op. VII - La Stagione Frankfurt, Michael Schneider (2017) [FLAC]\02 - Symphony Op. 7 No. 3 in D major - II. Andante.wav

Peak level 26.0 %
Extraction speed 1.1 X
Track quality 99.9 %
Test CRC 67253CB4
Copy CRC 67253CB4
Accurately ripped (confidence 9) [D6582FEB] (AR v2)
Copy OK

Track 3

Filename E:\WHAT.CD\000TEMP\Abel - Six Symphonies, Op. VII - La Stagione Frankfurt, Michael Schneider (2017) [FLAC]\03 - Symphony Op. 7 No. 3 in D major - III. Presto.wav

Peak level 68.5 %
Extraction speed 1.3 X
Track quality 100.0 %
Test CRC 7B6F3A6F
Copy CRC 7B6F3A6F
Accurately ripped (confidence 9) [73419CAD] (AR v2)
Copy OK

Track 4

Filename E:\WHAT.CD\000TEMP\Abel - Six Symphonies, Op. VII - La Stagione Frankfurt, Michael Schneider (2017) [FLAC]\04 - Symphony Op. 7 No. 2 in B-flat major - I. Allegro.wav

Pre-gap length 0:00:05.78

Peak level 80.6 %
Extraction speed 1.3 X
Track quality 100.0 %
Test CRC ECAF7495
Copy CRC ECAF7495
Accurately ripped (confidence 9) [8746B5DC] (AR v2)
Copy OK

Track 5

Filename E:\WHAT.CD\000TEMP\Abel - Six Symphonies, Op. VII - La Stagione Frankfurt, Michael Schneider (2017) [FLAC]\05 - Symphony Op. 7 No. 2 in B-flat major - II. Andante.wav

Peak level 31.6 %
Extraction speed 1.5 X
Track quality 100.0 %
Test CRC A6ACBFB2
Copy CRC A6ACBFB2
Accurately ripped (confidence 9) [903BFF0B] (AR v2)
Copy OK

Track 6

Filename E:\WHAT.CD\000TEMP\Abel - Six Symphonies, Op. VII - La Stagione Frankfurt, Michael Schneider (2017) [FLAC]\06 - Symphony Op. 7 No. 2 in B-flat major - III. Allegro assai.wav

Peak level 79.9 %
Extraction speed 1.5 X
Track quality 100.0 %
Test CRC 050DA7A2
Copy CRC 050DA7A2
Accurately ripped (confidence 9) [71E26BE6] (AR v2)
Copy OK

Track 7

Filename E:\WHAT.CD\000TEMP\Abel - Six Symphonies, Op. VII - La Stagione Frankfurt, Michael Schneider (2017) [FLAC]\07 - Symphony Op. 7 No. 1 in G major - I. Allegro.wav

Pre-gap length 0:00:05.98

Peak level 94.9 %
Extraction speed 1.6 X
Track quality 100.0 %
Test CRC 14D64B9E
Copy CRC 14D64B9E
Accurately ripped (confidence 9) [CA40D501] (AR v2)
Copy OK

Track 8

Filename E:\WHAT.CD\000TEMP\Abel - Six Symphonies, Op. VII - La Stagione Frankfurt, Michael Schneider (2017) [FLAC]\08 - Symphony Op. 7 No. 1 in G major - II. Andante.wav

Peak level 42.7 %
Extraction speed 1.8 X
Track quality 100.0 %
Test CRC 1FC39DFA
Copy CRC 1FC39DFA
Accurately ripped (confidence 9) [2ADBB3F4] (AR v2)
Copy OK

Track 9

Filename E:\WHAT.CD\000TEMP\Abel - Six Symphonies, Op. VII - La Stagione Frankfurt, Michael Schneider (2017) [FLAC]\09 - Symphony Op. 7 No. 1 in G major - III. Allegro.wav

Peak level 94.8 %
Extraction speed 1.6 X
Track quality 100.0 %
Test CRC 182FCEC2
Copy CRC 182FCEC2
Accurately ripped (confidence 9) [A5C3AACF] (AR v2)
Copy OK

Track 10

Filename E:\WHAT.CD\000TEMP\Abel - Six Symphonies, Op. VII - La Stagione Frankfurt, Michael Schneider (2017) [FLAC]\10 - Symphony Op. 7 No. 6 in E-flat major (K18) - I. Molto allegro.wav

Pre-gap length 0:00:06.00

Peak level 89.7 %
Extraction speed 1.6 X
Track quality 99.9 %
Test CRC 1609930E
Copy CRC 1609930E
Accurately ripped (confidence 9) [27188AE4] (AR v2)
Copy OK

Track 11

Filename E:\WHAT.CD\000TEMP\Abel - Six Symphonies, Op. VII - La Stagione Frankfurt, Michael Schneider (2017) [FLAC]\11 - Symphony Op. 7 No. 6 in E-flat major (K18) - II. Andante.wav

Peak level 43.6 %
Extraction speed 1.8 X
Track quality 99.9 %
Test CRC BB4CEDC0
Copy CRC BB4CEDC0
Accurately ripped (confidence 9) [728578B4] (AR v2)
Copy OK

Track 12

Filename E:\WHAT.CD\000TEMP\Abel - Six Symphonies, Op. VII - La Stagione Frankfurt, Michael Schneider (2017) [FLAC]\12 - Symphony Op. 7 No. 6 in E-flat major (K18) - III. Allegro assai.wav

Peak level 66.4 %
Extraction speed 2.0 X
Track quality 100.0 %
Test CRC 74CF1F91
Copy CRC 74CF1F91
Accurately ripped (confidence 9) [FCB37864] (AR v2)
Copy OK

Track 13

Filename E:\WHAT.CD\000TEMP\Abel - Six Symphonies, Op. VII - La Stagione Frankfurt, Michael Schneider (2017) [FLAC]\13 - Symphony Op. 7 No. 4 in F major - I. Allegro di molto.wav

Pre-gap length 0:00:06.29

Peak level 90.5 %
Extraction speed 2.0 X
Track quality 100.0 %
Test CRC 8305CF43
Copy CRC 8305CF43
Accurately ripped (confidence 9) [7A477065] (AR v2)
Copy OK

Track 14

Filename E:\WHAT.CD\000TEMP\Abel - Six Symphonies, Op. VII - La Stagione Frankfurt, Michael Schneider (2017) [FLAC]\14 - Symphony Op. 7 No. 4 in F major - II. Andante.wav

Peak level 31.3 %
Extraction speed 1.8 X
Track quality 99.9 %
Test CRC FAD00A04
Copy CRC FAD00A04
Accurately ripped (confidence 9) [4777320B] (AR v2)
Copy OK

Track 15

Filename E:\WHAT.CD\000TEMP\Abel - Six Symphonies, Op. VII - La Stagione Frankfurt, Michael Schneider (2017) [FLAC]\15 - Symphony Op. 7 No. 4 in F major - III. Tempo di Menuetto.wav

Peak level 71.9 %
Extraction speed 2.0 X
Track quality 100.0 %
Test CRC 9C25AA19
Copy CRC 9C25AA19
Accurately ripped (confidence 9) [ADB2ED51] (AR v2)
Copy OK

Track 16

Filename E:\WHAT.CD\000TEMP\Abel - Six Symphonies, Op. VII - La Stagione Frankfurt, Michael Schneider (2017) [FLAC]\16 - Symphony Op. 7 No. 5 C major - I. Allegro di molto.wav

Pre-gap length 0:00:05.96

Peak level 74.5 %
Extraction speed 2.1 X
Track quality 100.0 %
Test CRC 657DFB73
Copy CRC 657DFB73
Accurately ripped (confidence 9) [3ABE4465] (AR v2)
Copy OK

Track 17

Filename E:\WHAT.CD\000TEMP\Abel - Six Symphonies, Op. VII - La Stagione Frankfurt, Michael Schneider (2017) [FLAC]\17 - Symphony Op. 7 No. 5 C major - II. Andantino.wav

Peak level 40.5 %
Extraction speed 2.2 X
Track quality 100.0 %
Test CRC 7A288541
Copy CRC 7A288541
Accurately ripped (confidence 9) [E8B4B7EB] (AR v2)
Copy OK

Track 18

Filename E:\WHAT.CD\000TEMP\Abel - Six Symphonies, Op. VII - La Stagione Frankfurt, Michael Schneider (2017) [FLAC]\18 - Symphony Op. 7 No. 5 C major - III. Prestissimo.wav

Peak level 79.4 %
Extraction speed 1.9 X
Track quality 100.0 %
Test CRC 5151D820
Copy CRC 5151D820
Accurately ripped (confidence 9) [F8529BA7] (AR v2)
Copy OK


All tracks accurately ripped

No errors occurred

End of status report

–– CUETools DB Plugin V2.1.6

[CTDB TOCID: 9ROkqGpDwloKYcomoe5RiBX20MM-] found
Submit result: 9ROkqGpDwloKYcomoe5RiBX20MM- has been confirmed
Track | CTDB Status
1 | (21/21) Accurately ripped
2 | (21/21) Accurately ripped
3 | (21/21) Accurately ripped
4 | (21/21) Accurately ripped
5 | (21/21) Accurately ripped
6 | (21/21) Accurately ripped
7 | (21/21) Accurately ripped
8 | (21/21) Accurately ripped
9 | (21/21) Accurately ripped
10 | (21/21) Accurately ripped
11 | (21/21) Accurately ripped
12 | (21/21) Accurately ripped
13 | (21/21) Accurately ripped
14 | (21/21) Accurately ripped
15 | (21/21) Accurately ripped
16 | (21/21) Accurately ripped
17 | (21/21) Accurately ripped
18 | (21/21) Accurately ripped


==== Log checksum 08CAC76497BB120CD7170354AE0B489DB58D6AE190DD25908F1E5395B095CA09 ====


La Stagione Frankfurt & Michael Schneider - Abel: Symphonies, Op. 7 (2017)


Thanks to the Original customer.