Subcategories
Tags
Language
Tags

Accept - Balls To The Wall (1983) {1989, Japan 1st Press}

Posted By: popsakov
Accept - Balls To The Wall (1983) {1989, Japan 1st Press}

Accept - Balls To The Wall (1983) {1989, Japan 1st Press}
EAC Rip | FLAC (Img) + Cue + Log ~ 364 Mb | MP3 CBR320 ~ 143 Mb
Full Scans | 00:45:11 | RAR 5% Recovery
Heavy Metal | Epic / Sony Records #25・8P-5240

Accept's most notorious album, Balls to the Wall was also their biggest commercial success. Following hot upon the heels of their creative breakthrough, Restless and Wild, you'd also be hard pressed to find a more sexually charged record in any musical genre. Its hysterically nonsensical lyrics notwithstanding, the legendary title track remains an irresistible, fist-pumping masterpiece that came to epitomize the modern, slow-marching metal anthem as it became known. And when paired with second single "London Leatherboys," it arguably constitutes the most blatantly homoerotic couplet in the history of heavy metal (eat your heart out, Rob Halford). "Fight It Back" is about as close as the band gets to their old, semi-thrashing ways (taken to the limit the previous year with the maniacal "Fast as a Shark"), and it is the more melodic "Head Over Heels" and semi-ballad "Losing More Than You've Ever Had" that set the tone for Accept's future direction. The album's third undisputed classic, the driving "Love Child," kicks off side two with one of metal's great staccato riffs – so good, the band revisits it nearly verbatim a few songs later with "Losers and Winners," which is nearly as powerful. And though not quite as celebrated, the remaining tracks are no less potent, especially the slowly building tension heard on the downright lascivious "Turn Me On." The bottom line here is that this, like its predecessor Restless and Wild, is an essential heavy metal album, and any fan worth his salt should own them both. But, for the sake of first-time visitors, Balls to the Wall is the slightly more melodic, less gritty of the two. Whichever you chose, you can only win.

~ Eduardo Rivadavia, All Music

***************

Accept - Balls To The Wall (1983) {1989, Japan 1st Press}

Accept - Balls To The Wall (1983) {1989, Japan 1st Press}

Track List:

01. Balls to the Wall [0:05:41.60]
02. London Leatherboys [0:03:57.25]
03. Fight It Back [0:03:33.50]
04. Head Over Heels [0:04:24.30]
05. Losing More Than You’ve Ever Had [0:05:10.22]
06. Love Child [0:03:34.18]
07. Turn Me On [0:05:11.30]
08. Losers and Winners [0:04:19.55]
09. Guardian of the Night [0:04:24.10]
10. Winterdreams [0:04:54.47]

Exact Audio Copy V1.5 from 20. February 2020

EAC extraction logfile from 22. October 2020, 16:32

Accept / Balls to the Wall [25・8P-5240]

Used drive : HL-DT-STBD-RE BH10LS38 Adapter: 1 ID: 0

Read mode : Secure
Utilize accurate stream : Yes
Defeat audio cache : Yes
Make use of C2 pointers : No

Read offset correction : 667
Overread into Lead-In and Lead-Out : No
Fill up missing offset samples with silence : Yes
Delete leading and trailing silent blocks : No
Null samples used in CRC calculations : Yes
Used interface : Native Win32 interface for Win NT & 2000

Used output format : User Defined Encoder
Selected bitrate : 128 kBit/s
Quality : High
Add ID3 tag : No
Command line compressor : C:\Program Files (x86)\Exact Audio Copy\Flac\flac.exe
Additional command line options : -V -8 -T "Date=%year%" -T "Genre=%genre%" %source%


TOC of the extracted CD

Track | Start | Length | Start sector | End sector
––––––––––––––––––––––––––––-
1 | 0:00.00 | 5:41.60 | 0 | 25634
2 | 5:41.60 | 3:57.25 | 25635 | 43434
3 | 9:39.10 | 3:33.50 | 43435 | 59459
4 | 13:12.60 | 4:24.30 | 59460 | 79289
5 | 17:37.15 | 5:10.22 | 79290 | 102561
6 | 22:47.37 | 3:34.18 | 102562 | 118629
7 | 26:21.55 | 5:11.30 | 118630 | 141984
8 | 31:33.10 | 4:19.55 | 141985 | 161464
9 | 35:52.65 | 4:24.10 | 161465 | 181274
10 | 40:17.00 | 4:54.47 | 181275 | 203371


Range status and errors

Selected range

Filename D:\Rips by Alder\Accept - Balls to the Wall [25・8P-5240].wav

Peak level 100.0 %
Extraction speed 7.5 X
Range quality 100.0 %
Test CRC 7FA4F4B1
Copy CRC 7FA4F4B1
Copy OK

No errors occurred


AccurateRip summary

Track 1 accurately ripped (confidence 16) [AC851123] (AR v2)
Track 2 accurately ripped (confidence 16) [31F60654] (AR v2)
Track 3 accurately ripped (confidence 16) [06EDAED6] (AR v2)
Track 4 accurately ripped (confidence 16) [19DA4767] (AR v2)
Track 5 accurately ripped (confidence 16) [AB73BECC] (AR v2)
Track 6 accurately ripped (confidence 16) [541D2913] (AR v2)
Track 7 accurately ripped (confidence 16) [33470EAF] (AR v2)
Track 8 accurately ripped (confidence 16) [47EF352E] (AR v2)
Track 9 accurately ripped (confidence 16) [0D726ABC] (AR v2)
Track 10 accurately ripped (confidence 16) [3C6C8C03] (AR v2)

All tracks accurately ripped

End of status report

–– CUETools DB Plugin V2.1.6

[CTDB TOCID: t.nLhsyTWL5JdVLwwSkhhSgUCPM-] found
Submit result: t.nLhsyTWL5JdVLwwSkhhSgUCPM- has been confirmed
Track | CTDB Status
1 | (24/24) Accurately ripped
2 | (24/24) Accurately ripped
3 | (24/24) Accurately ripped
4 | (24/24) Accurately ripped
5 | (24/24) Accurately ripped
6 | (24/24) Accurately ripped
7 | (24/24) Accurately ripped
8 | (24/24) Accurately ripped
9 | (24/24) Accurately ripped
10 | (24/24) Accurately ripped


==== Log checksum 9DFC1ECC1A58D49495EB796D18C1F1A663A39A12ACD003C942E4D91E3FCBD9A9 ====

[CUETools log; Date: 28.10.2020 2:32:29; Version: 2.1.6]
[CTDB TOCID: t.nLhsyTWL5JdVLwwSkhhSgUCPM-] found.
Track | CTDB Status
1 | (25/25) Accurately ripped
2 | (25/25) Accurately ripped
3 | (25/25) Accurately ripped
4 | (25/25) Accurately ripped
5 | (25/25) Accurately ripped
6 | (25/25) Accurately ripped
7 | (25/25) Accurately ripped
8 | (25/25) Accurately ripped
9 | (25/25) Accurately ripped
10 | (25/25) Accurately ripped
[AccurateRip ID: 00110bb5-0087cfcb-940a970a] found.
Track [ CRC | V2 ] Status
01 [6cb39194|ac851123] (04+16/20) Accurately ripped
02 [d66d7409|31f60654] (04+16/20) Accurately ripped
03 [31ec08bd|06edaed6] (04+16/20) Accurately ripped
04 [05e99d20|19da4767] (04+16/20) Accurately ripped
05 [ee4a4025|ab73becc] (04+16/20) Accurately ripped
06 [28198195|541d2913] (04+16/20) Accurately ripped
07 [d6ac11e3|33470eaf] (04+16/20) Accurately ripped
08 [e051807a|47ef352e] (04+16/20) Accurately ripped
09 [62dc1b20|0d726abc] (04+16/20) Accurately ripped
10 [feaac1db|3c6c8c03] (04+16/20) Accurately ripped
Offsetted by 6:
01 [e48eb3f4] (00/20) No match (V2 was not tested)
02 [d85ab443] (00/20) No match (V2 was not tested)
03 [f559e1ae] (00/20) No match (V2 was not tested)
04 [7f7b30a1] (00/20) No match (V2 was not tested)
05 [fd15879b] (00/20) No match (V2 was not tested)
06 [d95b9826] (00/20) No match (V2 was not tested)
07 [7b1d10d7] (00/20) No match (V2 was not tested)
08 [c2cd5d44] (00/20) No match (V2 was not tested)
09 [a206824c] (00/20) No match (V2 was not tested)
10 [8f6a84d6] (00/20) No match (V2 was not tested)

Track Peak [ CRC32 ] [W/O NULL] [ LOG ]
– 100,0 [7FA4F4B1] [BB96854D] CRC32
01 100,0 [ABCD1B43] [5EED8435]
02 99,9 [6705D3B5] [8E4B1050]
03 100,0 [D0F06F18] [C0B96765]
04 96,9 [71FE44F1] [33D19499]
05 100,0 [393CDF50] [70DFA326]
06 100,0 [53A3654B] [E10B19C2]
07 99,0 [445AD325] [F521C2F1]
08 99,9 [15F1CF25] [9308CB22]
09 99,9 [A4A10889] [98F23A8C]
10 90,1 [EEF61EB3] [3CC6DA9B]

Accept - Balls To The Wall (1983) {1989, Japan 1st Press}


All thanks go to Alder

>>> Accept in my Blog <<<

DOWNLOAD: