Subcategories

Accuser - The Mastery (2018)

Posted By: Andi_Deris
Accuser - The Mastery (2018)

Accuser - The Mastery (2018)
EAC Rip | FLAC: Image+Cue+Log | Scans
412 Mb | 29 Mb | Time: 50:34
Metal Blade Records | 3984-15552-2
Thrash Metal

Accu§er has been in a constant songwriting mode all over the past year. Combined with the energy and spontaneity from several live shows the songs came together very quickly. Together with long time producer Martin Buchwalter they put together the record in the summer of 2017 at well-known Gernhart Studio (Destruction, Tankard and many more). For the band ‘The Mastery’, is some kind of missing link between the technical virtuosity of an album like ‘Who dominates Who’ and the more basic, heavy approach of ‘Repent’. Best of both worlds so to say and not only for the band the best album since their comeback in 2008. ‘The Mastery’ contains all of the elements that define the Accu§er sound: heavy, chunky thrash riffs, aggressive vocals with a touch of melody - in addition to the high class guitar solos by youngster Dennis Rybakowski. When it comes to the lyrical side of their songs, Accu§er still raises their voices to denounce social grievances.

Accuser - The Mastery (2018)




Track Listing

01. Mission: Missile (04:15)
02. The Real World (04:36)
03. Solace In Sorrow (05:09)
04. Time For Silence (05:09)
05. My Skin (05:41)
06. Catacombs (04:46)
07. Mourning (05:21)
08. Ruthless (04:37)
09. Into The Black (04:02)
10. The Mastery (06:57)

Produced by Martin Buchwalter & Accu§er

The Band

• Frank Thoms - vocals/guitars
• Dennis Rybakowski - guitars
• Frank Kimpel - bass
• Olli Fechner - drums

Exact Audio Copy V1.3 from 2. September 2016

EAC extraction logfile from 20. April 2018, 18:27

Accuser / The Mastery

Used drive : ATAPI iHAS122 W Adapter: 2 ID: 0

Read mode : Secure
Utilize accurate stream : Yes
Defeat audio cache : Yes
Make use of C2 pointers : No

Read offset correction : 48
Overread into Lead-In and Lead-Out : No
Fill up missing offset samples with silence : Yes
Delete leading and trailing silent blocks : No
Null samples used in CRC calculations : Yes
Used interface : Installed external ASPI interface

Used output format : User Defined Encoder
Selected bitrate : 1024 kBit/s
Quality : High
Add ID3 tag : No
Command line compressor : C:\Program Files\FLAC\flac.exe
Additional command line options : -V -8 -T "Date=%year%" -T "Genre=%genre%" -T"COMMENT=Ripped by Ilijan" -8 -V %source%


TOC of the extracted CD

Track | Start | Length | Start sector | End sector
––––––––––––––––––––––––––––-
1 | 0:00.00 | 4:15.36 | 0 | 19160
2 | 4:15.36 | 4:36.27 | 19161 | 39887
3 | 8:51.63 | 5:09.27 | 39888 | 63089
4 | 14:01.15 | 5:08.44 | 63090 | 86233
5 | 19:09.59 | 5:41.35 | 86234 | 111843
6 | 24:51.19 | 4:46.20 | 111844 | 133313
7 | 29:37.39 | 5:20.66 | 133314 | 157379
8 | 34:58.30 | 4:37.17 | 157380 | 178171
9 | 39:35.47 | 4:01.48 | 178172 | 196294
10 | 43:37.20 | 6:56.71 | 196295 | 227565


Range status and errors

Selected range

Filename D:\Accuser - The Mastery.wav

Peak level 100.0 %
Extraction speed 3.8 X
Range quality 100.0 %
Test CRC C12192DC
Copy CRC C12192DC
Copy OK

No errors occurred


AccurateRip summary

Track 1 accurately ripped (confidence 1) [676DCF72] (AR v2)
Track 2 accurately ripped (confidence 1) [448D2DEF] (AR v2)
Track 3 accurately ripped (confidence 1) [62A59E3C] (AR v2)
Track 4 accurately ripped (confidence 1) [673B7FAA] (AR v2)
Track 5 accurately ripped (confidence 1) [C9E5E39D] (AR v2)
Track 6 accurately ripped (confidence 1) [F99E3409] (AR v2)
Track 7 accurately ripped (confidence 1) [78FDDDD7] (AR v2)
Track 8 accurately ripped (confidence 1) [11B4D10E] (AR v2)
Track 9 accurately ripped (confidence 1) [1A7D4A32] (AR v2)
Track 10 accurately ripped (confidence 1) [B76D6D35] (AR v2)

All tracks accurately ripped

End of status report

–– CUETools DB Plugin V2.1.6

[CTDB TOCID: Fv74GRe6oT1kYQkydj5GFNgzosE-] found
Submit result: Fv74GRe6oT1kYQkydj5GFNgzosE- has been confirmed
Track | CTDB Status
1 | (4/4) Accurately ripped
2 | (4/4) Accurately ripped
3 | (4/4) Accurately ripped
4 | (4/4) Accurately ripped
5 | (4/4) Accurately ripped
6 | (4/4) Accurately ripped
7 | (4/4) Accurately ripped
8 | (4/4) Accurately ripped
9 | (4/4) Accurately ripped
10 | (4/4) Accurately ripped


==== Log checksum 74497585AEB25984BE92C3831623AFFB3D62102FB9E2C0B5B2EF269AE45DC660 ====


Many thanks to the original uploader: Ilijan

SEE also:
Accuser 2011 Dependent Domination



Password: pass