Subcategories

Adolescents - Adolescents / Welcome To Reality EP / Rikk Agnew - All By Myself (1997) 3 in 1 CD

Posted By: Designol
Adolescents - Adolescents / Welcome To Reality EP / Rikk Agnew - All By Myself (1997) 3 in 1 CD

Adolescents - Adolescents (1981), Welcome To Reality EP (1981), Rikk Agnew - All By Myself (1982) 3 in 1 CD, 1997
EAC | FLAC | Tracks (Cue&Log) ~ 544 Mb (incl 5%) | Mp3 (CBR320) ~ 209 Mb (incl 5%) | Scans included
Genre: Hardcore Punk, Skate Punk, American Underground | Label: Frontier Records | # 0102-2 | Time: 01:11:30

Adolescents (1981):

The first and best wave of L.A. punk bands from 1977-1979 all broke up under-documented and unsigned, with the exception of X, the Germs, and, to a lesser extent, the Plugz. But the legacy of incredible pioneers such as the Weirdos, Dils, Controllers, and Screamers was the wide success of the harder, faster, younger bands that followed. The interest the 1977 bands awakened not only inspired the formation of Black Flag, Circle Jerks, T.S.O.L., Social Distortion, Agent Orange, Fear, the Adolescents, and others, but helped create a national market, enabling the newer bands to find labels, put out albums, and tour regularly. the Adolescents were perhaps the first of this second wave to put out an LP widely distributed throughout the U.S., selling well over five digits in 1981 (following on the heels of San Francisco's Dead Kennedys, who broke the doors open with their immortal Fresh Fruit for Rotting Vegetables the previous year). Produced by Middle Class' Mike Patton, the debut from these five Orange County kids established the mid-tempo, punk-pop "Southern Cal sound," led by the long, great, pummeling, Johnny Thunders-derived solos of the two Agnew brothers, Rikk and Frank. These soaring, ripping parts still sound great today. As important, songs such as the anthemic "No Way," the classic "Amoeba," the schizophrenic "Kids of the Black Hole," and the glorious "Creatures" endure precisely because they're not just aggressive and speedy: they're super-catchy, heavy-riffing rock & roll, proving again that punk was the true heir to the likes of Chuck Berry, Larry Williams, Bo Diddley, and Eddie Cochran. For the longest while, L.A. teenagers had the spirit, verve, moxie, and zeal to play charged, zippy punk. Hundreds of other bands formed right as Adolescents recorded, such as Bad Religion, Shattered Faith, Youth Brigade, Aggression, M.I.A., and Channel 3! In so doing, L.A. helped resist the diluted explosion of thrash hardcore that swept the rest of the U.S., particularly on the East Coast. [The 1997 reissue tacks on the ace Welcome to Reality EP and Rikk Agnew's overlooked All by Myself solo LP (don't miss "O.C. Life").]

Review by Jack Rabid, Allmusic.com

Adolescents - Adolescents / Welcome To Reality EP / Rikk Agnew - All By Myself (1997) 3 in 1 CD

Rikk Agnew - All By Myself (1982):

Snarkily titled after Eric Carmen's '70s solo hit but thankfully not featuring a cover of that song, Agnew's solo debut actually lives up to its title completely, as he plays every instrument on the record, creating a great one-man band sound (with the help of Adolescents producer Thom Wilson) as a result. Possessed of a good mid-range punk voice – no sneering or bellowing, not really singing but not just talking over the songs either – he creates the same basic rush he brought to his early stints in the Adolescents and the faster Christian Death songs he worked on, but with a slightly poppier bent at points that perfectly balances sass and strength, while not being afraid to experiment from time to time either (as the lengthy album closer "Section 8" shows). "Everyday," the one track Agnew cowrote with someone else (his brother and fellow Adolescents veteran Frank), is a great example of this, with its gentler pace, tight arrangement that lets some space into the playing, and Agnew's actual singing, which succeeds in a slightly winsome way. The leadoff track is yet another Orange County punk classic from Agnew's pen, "OC Life," specifically naming some particularly crap cities worthy of contempt, and from there he's off relentlessly detailing some particularly screwed up lives and problems with a withering eye. More than most who have worked in punk, Agnew can capture a careful empathy when at his best, backed up with memorable music to boot (the fragile keyboard arrangement that fills out the sound on the remarkable character study "10" is particularly lovely touch). "Surfside" sneaks in a surf riff (but of course!) into its otherwise trebly and tense look back at a destructive, unsettled past, a smart way of combining nostalgia with a questioning bent, another fine moment on a generally fine record.

Review by Ned Raggett, Allmusic.com

Adolescents - Adolescents / Welcome To Reality EP / Rikk Agnew - All By Myself (1997) 3 in 1 CD



Tracklist:

Adolescents (1981):

01. I Hate Children (01:45)
02. Who Is Who (01:23)
03. Wrecking Crew (02:08)
04. L.A. Girl (01:48)
05. Self Destruct (00:48)
06. Kids Of The Black Hole (05:27)
07. No Way (02:03)
08. Amoeba (03:06)
09. Word Attack (01:08)
10. Rip It Up (02:11)
11. Democracy (02:07)
12. No Friends (02:32)
13. Creatures (01:58)

Welcome To Reality EP (1981):

14. Welcome To Reality (02:11)
15. Losing Battle (01:34)
16. Things Start Moving (03:06)

Rikk Agnew - All By Myself (1982):

17. O.C. Life (02:50)
18. 10 (02:58)
19. Yur 2 Late (03:40)
20. Everyday (04:30)
21. One Shot (03:07)
22. Falling Out (02:52)
23. Surfside (04:05)
24. It's Doing Something (03:08)
25. Fast (01:26)
26. Section 8 (07:29)


Exact Audio Copy V1.0 beta 1 from 15. November 2010

EAC extraction logfile from 24. March 2015, 21:56

Various / Adolescents - Adolescents + Welcome To Reality EP + Rikk Agnew-All By Myself

Used drive : TSSTcorpCDDVDW SH-224DB Adapter: 1 ID: 0

Read mode : Secure
Utilize accurate stream : Yes
Defeat audio cache : Yes
Make use of C2 pointers : No

Read offset correction : 6
Overread into Lead-In and Lead-Out : No
Fill up missing offset samples with silence : Yes
Delete leading and trailing silent blocks : No
Null samples used in CRC calculations : Yes
Used interface : Native Win32 interface for Win NT & 2000
Gap handling : Appended to previous track

Used output format : User Defined Encoder
Selected bitrate : 896 kBit/s
Quality : High
Add ID3 tag : No
Command line compressor : C:\Program Files\Exact Audio Copy\Flac\flac.exe
Additional command line options : -6 -V -T "ARTIST=%a" -T "TITLE=%t" -T "ALBUM=%g" -T "DATE=%y" -T "TRACKNUMBER=%n" -T "GENRE=%m" -T "COMMENT=%e" %s -o %d


TOC of the extracted CD

Track | Start | Length | Start sector | End sector
––––––––––––––––––––––––––––-
1 | 0:00.00 | 1:45.32 | 0 | 7906
2 | 1:45.32 | 1:23.45 | 7907 | 14176
3 | 3:09.02 | 2:08.13 | 14177 | 23789
4 | 5:17.15 | 1:48.65 | 23790 | 31954
5 | 7:06.05 | 0:48.07 | 31955 | 35561
6 | 7:54.12 | 5:27.03 | 35562 | 60089
7 | 13:21.15 | 2:03.32 | 60090 | 69346
8 | 15:24.47 | 3:06.48 | 69347 | 83344
9 | 18:31.20 | 1:08.05 | 83345 | 88449
10 | 19:39.25 | 2:11.20 | 88450 | 98294
11 | 21:50.45 | 2:07.67 | 98295 | 107886
12 | 23:58.37 | 2:32.03 | 107887 | 119289
13 | 26:30.40 | 1:58.00 | 119290 | 128139
14 | 28:28.40 | 2:11.17 | 128140 | 137981
15 | 30:39.57 | 1:34.33 | 137982 | 145064
16 | 32:14.15 | 3:06.37 | 145065 | 159051
17 | 35:20.52 | 2:50.00 | 159052 | 171801
18 | 38:10.52 | 2:58.10 | 171802 | 185161
19 | 41:08.62 | 3:40.58 | 185162 | 201719
20 | 44:49.45 | 4:30.55 | 201720 | 222024
21 | 49:20.25 | 3:07.25 | 222025 | 236074
22 | 52:27.50 | 2:52.20 | 236075 | 248994
23 | 55:19.70 | 4:05.72 | 248995 | 267441
24 | 59:25.67 | 3:08.10 | 267442 | 281551
25 | 62:34.02 | 1:26.55 | 281552 | 288056
26 | 64:00.57 | 7:29.48 | 288057 | 321779


Track 1

Filename C:\New Folder\01 - Adolescents - I Hate Children.wav

Pre-gap length 0:00:02.00

Peak level 88.5 %
Extraction speed 1.6 X
Track quality 100.0 %
Test CRC DD59D3D2
Copy CRC DD59D3D2
Accurately ripped (confidence 2) [2F50739F]
Copy OK

Track 2

Filename C:\New Folder\02 - Adolescents - Who Is Who.wav

Peak level 86.6 %
Extraction speed 1.5 X
Track quality 100.0 %
Test CRC ABA17E7C
Copy CRC ABA17E7C
Accurately ripped (confidence 2) [B1DFE4CF]
Copy OK

Track 3

Filename C:\New Folder\03 - Adolescents - Wrecking Crew.wav

Peak level 85.9 %
Extraction speed 1.4 X
Track quality 99.9 %
Test CRC 35221489
Copy CRC 35221489
Accurately ripped (confidence 2) [269E1CC0]
Copy OK

Track 4

Filename C:\New Folder\04 - Adolescents - L.A. Girl.wav

Pre-gap length 0:00:00.41

Peak level 87.7 %
Extraction speed 1.8 X
Track quality 100.0 %
Test CRC FB292868
Copy CRC FB292868
Accurately ripped (confidence 2) [44C6487E]
Copy OK

Track 5

Filename C:\New Folder\05 - Adolescents - Self Destruct.wav

Pre-gap length 0:00:01.13

Peak level 86.6 %
Extraction speed 1.4 X
Track quality 100.0 %
Test CRC A15C0E48
Copy CRC A15C0E48
Accurately ripped (confidence 2) [780AC58B]
Copy OK

Track 6

Filename C:\New Folder\06 - Adolescents - Kids Of The Black Hole.wav

Peak level 87.8 %
Extraction speed 2.4 X
Track quality 100.0 %
Test CRC 500BE1DA
Copy CRC 500BE1DA
Accurately ripped (confidence 2) [ACDE0A48]
Copy OK

Track 7

Filename C:\New Folder\07 - Adolescents - No Way.wav

Peak level 87.3 %
Extraction speed 2.2 X
Track quality 100.0 %
Test CRC 37452FE7
Copy CRC 37452FE7
Accurately ripped (confidence 2) [7D49B1A3]
Copy OK

Track 8

Filename C:\New Folder\08 - Adolescents - Amoeba.wav

Pre-gap length 0:00:01.42

Peak level 87.0 %
Extraction speed 1.9 X
Track quality 99.9 %
Test CRC EA7CAE8D
Copy CRC EA7CAE8D
Accurately ripped (confidence 2) [663A0164]
Copy OK

Track 9

Filename C:\New Folder\09 - Adolescents - Word Attack.wav

Pre-gap length 0:00:02.33

Peak level 87.1 %
Extraction speed 1.2 X
Track quality 99.8 %
Test CRC D83E9859
Copy CRC D83E9859
Accurately ripped (confidence 2) [9D893050]
Copy OK

Track 10

Filename C:\New Folder\10 - Adolescents - Rip It Up.wav

Pre-gap length 0:00:01.27

Peak level 87.3 %
Extraction speed 2.4 X
Track quality 100.0 %
Test CRC 01B02E4E
Copy CRC 01B02E4E
Accurately ripped (confidence 2) [F50461A5]
Copy OK

Track 11

Filename C:\New Folder\11 - Adolescents - Democracy.wav

Peak level 86.3 %
Extraction speed 2.5 X
Track quality 100.0 %
Test CRC A984D120
Copy CRC A984D120
Accurately ripped (confidence 2) [318E2BAF]
Copy OK

Track 12

Filename C:\New Folder\12 - Adolescents - No Friends.wav

Peak level 87.2 %
Extraction speed 2.6 X
Track quality 100.0 %
Test CRC 271B60BB
Copy CRC 271B60BB
Accurately ripped (confidence 2) [0BDC09A9]
Copy OK

Track 13

Filename C:\New Folder\13 - Adolescents - Creatures.wav

Pre-gap length 0:00:01.57

Peak level 88.5 %
Extraction speed 2.6 X
Track quality 100.0 %
Test CRC C6DB5F27
Copy CRC C6DB5F27
Accurately ripped (confidence 2) [FFD91B05]
Copy OK

Track 14

Filename C:\New Folder\14 - Adolescents - Welcome To Reality.wav

Peak level 88.7 %
Extraction speed 2.7 X
Track quality 100.0 %
Test CRC 24A0827D
Copy CRC 24A0827D
Accurately ripped (confidence 2) [2B55F095]
Copy OK

Track 15

Filename C:\New Folder\15 - Adolescents - Losing Battle.wav

Peak level 86.7 %
Extraction speed 2.5 X
Track quality 100.0 %
Test CRC 4DF93492
Copy CRC 4DF93492
Accurately ripped (confidence 2) [9EA52BB5]
Copy OK

Track 16

Filename C:\New Folder\16 - Adolescents - Things Start Moving.wav

Peak level 87.2 %
Extraction speed 3.0 X
Track quality 100.0 %
Test CRC 87FA2635
Copy CRC 87FA2635
Accurately ripped (confidence 2) [FD16EA68]
Copy OK

Track 17

Filename C:\New Folder\17 - Rikk Agnew - O.C. Life.wav

Peak level 86.9 %
Extraction speed 2.2 X
Track quality 99.9 %
Test CRC D73C88CD
Copy CRC D73C88CD
Accurately ripped (confidence 2) [85AA6ED2]
Copy OK

Track 18

Filename C:\New Folder\18 - Rikk Agnew - 10.wav

Peak level 85.4 %
Extraction speed 3.1 X
Track quality 100.0 %
Test CRC 8CAEE916
Copy CRC 8CAEE916
Accurately ripped (confidence 2) [487B6468]
Copy OK

Track 19

Filename C:\New Folder\19 - Rikk Agnew - Yur 2 Late.wav

Pre-gap length 0:00:01.06

Peak level 86.0 %
Extraction speed 3.4 X
Track quality 100.0 %
Test CRC 72421AC5
Copy CRC 72421AC5
Accurately ripped (confidence 2) [D1368467]
Copy OK

Track 20

Filename C:\New Folder\20 - Rikk Agnew - Everyday.wav

Pre-gap length 0:00:01.41

Peak level 88.2 %
Extraction speed 3.6 X
Track quality 100.0 %
Test CRC 3CEA8BEA
Copy CRC 3CEA8BEA
Accurately ripped (confidence 2) [AFD334AC]
Copy OK

Track 21

Filename C:\New Folder\21 - Rikk Agnew - One Shot.wav

Pre-gap length 0:00:00.38

Peak level 87.0 %
Extraction speed 3.5 X
Track quality 100.0 %
Test CRC A0AB832E
Copy CRC A0AB832E
Accurately ripped (confidence 2) [7B36D61B]
Copy OK

Track 22

Filename C:\New Folder\22 - Rikk Agnew - Falling Out.wav

Peak level 87.7 %
Extraction speed 3.5 X
Track quality 100.0 %
Test CRC C4D8CAEA
Copy CRC C4D8CAEA
Accurately ripped (confidence 2) [AA36CBF0]
Copy OK

Track 23

Filename C:\New Folder\23 - Rikk Agnew - Surfside.wav

Pre-gap length 0:00:02.12

Peak level 87.2 %
Extraction speed 3.8 X
Track quality 100.0 %
Test CRC 4E656C89
Copy CRC 4E656C89
Accurately ripped (confidence 2) [C4AC7210]
Copy OK

Track 24

Filename C:\New Folder\24 - Rikk Agnew - It's Doing Something.wav

Pre-gap length 0:00:00.73

Peak level 87.2 %
Extraction speed 3.7 X
Track quality 100.0 %
Test CRC D970EF98
Copy CRC D970EF98
Accurately ripped (confidence 2) [6D40507E]
Copy OK

Track 25

Filename C:\New Folder\25 - Rikk Agnew - Fast.wav

Pre-gap length 0:00:00.65

Peak level 85.7 %
Extraction speed 3.1 X
Track quality 100.0 %
Test CRC EBAFC59C
Copy CRC EBAFC59C
Accurately ripped (confidence 2) [05B0DD8A]
Copy OK

Track 26

Filename C:\New Folder\26 - Rikk Agnew - Section 8.wav

Pre-gap length 0:00:00.68

Peak level 87.4 %
Extraction speed 3.6 X
Track quality 99.9 %
Test CRC CDB56BE9
Copy CRC CDB56BE9
Accurately ripped (confidence 2) [5309669B]
Copy OK


All tracks accurately ripped

No errors occurred

End of status report

==== Log checksum 786268D99F926EF986092B4039C5E6C47E0D035C9ADFF213D9C757DFB3323E5A ====

foobar2000 1.3.8 / Dynamic Range Meter 1.1.1
log date: 2015-05-26 12:13:27

––––––––––––––––––––––––––––––––––––––––
Analyzed: Adolescents / Adolescents - Adolescents + Welcome To Reality EP + Rikk Agnew-All By Myself (1-16)
Rikk Agnew / Adolescents - Adolescents + Welcome To Reality EP + Rikk Agnew-All By Myself (17-26)
––––––––––––––––––––––––––––––––––––––––

DR Peak RMS Duration Track
––––––––––––––––––––––––––––––––––––––––
DR9 -1.06 dB -12.13 dB 1:45 01-I Hate Children
DR9 -1.25 dB -11.41 dB 1:24 02-Who Is Who
DR11 -1.32 dB -14.59 dB 2:08 03-Wrecking Crew
DR10 -1.14 dB -12.19 dB 1:49 04-L.A. Girl
DR9 -1.24 dB -11.99 dB 0:48 05-Self Destruct
DR10 -1.13 dB -12.27 dB 5:27 06-Kids Of The Black Hole
DR9 -1.17 dB -12.29 dB 2:03 07-No Way
DR10 -1.20 dB -11.90 dB 3:07 08-Amoeba
DR9 -1.20 dB -11.40 dB 1:08 09-Word Attack
DR10 -1.18 dB -12.48 dB 2:11 10-Rip It Up
DR10 -1.27 dB -12.91 dB 2:08 11-Democracy
DR10 -1.19 dB -12.96 dB 2:32 12-No Friends
DR9 -1.06 dB -11.41 dB 1:58 13-Creatures
DR10 -1.03 dB -12.72 dB 2:11 14-Welcome To Reality
DR10 -1.24 dB -12.45 dB 1:34 15-Losing Battle
DR10 -1.18 dB -13.59 dB 3:06 16-Things Start Moving
DR9 -1.22 dB -11.06 dB 2:50 17-O.C. Life
DR9 -1.37 dB -11.51 dB 2:58 18-10
DR9 -1.30 dB -11.15 dB 3:41 19-Yur 2 Late
DR9 -1.08 dB -11.48 dB 4:31 20-Everyday
DR9 -1.20 dB -12.62 dB 3:07 21-One Shot
DR9 -1.14 dB -11.12 dB 2:52 22-Falling Out
DR10 -1.19 dB -11.93 dB 4:06 23-Surfside
DR9 -1.18 dB -11.90 dB 3:08 24-It's Doing Something
DR8 -1.34 dB -10.23 dB 1:27 25-Fast
DR9 -1.16 dB -12.52 dB 7:30 26-Section 8
––––––––––––––––––––––––––––––––––––––––

Number of tracks: 26
Official DR value: DR9

Samplerate: 44100 Hz
Channels: 2
Bits per sample: 16
Bitrate: 945 kbps
Codec: FLAC
================================================================================

Adolescents - Adolescents / Welcome To Reality EP / Rikk Agnew - All By Myself (1997) 3 in 1 CD

Adolescents - Adolescents / Welcome To Reality EP / Rikk Agnew - All By Myself (1997) 3 in 1 CD

All thanks to original releaser - alekow

More interesting music in My Blog