Subcategories

Adriano Celentano - Azzurro / Una Carezza In Un Pugno (1991)

Posted By: v3122
Adriano Celentano - Azzurro / Una Carezza In Un Pugno (1991)

Adriano Celentano - Azzurro / Una Carezza In Un Pugno (1991)
EAC | Flac(Image) + Cue + Log & MP3 CBR 320Kbps
Clan Celentano, 9031 74436-2 | ~ 239 or 88 Mb | Scans(jpg) -> 8 Mb
Ska, Chanson, Pop Rock

One of Italy's best-loved artists, Adriano Celentano has been equally successful in film and music. Whether singing Elvis Presley-inspired rock, as he did as a member of the Rock Boys in 1957, or romantic balladry, Celentano found a dedicated market for his music. Reaching the top of the Italian music charts with his debut single "Il Tuo Bacio e Come un Skirt" in 1959, he matched its success with the million-selling "24000 Baci (24,000 Kisses)" in 1961; "Il Ragazzo Della Via Gluck," which went on to be translated and re-recorded in 18 languages, in 1966; and Prisencolinensinainciusol in 1972.

Celentano's albums have been similarly embraced. His debut album, Non Mi Dir, reached the top position of Italy's charts in 1965. His album Soli spent 58 weeks on the charts in 1978-1979. Although he left music for nearly two decades to focus on his career as an actor, Celentano later recaptured the momentum of his early career. His comeback album, Mina + Celentano, was a major hit in 1998 while his second album, Francamente Me Ne Infischio, based on the television-variety show that he agreed to host in 1999, spent several weeks at the top of Italy's album charts. Esco di Rado – E Parlo Ancora Meno, the third album since Celentano returned to music, sold more than 600,000 copies before its release.
Celentano continued to balance his music career with his work in Italian cinema. As an actor, he made his theatrical debut in such movies as Dai, Johnny, Dai!, I Ragazzi del Jukebox, I Frenetici in 1959, and Fellini's classic La Dolce Vita in 1960. His subsequent screen appearances included roles in such films as The Sin, Rugantino, Give Me Five, Il Bisbetico Domato, and Segni Parsticolari: Bellissimo. Having made his debut as a producer and director with the 1974 film Yuppi Du, Celentano wen on to direct such films as L'atra Meta Del Cielo and Geppo Il Folle. His first long-term experience with television came in late 1987 when he agreed to host the variety show Fantastico 8.

by Craig Harris, allmusic, allmusic
Adriano Celentano - Azzurro / Una Carezza In Un Pugno (1991)


Adriano Celentano - Azzurro / Una Carezza In Un Pugno (1991):

Adriano Celentano - Azzurro / Una Carezza In Un Pugno (1991)

Tracklist:

01. Una Carezza In Un Pugno [0:02:58.02]
02. 30 Donne Del West [0:03:22.08]
03. Canzone [0:02:43.70]
04. Eravamo in 100.000 [0:02:27.20]
05. Torno Sui Miei Passi [0:03:15.07]
06. La Lotta Dell'amore [0:02:23.58]
07. Azzurro [0:03:42.65]
08. Piu' Forte Che Puoi [0:02:50.10]
09. Tre Passi Avanti [0:03:49.65]
10. Un Bimbo Sul Leone [0:03:37.62]
11. Buonasera Signorina [0:03:16.53]
12. La Coppia Piu' Bella del Mondo

Exact Audio Copy V0.99 prebeta 4 from 23. January 2008

EAC extraction logfile from 26. December 2008, 15:57

Adriano Celentano / Azzurro

Used drive : TSSTcorpCDDVDW SH-S203B Adapter: 6 ID: 0

Read mode : Secure
Utilize accurate stream : Yes
Defeat audio cache : Yes
Make use of C2 pointers : No

Read offset correction : 6
Overread into Lead-In and Lead-Out : No
Fill up missing offset samples with silence : Yes
Delete leading and trailing silent blocks : No
Null samples used in CRC calculations : Yes
Used interface : Installed external ASPI interface

Used output format : User Defined Encoder
Selected bitrate : 1024 kBit/s
Quality : High
Add ID3 tag : No
Command line compressor : C:\Program Files\FLAC\flac.exe
Additional command line options : -8 -V -T "ARTIST=%a" -T "TITLE=%t" -T "ALBUM=%g" -T "DATE=%y" -T "TRACKNUMBER=%n" -T "GENRE=%m" -T "COMMENT=%e" %s -o %d


TOC of the extracted CD

Track | Start | Length | Start sector | End sector
––––––––––––––––––––––––––––-
1 | 0:00.00 | 2:58.02 | 0 | 13351
2 | 2:58.02 | 3:22.08 | 13352 | 28509
3 | 6:20.10 | 2:43.70 | 28510 | 40804
4 | 9:04.05 | 2:27.20 | 40805 | 51849
5 | 11:31.25 | 3:15.07 | 51850 | 66481
6 | 14:46.32 | 2:23.58 | 66482 | 77264
7 | 17:10.15 | 3:42.65 | 77265 | 93979
8 | 20:53.05 | 2:50.10 | 93980 | 106739
9 | 23:43.15 | 3:49.65 | 106740 | 123979
10 | 27:33.05 | 3:37.62 | 123980 | 140316
11 | 31:10.67 | 3:16.53 | 140317 | 155069
12 | 34:27.45 | 3:02.27 | 155070 | 168746


Range status and errors

Selected range

Filename C:\uTorrent\CD\Adriano Celentano\Adriano Celentano - Azzurro\Adriano Celentano - Azzurro.wav

Peak level 82.8 %
Range quality 100.0 %
Copy CRC 048C90C9
Copy OK

No errors occurred


AccurateRip summary

Track 1 not present in database
Track 2 not present in database
Track 3 not present in database
Track 4 not present in database
Track 5 not present in database
Track 6 not present in database
Track 7 not present in database
Track 8 not present in database
Track 9 not present in database
Track 10 not present in database
Track 11 not present in database
Track 12 not present in database

None of the tracks are present in the AccurateRip database

End of status report

foobar2000 1.2.9 / Dynamic Range Meter 1.1.1
log date: 2017-06-28 23:07:39

––––––––––––––––––––––––––––––––––––––––
Analyzed: Adriano Celentano / Azzurro
––––––––––––––––––––––––––––––––––––––––

DR Peak RMS Duration Track
––––––––––––––––––––––––––––––––––––––––
DR9 -2.03 dB -12.69 dB 2:58 01-Una Carezza In Un Pugno
DR9 -2.87 dB -13.85 dB 3:22 02-30 Donne Del West
DR8 -3.32 dB -13.91 dB 2:44 03-Canzone
DR9 -2.15 dB -14.91 dB 2:27 04-Eravamo in 100.000
DR10 -1.63 dB -13.09 dB 3:15 05-Torno Sui Miei Passi
DR9 -2.04 dB -13.08 dB 2:24 06-La Lotta Dell'amore
DR10 -2.43 dB -13.84 dB 3:43 07-Azzurro
DR9 -2.88 dB -14.80 dB 2:50 08-Piu' Forte Che Puoi
DR11 -1.94 dB -15.38 dB 3:50 09-Tre Passi Avanti
DR10 -2.72 dB -13.66 dB 3:38 10-Un Bimbo Sul Leone
DR9 -3.56 dB -14.95 dB 3:17 11-Buonasera Signorina
DR8 -2.53 dB -13.00 dB 3:02 12-La Coppia Piu' Bella del Mondo
––––––––––––––––––––––––––––––––––––––––

Number of tracks: 12
Official DR value: DR9

Samplerate: 44100 Hz
Channels: 2
Bits per sample: 16
Bitrate: 867 kbps
Codec: FLAC

[CUETools log; Date: 28.06.2017 23:01:10; Version: 2.1.4]
[CTDB TOCID: 8Qn6wy9hDeDn2qeyn8RIMkTXezM-] found.
Track | CTDB Status
1 | (1/2) Accurately ripped
2 | (1/2) Accurately ripped
3 | (1/2) Accurately ripped
4 | (1/2) Accurately ripped
5 | (1/2) Accurately ripped
6 | (1/2) Accurately ripped
7 | (1/2) Accurately ripped
8 | (1/2) Accurately ripped
9 | (1/2) Accurately ripped
10 | (1/2) Accurately ripped
11 | (1/2) Accurately ripped
12 | (1/2) Accurately ripped
[AccurateRip ID: 0010485a-0098f756-a408c90c] found.
Track [ CRC | V2 ] Status
01 [63fd7459|0b3ac6fb] (2+0/2) Accurately ripped
02 [01459349|5b3a6b36] (2+0/2) Accurately ripped
03 [f5a92727|daf3070a] (2+0/2) Accurately ripped
04 [fc2a8905|38421115] (2+0/2) Accurately ripped
05 [ede76b8b|40287145] (2+0/2) Accurately ripped
06 [bc08ec30|6d406184] (2+0/2) Accurately ripped
07 [b85ab486|f8351658] (2+0/2) Accurately ripped
08 [116ed6ec|96e22d0e] (2+0/2) Accurately ripped
09 [f02aafe7|72f25882] (2+0/2) Accurately ripped
10 [66705e86|3c4ce723] (2+0/2) Accurately ripped
11 [2df3e5db|b88c2446] (2+0/2) Accurately ripped
12 [bde6160a|4b48db33] (2+0/2) Accurately ripped

Track Peak [ CRC32 ] [W/O NULL] [ LOG ]
– 82,8 [048C90C9] [0192266E] CRC32
01 79,1 [8163B3F7] [B69A1A40]
02 71,8 [5D7ADF6C] [71BDC9C3]
03 68,2 [5FBFAAE8] [9DFBAD2A]
04 78,0 [6FF35868] [87F7ECCA]
05 82,8 [BB27BDE2] [D1D619B9]
06 79,0 [9A4D3AAE] [65B71852]
07 75,5 [86006C7A] [5311FFF8]
08 71,8 [F810EA4D] [DA7756DF]
09 79,9 [C78687E0] [E3506988]
10 73,1 [D23EB544] [58FA4075]
11 66,3 [5DD1B2B1] [EB78A3D7]
12 74,7 [2FC76178] [6E2731EE]

Adriano Celentano - Azzurro / Una Carezza In Un Pugno (1991)

All thanks go to bazar

Adriano Celentano in my Blog

Download Adriano Celentano - Azzurro / Una Carezza In Un Pugno (1991):