Adriano Celentano - Dormi Amore (La Situazione Non È Buona) (2007)

Posted By: v3122
Adriano Celentano - Dormi Amore (La Situazione Non È Buona) (2007)

Adriano Celentano - Dormi Amore (La Situazione Non È Buona) (2007)
EAC | Flac(Image) + Cue + Log & MP3 CBR 320Kbps
Clan Celentano, CLN 20582 | ~ 323 or 115 Mb | Scans(jpg) -> 16 Mb
Pop Rock, Ballad, Vocal

One of Italy's best-loved artists, Adriano Celentano has been equally successful in film and music. Whether singing Elvis Presley-inspired rock, as he did as a member of the Rock Boys in 1957, or romantic balladry, Celentano found a dedicated market for his music. Reaching the top of the Italian music charts with his debut single "Il Tuo Bacio e Come un Skirt" in 1959, he matched its success with the million-selling "24000 Baci (24,000 Kisses)" in 1961; "Il Ragazzo Della Via Gluck," which went on to be translated and re-recorded in 18 languages, in 1966; and Prisencolinensinainciusol in 1972.

Celentano's albums have been similarly embraced. His debut album, Non Mi Dir, reached the top position of Italy's charts in 1965. His album Soli spent 58 weeks on the charts in 1978-1979. Although he left music for nearly two decades to focus on his career as an actor, Celentano later recaptured the momentum of his early career. His comeback album, Mina + Celentano, was a major hit in 1998 while his second album, Francamente Me Ne Infischio, based on the television-variety show that he agreed to host in 1999, spent several weeks at the top of Italy's album charts. Esco di Rado – E Parlo Ancora Meno, the third album since Celentano returned to music, sold more than 600,000 copies before its release.
Celentano continued to balance his music career with his work in Italian cinema. As an actor, he made his theatrical debut in such movies as Dai, Johnny, Dai!, I Ragazzi del Jukebox, I Frenetici in 1959, and Fellini's classic La Dolce Vita in 1960. His subsequent screen appearances included roles in such films as The Sin, Rugantino, Give Me Five, Il Bisbetico Domato, and Segni Parsticolari: Bellissimo. Having made his debut as a producer and director with the 1974 film Yuppi Du, Celentano wen on to direct such films as L'atra Meta Del Cielo and Geppo Il Folle. His first long-term experience with television came in late 1987 when he agreed to host the variety show Fantastico 8.

by Craig Harris, allmusic
Adriano Celentano - Dormi Amore (La Situazione Non È Buona) (2007)


Adriano Celentano - Dormi Amore (La Situazione Non È Buona) (2007):

Adriano Celentano - Dormi Amore (La Situazione Non È Buona) (2007)

Tracklist:

01. Hai bucato la mia vita [4:59]
02. Aria… non sei piu tu [4:28]
03. Dormi amore [5:31]
04. La situazione non e buona [5:17]
05. Ragazzo del sud [5:35]
06. Vorrei sapere [4:05]
07. Anna Magnani [4:09]
08. Fiori [3:06]
09. Fascino [3:54]
10. I tuoi artigli [3:00]
11. [Unknown] [4:47]

Exact Audio Copy V1.1 from 23. June 2015

EAC extraction logfile from 12. June 2016, 1:34

ADRIANO CELENTANO / Dormi amore (Italy, CLAN, CLN 20582)

Used drive : ASUS DRW-24B3ST Adapter: 1 ID: 1

Read mode : Secure
Utilize accurate stream : Yes
Defeat audio cache : Yes
Make use of C2 pointers : No

Read offset correction : 6
Overread into Lead-In and Lead-Out : No
Fill up missing offset samples with silence : Yes
Delete leading and trailing silent blocks : No
Null samples used in CRC calculations : Yes
Used interface : Native Win32 interface for Win NT & 2000

Used output format : User Defined Encoder
Selected bitrate : 1024 kBit/s
Quality : High
Add ID3 tag : No
Command line compressor : C:\Program Files\EAC(v.1.1)\WV\wavpack.exe
Additional command line options : -h -hh -m %source%


TOC of the extracted CD

Track | Start | Length | Start sector | End sector
––––––––––––––––––––––––––––-
1 | 0:00.00 | 4:58.50 | 0 | 22399
2 | 4:58.50 | 4:28.08 | 22400 | 42507
3 | 9:26.58 | 5:31.07 | 42508 | 67339
4 | 14:57.65 | 5:16.67 | 67340 | 91106
5 | 20:14.57 | 5:34.49 | 91107 | 116205
6 | 25:49.31 | 4:04.56 | 116206 | 134561
7 | 29:54.12 | 4:08.55 | 134562 | 153216
8 | 34:02.67 | 3:06.14 | 153217 | 167180
9 | 37:09.06 | 3:54.24 | 167181 | 184754
10 | 41:03.30 | 2:59.72 | 184755 | 198251
11 | 44:03.27 | 4:47.31 | 198252 | 219807


Range status and errors

Selected range

Filename F:\ADRIANO CELENTANO - Dormi amore (IT 2007 Clan Celentano S.r.l. • CLN 20582)\ADRIANO CELENTANO - Dormi amore (Italy, CLAN, CLN 20582).wav

Peak level 100.0 %
Extraction speed 7.4 X
Range quality 100.0 %
Test CRC 7564D502
Copy CRC 7564D502
Copy OK

No errors occurred


AccurateRip summary

Track 1 accurately ripped (confidence 8) [5F2A5793] (AR v2)
Track 2 accurately ripped (confidence 8) [20E9E3FB] (AR v2)
Track 3 accurately ripped (confidence 8) [68C47493] (AR v2)
Track 4 accurately ripped (confidence 8) [EC82100B] (AR v2)
Track 5 accurately ripped (confidence 7) [52746AF8] (AR v2)
Track 6 accurately ripped (confidence 7) [F8A342CB] (AR v2)
Track 7 accurately ripped (confidence 7) [7580173C] (AR v2)
Track 8 accurately ripped (confidence 7) [E0E1BC0D] (AR v2)
Track 9 accurately ripped (confidence 7) [1E663B98] (AR v2)
Track 10 accurately ripped (confidence 7) [A6F02D73] (AR v2)
Track 11 accurately ripped (confidence 7) [E38B3E30] (AR v2)

All tracks accurately ripped

End of status report

==== Log checksum FEE03D70861817C028D1CBC5677A0B1FF44AEA5EF95A9D819778A4A1F7261926 ====

foobar2000 1.2.9 / Dynamic Range Meter 1.1.1
log date: 2017-04-21 04:29:11

––––––––––––––––––––––––––––––––––––––––
Analyzed: ADRIANO CELENTANO / Dormi amore (Italy, CLAN, CLN 20582)
––––––––––––––––––––––––––––––––––––––––

DR Peak RMS Duration Track
––––––––––––––––––––––––––––––––––––––––
DR6 -0.02 dB -10.67 dB 4:59 01-Hai bucato la mia vita
DR6 -0.02 dB -8.70 dB 4:28 02-Aria… non sei piu tu
DR7 -0.02 dB -9.31 dB 5:31 03-Dormi amore
DR6 -0.02 dB -9.72 dB 5:17 04-La situazione non e buona
DR7 -0.02 dB -10.08 dB 5:35 05-Ragazzo del sud
DR8 -0.02 dB -11.07 dB 4:05 06-Vorrei sapere
DR7 -0.02 dB -10.05 dB 4:09 07-Anna Magnani
DR7 -0.02 dB -9.30 dB 3:06 08-Fiori
DR9 -0.02 dB -10.51 dB 3:54 09-Fascino
DR7 -0.01 dB -8.58 dB 3:00 10-I tuoi artigli
DR6 0.00 dB -9.68 dB 4:47 11-[Unknown]
––––––––––––––––––––––––––––––––––––––––

Number of tracks: 11
Official DR value: DR7

Samplerate: 44100 Hz
Channels: 2
Bits per sample: 16
Bitrate: 897 kbps
Codec: FLAC

[CUETools log; Date: 21.04.2017 4:29:00; Version: 2.1.4]
[CTDB TOCID: FQ7O524_Lk.Y3ZIvvlh7pGPAhqY-] found.
Track | CTDB Status
1 | (37/40) Accurately ripped
2 | (37/40) Accurately ripped
3 | (37/40) Accurately ripped
4 | (37/40) Accurately ripped
5 | (37/40) Accurately ripped
6 | (37/40) Accurately ripped
7 | (36/40) Accurately ripped
8 | (36/40) Accurately ripped
9 | (36/40) Accurately ripped
10 | (32/40) Accurately ripped
11 | (37/40) Accurately ripped
[AccurateRip ID: 00155258-00b61465-930b720b] found.
Track [ CRC | V2 ] Status
01 [56725e77|5f2a5793] (20+10/39) Accurately ripped
02 [978ba787|20e9e3fb] (22+10/41) Accurately ripped
03 [0b93d0c4|68c47493] (22+10/41) Accurately ripped
04 [45210a12|ec82100b] (21+10/40) Accurately ripped
05 [ea918fcb|52746af8] (21+09/39) Accurately ripped
06 [a6e7afe9|f8a342cb] (22+09/38) Accurately ripped
07 [520d355e|7580173c] (21+09/37) Accurately ripped
08 [121ef8ad|e0e1bc0d] (21+09/39) Accurately ripped
09 [5699b1b1|1e663b98] (21+09/39) Accurately ripped
10 [ca84d37d|a6f02d73] (22+09/40) Accurately ripped
11 [514e6740|e38b3e30] (22+09/37) Accurately ripped
Offsetted by -676:
01 [656536ba] (05/39) Accurately ripped
02 [e87fb600] (05/41) Accurately ripped
03 [b2947965] (05/41) Accurately ripped
04 [7796568f] (05/40) Accurately ripped
05 [0319d496] (05/39) Accurately ripped
06 [40e905ee] (05/38) Accurately ripped
07 [020bb60c] (05/37) Accurately ripped
08 [31bd889e] (05/39) Accurately ripped
09 [edbe1ff2] (05/39) Accurately ripped
10 [277897cb] (05/40) Accurately ripped
11 [b1e5f3e0] (04/37) Accurately ripped
Offsetted by -90:
01 [eb262265] (00/39) No match (V2 was not tested)
02 [1d81637d] (00/41) No match (V2 was not tested)
03 [991250ad] (00/41) No match (V2 was not tested)
04 [b08ee197] (00/40) No match (V2 was not tested)
05 [6da862b4] (00/39) No match (V2 was not tested)
06 [c59d437e] (00/38) No match (V2 was not tested)
07 [0d903da3] (00/37) No match (V2 was not tested)
08 [57a7b334] (00/39) No match (V2 was not tested)
09 [2950d778] (00/39) No match (V2 was not tested)
10 [242de1e9] (00/40) No match (V2 was not tested)
11 [a50d81bf] (00/37) No match (V2 was not tested)
Offsetted by -6:
01 [79323468] (00/39) No match
02 [838aec4a] (00/41) No match
03 [7d37b2e9] (00/41) No match
04 [6efa51c3] (00/40) No match
05 [5b6d5f9d] (00/39) No match
06 [b69a6f18] (00/38) No match
07 [3058246f] (00/37) No match
08 [ab838cd1] (00/39) No match
09 [1a78dd58] (00/39) No match (V2 was not tested)
10 [e43d381b] (00/40) No match
11 [de2787f9] (00/37) No match

Track Peak [ CRC32 ] [W/O NULL] [ LOG ]
– 100,0 [7564D502] [D0984600] CRC32
01 99,7 [8CBA6878] [FA69D95F]
02 99,7 [11643DD9] [AD117E19]
03 99,8 [A344C7EF] [941FC741]
04 99,8 [C12C39CF] [31437C5D]
05 99,8 [11A524A9] [5BF7A775]
06 99,8 [CD673C5A] [DB0F6C68]
07 99,7 [C5DD45E9] [CE70B1BC]
08 99,7 [70EFE5A2] [0E223E55]
09 99,7 [0EC023BD] [9972DAD8]
10 99,8 [EE536DA9] [3F66C3C4]
11 100,0 [4C44D32F] [80481A8B]

Adriano Celentano - Dormi Amore (La Situazione Non È Buona) (2007)

All thanks go to the original releaser

Adriano Celentano in my Blog

Download Adriano Celentano - Dormi Amore (La Situazione Non È Buona) (2007):