Subcategories

Adriano Celentano - Facciamo Finta Che Sia Vero (2011)

Posted By: v3122
Adriano Celentano - Facciamo Finta Che Sia Vero (2011)

Adriano Celentano - Facciamo Finta Che Sia Vero (2011)
EAC | Flac(Image) + Cue + Log & MP3 CBR 320Kbps
Clan Celentano, CLN 2098 | ~ 271 or 95 Mb | Scans(jpg) -> 155 Mb
Pop Rock, Ballad, Vocal

One of Italy's best-loved artists, Adriano Celentano has been equally successful in film and music. Whether singing Elvis Presley-inspired rock, as he did as a member of the Rock Boys in 1957, or romantic balladry, Celentano found a dedicated market for his music. Reaching the top of the Italian music charts with his debut single "Il Tuo Bacio e Come un Skirt" in 1959, he matched its success with the million-selling "24000 Baci (24,000 Kisses)" in 1961; "Il Ragazzo Della Via Gluck," which went on to be translated and re-recorded in 18 languages, in 1966; and Prisencolinensinainciusol in 1972.

Celentano's albums have been similarly embraced. His debut album, Non Mi Dir, reached the top position of Italy's charts in 1965. His album Soli spent 58 weeks on the charts in 1978-1979. Although he left music for nearly two decades to focus on his career as an actor, Celentano later recaptured the momentum of his early career. His comeback album, Mina + Celentano, was a major hit in 1998 while his second album, Francamente Me Ne Infischio, based on the television-variety show that he agreed to host in 1999, spent several weeks at the top of Italy's album charts. Esco di Rado – E Parlo Ancora Meno, the third album since Celentano returned to music, sold more than 600,000 copies before its release.
Celentano continued to balance his music career with his work in Italian cinema. As an actor, he made his theatrical debut in such movies as Dai, Johnny, Dai!, I Ragazzi del Jukebox, I Frenetici in 1959, and Fellini's classic La Dolce Vita in 1960. His subsequent screen appearances included roles in such films as The Sin, Rugantino, Give Me Five, Il Bisbetico Domato, and Segni Parsticolari: Bellissimo. Having made his debut as a producer and director with the 1974 film Yuppi Du, Celentano wen on to direct such films as L'atra Meta Del Cielo and Geppo Il Folle. His first long-term experience with television came in late 1987 when he agreed to host the variety show Fantastico 8.

by Craig Harris, allmusic
Adriano Celentano - Facciamo Finta Che Sia Vero (2011)


Adriano Celentano - Facciamo Finta Che Sia Vero (2011):

Adriano Celentano - Facciamo Finta Che Sia Vero (2011)

Tracklist:

01. Non ti accorgevi di me [3:09]
02. Ti penso e cambia il mondo [4:26]
03. Facciamo finta che sia vero [3:27]
04. Non so piu cosa fare [6:32]
05. Anna parte [3:26]
06. Fuoco nel vento [4:22]
07. La cumbia di chi cambia [4:14]
08. La mezza luna [3:29]
09. Il mutuo [6:57]

Exact Audio Copy V1.1 from 23. June 2015

EAC extraction logfile from 12. June 2016, 2:02

ADRIANO CELENTANO / Facciamo finta che sia vero (Italy, CLAN, CLN 2098)

Used drive : ASUS DRW-24B3ST Adapter: 1 ID: 1

Read mode : Secure
Utilize accurate stream : Yes
Defeat audio cache : Yes
Make use of C2 pointers : No

Read offset correction : 6
Overread into Lead-In and Lead-Out : No
Fill up missing offset samples with silence : Yes
Delete leading and trailing silent blocks : No
Null samples used in CRC calculations : Yes
Used interface : Native Win32 interface for Win NT & 2000

Used output format : User Defined Encoder
Selected bitrate : 1024 kBit/s
Quality : High
Add ID3 tag : No
Command line compressor : C:\Program Files\EAC(v.1.1)\WV\wavpack.exe
Additional command line options : -h -hh -m %source%


TOC of the extracted CD

Track | Start | Length | Start sector | End sector
––––––––––––––––––––––––––––-
1 | 0:00.00 | 3:09.02 | 0 | 14176
2 | 3:09.02 | 4:26.10 | 14177 | 34136
3 | 7:35.12 | 3:26.49 | 34137 | 49635
4 | 11:01.61 | 6:31.52 | 49636 | 79012
5 | 17:33.38 | 3:25.47 | 79013 | 94434
6 | 20:59.10 | 4:22.32 | 94435 | 114116
7 | 25:21.42 | 4:13.39 | 114117 | 133130
8 | 29:35.06 | 3:29.23 | 133131 | 148828
9 | 33:04.29 | 6:57.25 | 148829 | 180128


Range status and errors

Selected range

Filename F:\ADRIANO CELENTANO - Facciamo finta che sia vero (IT 2011 Clan Celentano S.r.l. • CLN 2098)\ADRIANO CELENTANO - Facciamo … vero (Italy, CLAN, CLN 2098).wav

Peak level 99.9 %
Extraction speed 7.0 X
Range quality 99.9 %
Test CRC 86E6294C
Copy CRC 86E6294C
Copy OK

No errors occurred


AccurateRip summary

Track 1 accurately ripped (confidence 17) [44F95578] (AR v2)
Track 2 accurately ripped (confidence 20) [6327464C] (AR v2)
Track 3 accurately ripped (confidence 18) [39F2E970] (AR v2)
Track 4 accurately ripped (confidence 19) [D216D258] (AR v2)
Track 5 accurately ripped (confidence 18) [01C0825B] (AR v2)
Track 6 accurately ripped (confidence 18) [702DECE5] (AR v2)
Track 7 accurately ripped (confidence 18) [7C8E012A] (AR v2)
Track 8 accurately ripped (confidence 19) [FA1EF3B1] (AR v2)
Track 9 accurately ripped (confidence 18) [FDC6F135] (AR v2)

All tracks accurately ripped

End of status report

==== Log checksum CDF405542E165AA2D24F3D6F2D13728590586DBC2B76F8109B66338EE7D1E642 ====

foobar2000 1.2.9 / Dynamic Range Meter 1.1.1
log date: 2017-04-27 20:24:37

––––––––––––––––––––––––––––––––––––––––
Analyzed: ADRIANO CELENTANO / Facciamo finta che sia vero (Italy, CLAN, CLN 2098)
––––––––––––––––––––––––––––––––––––––––

DR Peak RMS Duration Track
––––––––––––––––––––––––––––––––––––––––
DR5 -0.01 dB -7.03 dB 3:09 01-Non ti accorgevi di me
DR6 -0.01 dB -7.18 dB 4:26 02-Ti penso e cambia il mondo
DR7 -0.02 dB -8.65 dB 3:27 03-Facciamo finta che sia vero
DR8 -0.01 dB -11.08 dB 6:32 04-Non so piu cosa fare
DR9 -0.01 dB -10.54 dB 3:26 05-Anna parte
DR6 -0.01 dB -8.46 dB 4:22 06-Fuoco nel vento
DR6 -0.02 dB -7.09 dB 4:14 07-La cumbia di chi cambia
DR6 -0.12 dB -8.49 dB 3:29 08-La mezza luna
DR8 -0.01 dB -10.91 dB 6:57 09-Il mutuo
––––––––––––––––––––––––––––––––––––––––

Number of tracks: 9
Official DR value: DR7

Samplerate: 44100 Hz
Channels: 2
Bits per sample: 16
Bitrate: 920 kbps
Codec: FLAC

[CUETools log; Date: 27.04.2017 20:24:27; Version: 2.1.4]
[CTDB TOCID: tF5gg0JOe_L4_SMKvVEKGyKDf8I-] found.
Track | CTDB Status
1 | (48/48) Accurately ripped
2 | (48/48) Accurately ripped
3 | (48/48) Accurately ripped
4 | (48/48) Accurately ripped
5 | (48/48) Accurately ripped
6 | (47/48) Accurately ripped
7 | (48/48) Accurately ripped
8 | (48/48) Accurately ripped
9 | (48/48) Accurately ripped
[AccurateRip ID: 000ceef4-00601033-7a096109] found.
Track [ CRC | V2 ] Status
01 [eb4ce363|44f95578] (00+21/23) Accurately ripped
02 [05e225f9|6327464c] (00+24/26) Accurately ripped
03 [f645bee0|39f2e970] (00+22/24) Accurately ripped
04 [d0004a83|d216d258] (00+23/26) Accurately ripped
05 [c366bf2b|01c0825b] (00+22/24) Accurately ripped
06 [50309b37|702dece5] (00+22/24) Accurately ripped
07 [07707a45|7c8e012a] (00+22/24) Accurately ripped
08 [9d0fe999|fa1ef3b1] (00+23/25) Accurately ripped
09 [17a82626|fdc6f135] (00+22/24) Accurately ripped
Offsetted by -6:
01 [31196f2c] (00/23) No match (V2 was not tested)
02 [1414a471] (00/26) No match (V2 was not tested)
03 [444f3e3d] (00/24) No match (V2 was not tested)
04 [f2ac6fc3] (00/26) No match (V2 was not tested)
05 [695a0a1b] (00/24) No match (V2 was not tested)
06 [45dd7e01] (00/24) No match (V2 was not tested)
07 [b26c86a6] (00/24) No match (V2 was not tested)
08 [d5845ec7] (00/25) No match (V2 was not tested)
09 [5464dfb8] (00/24) No match (V2 was not tested)

Track Peak [ CRC32 ] [W/O NULL] [ LOG ]
– 99,9 [86E6294C] [663146E8] CRC32
01 99,9 [D645CC36] [E69FE0C5]
02 99,9 [74A5E85A] [4FE26913]
03 99,8 [3227B927] [5FCB1A43]
04 99,9 [F2B09310] [5F940A39]
05 99,9 [3CAF4BE2] [4F4D9945]
06 99,9 [F02DA92F] [C455BE3F]
07 99,8 [2376663F] [6EE60AD7]
08 98,6 [AB773E95] [B482ADD5]
09 99,9 [DCCE26BA] [216E1551]

Adriano Celentano - Facciamo Finta Che Sia Vero (2011)

All thanks go to the original releaser

Adriano Celentano in my Blog

Download Adriano Celentano - Facciamo Finta Che Sia Vero (2011):