Subcategories

Affinity - 1971-72 (2003) {Remastered}

Posted By: popsakov
Affinity - 1971-72 (2003) {Remastered}

Affinity - 1971-72 (2003) {Remastered}
EAC Rip | FLAC (Img) + Cue + Log ~ 312 Mb | MP3 CBR320 ~ 119 Mb
Full Scans (JPG, 600 dpi) ~ 49 Mb | RAR 5% Recovery
Art Rock, Progressive Rock, Jazz Rock, Blues Rock | Angel Air Records #SJPCD145

The original Affinity essentially survived for just one album, a superb, jazz-tinged effort released on the Vertigo label in 1971, and subsequently reissued on several occasions since then – a cottage industry that seems to have spawned more interest in the band today than they ever attracted during their career. Certainly few people were aware that the group continued on following the departure (for a solo career) of vocalist Linda Hoyle later in 1971, but this set – aptly titled for the timespan it covers – not only documents the band's further activities, it also suggests that their ultimate demise was far from timely. With Vivienne McAuliffe proving a more than ample replacement, Affinity continued both gigging and recording, and this collection of previously unreleased demos and outtakes finds the band in excellent form. One can only imagine how great they might have been, had they had a full studio (and a recording budget) at their disposal!
~ Dave Thompson, All Music
Affinity - 1971-72 (2003) {Remastered}


***************

Affinity - 1971-72 (2003) {Remastered}

Track List:

01. Moira's Hand [5:22]
02. Grey Skies [8:42]
03. Cream On Your Face [5:23]
04. Sunshower [5:48]
05. All Along The Watchtower, It's About That Time [7:45]
06. Rio [4:50]
07. Poor Man's Son [3:25]
08. Sarah's Wardrobe [4:18]
09. Highgate [3:56]

Personnel:
Mike Jopp - Electric Guitar, Acoustic Guitar
Mo Foster - Bass Guitar, Double Bass, Hammond Organ, Fender Piano, Percussion
Grant Serpell - Drums
Vivienne McAuliffe - Vocals
Dave Watts - Hammond Organ, Piano

Exact Audio Copy V1.3 from 2. September 2016

Отчёт EAC об извлечении, выполненном 20. января 2018, 13:25

Affinity / 1971-1972

Дисковод: ASUS DRW-24B3ST Adapter: 1 ID: 0

Режим чтения : Достоверность
Использование точного потока : Да
Отключение кэша аудио : Да
Использование указателей C2 : Нет

Коррекция смещения при чтении : 6
Способность читать области Lead-in и Lead-out : Нет
Заполнение пропущенных сэмплов тишиной : Да
Удаление блоков с тишиной в начале и конце : Нет
При вычислениях CRC использовались нулевые сэмплы : Да
Интерфейс : Встроенный Win32-интерфейс для Win NT/2000

Выходной формат : Пользовательский кодировщик
Выбранный битрейт : 1024 kBit/s
Качество : Высокий
Добавление ID3-тега : Нет
Утилита сжатия : C:\Program Files (x86)\Exact Audio Copy\Flac\flac-1.3.2-win\win64\flac.exe
Дополнительные параметры : -V -8 -T "Date=%year%" -T "Genre=%genre%" %source%


TOC извлечённого CD

Трек | Старт | Длительность | Начальный сектор | Конечный сектор
––––––––––––––––––––––––––––––––––-
1 | 0:00.00 | 5:21.51 | 0 | 24125
2 | 5:21.51 | 8:42.22 | 24126 | 63297
3 | 14:03.73 | 5:23.31 | 63298 | 87553
4 | 19:27.29 | 5:47.61 | 87554 | 113639
5 | 25:15.15 | 7:45.25 | 113640 | 148539
6 | 33:00.40 | 4:50.00 | 148540 | 170289
7 | 37:50.40 | 3:25.14 | 170290 | 185678
8 | 41:15.54 | 4:17.69 | 185679 | 205022
9 | 45:33.48 | 3:56.21 | 205023 | 222743


Характеристики диапазона извлечения и сообщения об ошибках

Выбранный диапазон

Имя файла E:\Torrents\Affinity - 2003 - 1971-72\Affinity - 1971-1972.wav

Пиковый уровень 98.8 %
Скорость извлечения 8.1 X
Качество диапазона 100.0 %
CRC теста 12D8326D
CRC копии 12D8326D
Копирование… OK

Ошибок не произошло


AccurateRip: сводка

Трек 1 точность не определена (достоверность 3) [A961AFB0], AccurateRip вернул [53E81185] (AR v2)
Трек 2 точность не определена (достоверность 3) [216A9309], AccurateRip вернул [37D19B82] (AR v2)
Трек 3 точность не определена (достоверность 3) [7509560A], AccurateRip вернул [3754674E] (AR v2)
Трек 4 точность не определена (достоверность 3) [D5E81F4A], AccurateRip вернул [EA1D0715] (AR v2)
Трек 5 точность не определена (достоверность 3) [CDAC6DB2], AccurateRip вернул [73B9644E] (AR v2)
Трек 6 точность не определена (достоверность 3) [BBDA7C29], AccurateRip вернул [CA5793EF] (AR v2)
Трек 7 точность не определена (достоверность 3) [0D4B7847], AccurateRip вернул [0EDAD32A] (AR v2)
Трек 8 точность не определена (достоверность 3) [7EAC217E], AccurateRip вернул [B13FA552] (AR v2)
Трек 9 точность не определена (достоверность 3) [D8CC2BFF], AccurateRip вернул [64B15004] (AR v2)

Ни один трек не прошёл проверки на точность
В вашей базе может быть иной вариант штамповки диска

Конец отчёта

==== Контрольная сумма отчёта 13F3D347F04D52FF3297702C367D1569BFCCB841F7D1BCFA20E8D9ABA88E6C57 ====

foobar2000 1.3.16 / Dynamic Range Meter 1.1.1
log date: 2018-01-20 15:17:31

––––––––––––––––––––––––––––––––––––––––
Analyzed: Affinity / 1971-1972
––––––––––––––––––––––––––––––––––––––––

DR Peak RMS Duration Track
––––––––––––––––––––––––––––––––––––––––
DR8 -0.10 dB -8.97 dB 5:22 01-Moira's Hand
DR7 -0.10 dB -7.97 dB 8:42 02-Grey Skies
DR6 -0.10 dB -6.76 dB 5:23 03-Cream On Your Face
DR9 -0.10 dB -11.79 dB 5:48 04-Sunshower
DR6 -0.10 dB -7.13 dB 7:45 05-All Along The Watchtower, It's About That Time
DR6 -0.10 dB -7.51 dB 4:50 06-Rio
DR8 -0.10 dB -9.90 dB 3:25 07-Poor Man's Son
DR8 -0.10 dB -9.86 dB 4:18 08-Sarah's Wardrobe
DR9 -1.30 dB -12.57 dB 3:56 09-Highgate
––––––––––––––––––––––––––––––––––––––––

Number of tracks: 9
Official DR value: DR7

Samplerate: 44100 Hz
Channels: 2
Bits per sample: 16
Bitrate: 838 kbps
Codec: FLAC
================================================================================

[CUETools log; Date: 20.01.2018 15:17:37; Version: 2.1.5]
[CTDB TOCID: l17P3jnctp2Mb0e0tMJ7vWtv9hA-] found.
Track | CTDB Status
1 | (9/9) Accurately ripped
2 | (9/9) Accurately ripped
3 | (9/9) Accurately ripped
4 | (9/9) Accurately ripped
5 | (9/9) Accurately ripped
6 | (9/9) Accurately ripped
7 | (9/9) Accurately ripped
8 | (9/9) Accurately ripped
9 | (9/9) Accurately ripped
[AccurateRip ID: 0012a11e-00863ed8-800b9909] found.
Track [ CRC | V2 ] Status
01 [a80cc806|a961afb0] (0+0/7) No match
02 [7ee9cac2|216a9309] (0+0/7) No match
03 [5fcb8382|7509560a] (0+0/7) No match
04 [4147a182|d5e81f4a] (0+0/7) No match
05 [d29d55df|cdac6db2] (0+0/7) No match
06 [37dfbe1e|bbda7c29] (0+0/7) No match
07 [f0364c45|0d4b7847] (0+0/7) No match
08 [77ae57f4|7eac217e] (0+0/7) No match
09 [4d4691e3|d8cc2bff] (0+0/7) No match
Offsetted by 48:
01 [5864c364] (2/7) Accurately ripped
02 [a56213d2] (2/7) Accurately ripped
03 [2a4fec6e] (2/7) Accurately ripped
04 [62169fc3] (2/7) Accurately ripped
05 [84ebd01c] (2/7) Accurately ripped
06 [4de13986] (2/7) Accurately ripped
07 [f81ec598] (2/7) Accurately ripped
08 [b5b1306a] (2/7) Accurately ripped
09 [e6b5345e] (2/7) Accurately ripped
Offsetted by -616:
01 [5ef8a132] (0/7) No match (V2 was not tested)
02 [fd9af953] (0/7) No match (V2 was not tested)
03 [aee2ee18] (0/7) No match (V2 was not tested)
04 [89a77132] (0/7) No match (V2 was not tested)
05 [7bb31b13] (0/7) No match (V2 was not tested)
06 [937538ce] (0/7) No match (V2 was not tested)
07 [dd6587e0] (0/7) No match (V2 was not tested)
08 [2b7a74c4] (0/7) No match (V2 was not tested)
09 [f875356e] (0/7) No match (V2 was not tested)

Track Peak [ CRC32 ] [W/O NULL] [ LOG ]
– 98,8 [12D8326D] [DF7048FA] CRC32
01 98,8 [DC34EE66] [CABECCA0]
02 98,8 [7CCA19A3] [7CB44096]
03 98,8 [D30A8955] [A15A2DB3]
04 98,8 [D5FB82CF] [A2269E07]
05 98,8 [FFC99694] [954C484A]
06 98,8 [10AB9CEC] [0DE58A59]
07 98,8 [6D288FD8] [05702CCE]
08 98,8 [1E8F8B61] [7781295F]
09 86,1 [0BEA5563] [84E73005]

Affinity - 1971-72 (2003) {Remastered}

All thanks go to Копысов

>>> My Blog <<<

Download from icerbox.com: