Subcategories

Ahmad Jamal - A Quiet Time (2009) {Dreyfus}

Posted By: tiburon
Ahmad Jamal - A Quiet Time (2009) {Dreyfus}

Ahmad Jamal - A Quiet Time (2009) {Dreyfus}
EAC 1.0b3 | FLAC tracks level 8 | Cue+Log+M3U | Full Scans 300dpi | 402MB + 5% Recovery
MP3 CBR 320 Kbps | 195MB + 5% Recovery
Genre: Jazz, Post-Bop

Well into his golden years, Ahmad Jamal continues to tour and record with the vigor of a man half his age. What is also evident is that his artistic sense is as high as it has ever been, as he consistently doles out fresh new melodies charged by his extraordinary talent, which is hardly reined in.
Track List
01. Paris After Dark 4:56
02. The Love Is Lost 4:02
03. Flight To Russia 7:45
04. Petry 6:02
05. Hi Fly 8:20
06. My Inspiration 5:15
07. After JALC (Jazz At Lincoln Center) 6:26
08. A Quiet Time 6:33
09. Tranquility 7:22
10. The Blooming Flower 4:29
11. I Hear A Rhapsody 5:18

musicians
Ahmad Jamal - piano
James Cammack - bass
Manolo Badrena - percussions
Kenny Washington - drums

Produced by Ahmad Jamal & Francis Dreyfus


Exact Audio Copy V1.0 beta 3 from 29. August 2011

EAC extraction logfile from 23. February 2013, 13:10

Ahmad Jamal / A Quiet Time

Used drive : HL-DT-STDVDRAM GH20NS10 Adapter: 2 ID: 1

Read mode : Secure
Utilize accurate stream : Yes
Defeat audio cache : Yes
Make use of C2 pointers : No

Read offset correction : 667
Overread into Lead-In and Lead-Out : No
Fill up missing offset samples with silence : Yes
Delete leading and trailing silent blocks : No
Null samples used in CRC calculations : Yes
Used interface : Native Win32 interface for Win NT & 2000
Gap handling : Appended to previous track

Used output format : User Defined Encoder
Selected bitrate : 1024 kBit/s
Quality : High
Add ID3 tag : No
Command line compressor : C:\Program Files\Exact Audio Copy\Flac\flac.exe
Additional command line options : -8 -V -T "ARTIST=%artist%" -T "TITLE=%title%" -T "ALBUM=%albumtitle%" -T "DATE=%year%" -T "TRACKNUMBER=%tracknr%" -T "TOTALTRACKS=%numtracks%" -T "GENRE=%genre%" -T "ALBUMARTIST=%albumartist%" -T "ALBUM ARTIST=%albumartist%" -T "COMMENT=EAC Secure Mode, Test & Copy, AccurateRip, FLAC -8" %source%


TOC of the extracted CD

Track | Start | Length | Start sector | End sector
––––––––––––––––––––––––––––-
1 | 0:00.00 | 4:56.10 | 0 | 22209
2 | 4:56.10 | 4:02.21 | 22210 | 40380
3 | 8:58.31 | 7:45.68 | 40381 | 75323
4 | 16:44.24 | 6:02.58 | 75324 | 102531
5 | 22:47.07 | 8:20.50 | 102532 | 140081
6 | 31:07.57 | 5:15.12 | 140082 | 163718
7 | 36:22.69 | 6:26.35 | 163719 | 192703
8 | 42:49.29 | 6:33.40 | 192704 | 222218
9 | 49:22.69 | 7:22.69 | 222219 | 255437
10 | 56:45.63 | 4:29.17 | 255438 | 275629
11 | 61:15.05 | 5:18.08 | 275630 | 299487


Track 1

Filename D:\Ahmad Jamal - A Quiet Time (2009) [FLAC]\01 - Paris After Dark.wav

Pre-gap length 0:00:02.00

Peak level 98.7 %
Extraction speed 4.0 X
Track quality 99.9 %
Test CRC A37B11C4
Copy CRC A37B11C4
Track not present in AccurateRip database
Copy OK

Track 2

Filename D:\Ahmad Jamal - A Quiet Time (2009) [FLAC]\02 - The Love Is Lost.wav

Peak level 97.4 %
Extraction speed 4.6 X
Track quality 100.0 %
Test CRC 55C866D0
Copy CRC 55C866D0
Track not present in AccurateRip database
Copy OK

Track 3

Filename D:\Ahmad Jamal - A Quiet Time (2009) [FLAC]\03 - Flight To Russia.wav

Peak level 99.9 %
Extraction speed 5.4 X
Track quality 100.0 %
Test CRC 3918D85F
Copy CRC 3918D85F
Track not present in AccurateRip database
Copy OK

Track 4

Filename D:\Ahmad Jamal - A Quiet Time (2009) [FLAC]\04 - Petry.wav

Peak level 99.1 %
Extraction speed 5.8 X
Track quality 100.0 %
Test CRC 77AE7EF8
Copy CRC 77AE7EF8
Track not present in AccurateRip database
Copy OK

Track 5

Filename D:\Ahmad Jamal - A Quiet Time (2009) [FLAC]\05 - Hi Fly.wav

Peak level 97.8 %
Extraction speed 6.3 X
Track quality 99.9 %
Test CRC D2C9FCC1
Copy CRC D2C9FCC1
Track not present in AccurateRip database
Copy OK

Track 6

Filename D:\Ahmad Jamal - A Quiet Time (2009) [FLAC]\06 - My Inspiration.wav

Peak level 97.2 %
Extraction speed 7.4 X
Track quality 100.0 %
Test CRC 73C98C64
Copy CRC 73C98C64
Track not present in AccurateRip database
Copy OK

Track 7

Filename D:\Ahmad Jamal - A Quiet Time (2009) [FLAC]\07 - After JALC (Jazz At Lincoln Center).wav

Peak level 97.8 %
Extraction speed 7.1 X
Track quality 100.0 %
Test CRC 18B16D37
Copy CRC 18B16D37
Track not present in AccurateRip database
Copy OK

Track 8

Filename D:\Ahmad Jamal - A Quiet Time (2009) [FLAC]\08 - A Quiet Time.wav

Peak level 98.2 %
Extraction speed 8.0 X
Track quality 100.0 %
Test CRC 490A089E
Copy CRC 490A089E
Track not present in AccurateRip database
Copy OK

Track 9

Filename D:\Ahmad Jamal - A Quiet Time (2009) [FLAC]\09 - Tranquility.wav

Peak level 98.6 %
Extraction speed 7.5 X
Track quality 100.0 %
Test CRC 2213A175
Copy CRC 2213A175
Track not present in AccurateRip database
Copy OK

Track 10

Filename D:\Ahmad Jamal - A Quiet Time (2009) [FLAC]\10 - The Blooming Flower.wav

Peak level 96.9 %
Extraction speed 6.0 X
Track quality 99.9 %
Test CRC 0E742DAE
Copy CRC 0E742DAE
Track not present in AccurateRip database
Copy OK

Track 11

Filename D:\Ahmad Jamal - A Quiet Time (2009) [FLAC]\11 - I Hear A Rhapsody.wav

Peak level 97.3 %
Extraction speed 6.7 X
Track quality 99.9 %
Test CRC 776C1073
Copy CRC 776C1073
Track not present in AccurateRip database
Copy OK


None of the tracks are present in the AccurateRip database

No errors occurred

End of status report

==== Log checksum 84DB7C45F19518F5135C2A2AC55DED9DEDA268A779C1F93908D19A80972CA1B0 ====


––––––––––––––––––––––––––––––––––––––––
Analyzed: Ahmad Jamal / A Quiet Time
––––––––––––––––––––––––––––––––––––––––

DR Peak RMS Duration Track
––––––––––––––––––––––––––––––––––––––––
DR11 -0.11 dB -13.40 dB 4:56 01-Paris After Dark
DR11 -0.23 dB -14.60 dB 4:02 02-The Love Is Lost
DR10 0.00 dB -11.63 dB 7:46 03-Flight To Russia
DR9 -0.08 dB -12.83 dB 6:03 04-Petry
DR10 -0.19 dB -12.77 dB 8:21 05-Hi Fly
DR9 -0.25 dB -12.23 dB 5:15 06-My Inspiration
DR9 -0.19 dB -12.25 dB 6:26 07-After JALC (Jazz At Lincoln Center)
DR9 -0.16 dB -12.28 dB 6:34 08-A Quiet Time
DR10 -0.11 dB -11.56 dB 7:23 09-Tranquility
DR9 -0.27 dB -11.89 dB 4:29 10-The Blooming Flower
DR9 -0.24 dB -12.89 dB 5:18 11-I Hear A Rhapsody
––––––––––––––––––––––––––––––––––––––––

Number of tracks: 11
Official DR value: DR10

Samplerate: 44100 Hz
Channels: 2
Bits per sample: 16
Bitrate: 510 kbps
Codec: FLAC
================================================================================

Ahmad Jamal - A Quiet Time (2009) {Dreyfus}
Ahmad Jamal - A Quiet Time (2009) {Dreyfus}
Ahmad Jamal - A Quiet Time (2009) {Dreyfus}